osu file format v14

[General]
AudioFilename: FINALLY.mp3
AudioLeadIn: 0
PreviewTime: 5701
Countdown: 1
SampleSet: None
StackLeniency: 0.7
Mode: 0
LetterboxInBreaks: 1
WidescreenStoryboard: 1

[Editor]
Bookmarks: 3274,4649,8274,24020
DistanceSpacing: 1.4
BeatDivisor: 8
GridSize: 8
TimelineZoom: 2

[Metadata]
Title:Finally
TitleUnicode:Finally
Artist:Ariel
ArtistUnicode:Ariel
Creator:aaronzzz
Version:SUNRISE FRESH
Source:TV Commercial
Tags:Ariel 7.50 nalang tipid-pack holy shit m8
BeatmapID:678458
BeatmapSetID:298862

[Difficulty]
HPDrainRate:7.5
CircleSize:5.2
OverallDifficulty:7.5
ApproachRate:10
SliderMultiplier:2.5
SliderTickRate:2

[Events]
//Background and Video events
0,0,"BARIELG.jpg",0,0
Video,0,"Finally Ariel_(720p).avi"
//Break Periods
//Storyboard Layer 0 (Background)
//Storyboard Layer 1 (Fail)
//Storyboard Layer 2 (Pass)
//Storyboard Layer 3 (Foreground)
//Storyboard Sound Samples

[TimingPoints]
-226,500,4,2,0,100,1,0
3274,-100,4,2,0,10,0,0
3336,-100,4,2,0,15,0,0
3399,-100,4,2,0,20,0,0
3461,-100,4,2,0,25,0,0
3524,-100,4,2,0,30,0,0
3586,-100,4,2,0,35,0,0
3649,-100,4,2,0,40,0,0
3711,-100,4,2,0,45,0,0
3774,-100,4,2,0,50,0,0
3836,-100,4,2,0,55,0,0
3899,-100,4,2,0,60,0,0
3961,-100,4,2,0,65,0,0
4024,-100,4,2,0,70,0,0
4086,-100,4,2,0,75,0,0
4149,-100,4,2,0,80,0,0
4211,-100,4,2,0,83,0,0
4274,-100,4,2,0,85,0,0
4336,-100,4,2,0,88,0,0
4399,-100,4,2,0,90,0,0
4461,-100,4,2,0,91,0,0
4524,-100,4,2,0,93,0,0
4586,-100,4,2,0,95,0,0
4649,-100,4,2,0,100,0,0
5274,-100,4,2,0,100,0,1
5336,-100,4,2,0,100,0,0
5774,-50,4,2,0,100,0,0
6899,-166.666666666667,4,2,0,100,0,0
8524,-100,4,2,0,100,0,0
11649,-100,4,2,2,100,0,0
11897,-100,4,2,0,100,0,0
12774,-100,4,2,0,50,0,0
12899,-100,4,2,0,60,0,0
13024,-100,4,2,0,70,0,0
13149,-100,4,2,0,80,0,0
13274,-100,4,2,0,90,0,1
13336,-100,4,2,0,90,0,0
13524,-100,4,2,0,100,0,0
19524,-100,4,2,2,50,0,0
19555,-100,4,2,2,60,0,0
19586,-100,4,2,2,70,0,0
19617,-100,4,2,2,80,0,0
19649,-100,4,2,2,90,0,0
19680,-100,4,2,0,100,0,0
21270,-100,4,3,2,100,0,1
21336,-100,4,2,0,100,0,0
24020,-50,4,2,0,100,0,0
26895,-50,4,2,0,5,0,0
27270,-100,4,2,0,100,0,0
29270,-200,4,1,1,100,0,1
29301,-200,4,1,1,5,0,0

[Colours]
Combo1 : 255,255,255
Combo2 : 0,202,0

[HitObjects]
32,32,274,5,0,0:0:0:0:
488,28,524,1,0,0:0:0:0:
256,368,774,1,0,0:0:0:0:
40,184,1024,1,8,3:3:0:0:
256,120,1149,1,8,3:3:0:0:
480,192,1274,1,8,3:3:0:0:
256,200,1524,1,0,0:0:0:0:
135,191,1774,2,0,P|165:181|196:184,2,62.5
220,56,2274,2,4,L|256:120,1,62.5
360,316,2649,2,4,L|316:232,1,62.5
72,88,3024,1,4,0:0:0:0:
196,188,3274,5,0,0:0:0:0:
208,216,3336,5,0,0:0:0:0:
228,240,3399,5,0,0:0:0:0:
256,252,3461,5,0,0:0:0:0:
288,252,3524,5,0,0:0:0:0:
320,244,3586,5,0,0:0:0:0:
344,224,3649,5,0,0:0:0:0:
360,200,3711,5,0,0:0:0:0:
368,168,3774,5,0,0:0:0:0:
360,136,3836,5,0,0:0:0:0:
344,108,3899,5,0,0:0:0:0:
320,88,3961,5,0,0:0:0:0:
288,80,4024,5,0,0:0:0:0:
256,76,4086,5,0,0:0:0:0:
224,84,4149,5,0,0:0:0:0:
196,100,4211,5,0,0:0:0:0:
180,128,4274,6,0,P|172:156|176:168,4,41.6666666666667
280,160,4690,6,8,B|272:188|272:188|240:196,1,62.5
96,292,5024,5,8,3:3:0:0:
288,32,5149,1,8,3:3:0:0:
440,328,5274,1,14,3:3:0:0:
144,304,5774,6,0,P|196:332|244:288,1,125
236,168,6024,2,0,L|240:296,1,125
160,192,6274,2,0,B|156:128|192:84|236:96|264:96,1,125,2|0,0:0|0:0,0:0:0:0:
336,100,6524,1,8,0:0:0:0:
488,264,6649,1,8,0:0:0:0:
296,360,6774,1,12,0:0:0:0:
96,56,7024,2,0,L|248:56,1,149.999995422363,2|0,0:0|0:0,0:0:0:0:
96,56,7649,1,2,0:0:0:0:
112,320,7774,1,2,0:0:0:0:
496,16,8024,1,0,0:0:0:0:
204,84,8524,6,0,B|224:64|224:64|244:188,2,125
368,128,9274,1,8,0:0:0:0:
48,256,9524,1,0,0:0:0:0:
104,320,9649,1,0,0:0:0:0:
184,352,9774,1,2,0:0:0:0:
288,304,10024,2,0,B|208:320|208:320|152:208|152:208|208:200,1,250
232,180,10649,1,0,0:0:0:0:
272,156,10774,6,0,P|292:116|300:168,1,125,8|0,0:0|0:0,0:0:0:0:
156,64,11274,1,0,0:0:0:0:
144,160,11649,2,2,L|160:176,1,15.625
136,192,11711,2,2,L|152:208,1,15.625
120,232,11774,2,2,L|136:248,1,15.625
104,280,11836,2,2,L|120:296,1,15.625
232,112,12022,2,0,L|288:184,1,62.5
272,160,12274,2,0,P|332:136|376:168,2,125,0|0|8,0:0|0:0|3:3,0:0:0:0:
88,288,12899,1,8,3:3:0:0:
488,352,13024,1,8,3:3:0:0:
168,64,13149,1,8,3:3:0:0:
488,152,13274,1,8,3:3:0:0:
268,196,13524,6,0,B|304:196|316:164|316:164|344:176|344:176|372:228,2,125,0|4|0,0:0|0:0|0:0,0:0:0:0:
160,332,14274,1,0,0:0:0:0:
176,160,14524,2,0,L|96:200,1,62.5,2|0,0:0|0:0,0:0:0:0:
88,120,14774,2,0,L|152:88,1,62.5
232,132,15024,2,0,L|152:172,1,62.5,2|0,0:0|0:0,0:0:0:0:
144,92,15274,2,0,L|204:64,1,62.5
284,44,15524,1,0,0:0:0:0:
456,232,15649,1,0,0:0:0:0:
384,88,15774,1,8,0:0:0:0:
272,192,15899,1,0,0:0:0:0:
176,336,16024,6,0,L|80:356,2,62.5
424,80,16524,1,0,0:0:0:0:
216,160,16774,2,0,L|84:216,2,125
36,352,17524,5,4,0:0:0:0:
256,32,17774,1,4,0:0:0:0:
476,352,18024,1,4,0:0:0:0:
36,32,18524,5,4,0:0:0:0:
256,348,18774,1,4,0:0:0:0:
476,36,19024,1,4,0:0:0:0:
364,184,19524,2,2,L|348:200,7,15.625
192,120,20024,2,0,L|112:192,1,62.5
128,220,20274,2,0,P|148:172|124:132,1,62.5
146,163,20524,1,0,0:0:0:0:
344,344,20649,1,0,0:0:0:0:
200,104,20774,1,8,3:3:0:0:
424,16,20899,1,8,3:3:0:0:
512,240,21024,1,8,3:3:0:0:
48,328,21149,1,8,3:3:0:0:
88,56,21270,1,12,3:3:0:0:
88,56,21520,5,0,0:0:0:0:
432,48,21645,1,0,0:0:0:0:
448,344,21770,1,0,0:0:0:0:
96,352,21895,1,0,0:0:0:0:
176,120,22020,5,0,0:0:0:0:
336,120,22145,1,0,0:0:0:0:
344,288,22270,1,0,0:0:0:0:
184,288,22395,1,0,0:0:0:0:
72,40,22520,5,0,0:0:0:0:
24,152,22645,1,0,0:0:0:0:
448,352,22770,1,0,0:0:0:0:
512,264,22895,1,0,0:0:0:0:
144,368,23020,5,0,0:0:0:0:
32,272,23145,1,0,0:0:0:0:
496,104,23270,1,0,0:0:0:0:
408,8,23395,1,0,0:0:0:0:
456,136,23520,5,0,0:0:0:0:
352,352,23645,1,0,0:0:0:0:
64,240,23770,1,0,0:0:0:0:
224,24,23895,1,0,0:0:0:0:
374,33,24020,6,0,P|425:182|172:344,1,500,8|0,3:3|0:0,0:0:0:0:
256,192,24645,12,0,27020,0:0:0:0:
24,184,27270,5,10,0:0:0:0:
256,0,27395,1,10,0:0:0:0:
512,192,27520,1,10,0:0:0:0:
32,352,27770,1,10,0:0:0:0:
496,8,27895,1,10,0:0:0:0:
272,176,28020,1,10,0:0:0:0:
72,64,28270,5,8,3:3:0:0:
384,144,28395,1,8,3:3:0:0:
64,64,28520,1,8,3:3:0:0:
216,336,28645,1,8,3:3:0:0:
56,72,28770,1,8,3:3:0:0:
512,288,28895,1,8,3:3:0:0:
56,80,29020,1,8,3:3:0:0:
512,384,29145,1,8,3:3:0:0:
192,144,29270,6,0,L|192:152,1,7.8125,4|0,0:0|0:0,0:0:0:0:
