osu file format v14

[General]
AudioFilename: FINALLY.mp3
AudioLeadIn: 0
PreviewTime: 5701
Countdown: 1
SampleSet: Soft
StackLeniency: 0.7
Mode: 0
LetterboxInBreaks: 1
WidescreenStoryboard: 1

[Editor]
Bookmarks: 8274
DistanceSpacing: 0.8
BeatDivisor: 4
GridSize: 4
TimelineZoom: 1

[Metadata]
Title:Finally
TitleUnicode:Finally
Artist:Ariel
ArtistUnicode:Ariel
Creator:aaronzzz
Version:OXYBLEACH
Source:TV Commercial
Tags:Ariel 7.50 nalang tipid-pack holy shit m8
BeatmapID:670637
BeatmapSetID:298862

[Difficulty]
HPDrainRate:7
CircleSize:4
OverallDifficulty:7.5
ApproachRate:9
SliderMultiplier:3.5
SliderTickRate:2

[Events]
//Background and Video events
0,0,"BARIELG.jpg",0,0
Video,0,"Finally Ariel_(720p).avi"
//Break Periods
//Storyboard Layer 0 (Background)
//Storyboard Layer 1 (Fail)
//Storyboard Layer 2 (Pass)
//Storyboard Layer 3 (Foreground)
//Storyboard Sound Samples

[TimingPoints]
-226,500,4,2,0,100,1,0
5274,500,4,2,0,100,1,1
21270,500,4,2,0,100,1,0

[Colours]
Combo1 : 255,255,255
Combo2 : 0,202,0

[HitObjects]
128,280,274,5,0,0:0:0:0:
444,72,524,1,0,0:0:0:0:
128,276,774,1,8,0:0:0:0:
308,192,1024,5,8,3:0:0:0:
236,148,1149,1,8,3:0:0:0:
152,144,1274,1,4,3:0:0:0:
72,156,1399,2,0,L|84:260,1,87.5
448,136,1649,6,0,L|464:240,1,87.5,0|8,0:0|0:0,0:0:0:0:
408,288,1899,1,0,0:0:0:0:
328,312,2024,2,0,P|272:244|184:284,1,175,0|8,0:0|0:0,0:0:0:0:
120,300,2399,2,0,P|60:200|108:120,1,175,8|8,0:0|0:0,0:0:0:0:
140,92,2774,2,0,L|340:96,1,175,8|8,0:0|0:0,0:0:0:0:
260,324,3274,5,4,0:3:0:0:
208,304,3399,1,0,0:0:0:0:
156,272,3524,1,0,0:0:0:0:
120,220,3649,1,0,0:0:0:0:
120,160,3774,1,4,0:0:0:0:
136,96,3899,1,0,0:0:0:0:
192,72,4024,1,0,0:0:0:0:
256,72,4149,5,0,0:0:0:0:
304,112,4274,1,4,0:3:0:0:
344,160,4399,1,0,0:0:0:0:
392,200,4524,1,0,0:0:0:0:
452,212,4649,1,0,0:0:0:0:
492,164,4774,1,4,0:0:0:0:
244,296,5024,5,8,3:0:0:0:
196,252,5149,1,8,3:0:0:0:
156,204,5274,2,0,L|88:132,1,87.5,4|0,3:0|0:0,0:0:0:0:
356,204,5524,2,0,L|424:132,1,87.5
108,208,5774,2,0,L|40:136,1,87.5,8|0,0:0|0:0,0:0:0:0:
392,208,6024,2,0,L|460:136,1,87.5
416,60,6274,5,0,0:0:0:0:
328,40,6399,1,0,0:0:0:0:
260,92,6524,1,0,0:0:0:0:
216,168,6649,2,0,P|184:224|144:244,1,87.5,0|8,0:0|0:0,0:0:0:0:
340,256,6899,2,0,P|308:312|268:332,2,87.5
332,172,7274,1,0,0:0:0:0:
276,104,7399,1,0,0:0:0:0:
196,84,7524,1,0,0:0:0:0:
116,104,7649,6,0,L|20:104,1,87.5,0|8,0:0|0:0,0:0:0:0:
204,204,7899,2,0,L|120:228,1,87.5
348,268,8149,2,0,L|284:340,1,87.5
208,344,8399,1,0,0:0:0:0:
140,300,8524,1,0,0:0:0:0:
100,232,8649,1,0,0:0:0:0:
96,156,8774,6,0,L|96:60,1,87.5,8|0,0:0|0:0,0:0:0:0:
264,60,9024,2,0,L|264:168,1,87.5
444,152,9274,2,0,L|444:56,2,87.5
440,240,9649,1,0,0:0:0:0:
376,296,9774,1,8,0:0:0:0:
296,304,9899,1,0,0:0:0:0:
224,256,10024,2,0,P|188:176|204:92,1,175
280,80,10399,1,0,0:0:0:0:
368,92,10524,2,0,P|388:208|344:288,1,175,0|8,0:0|0:0,0:0:0:0:
304,300,10899,5,0,0:0:0:0:
228,308,11024,2,0,L|40:308,1,175
240,44,11524,2,0,L|440:44,1,175
164,340,12024,2,0,L|16:228,1,175
324,16,12524,2,0,L|476:120,1,175,0|8,0:0|0:0,0:0:0:0:
456,200,12899,1,8,0:0:0:0:
416,280,13024,1,0,0:0:0:0:
332,308,13149,1,0,3:0:0:0:
240,304,13274,6,0,P|176:312|164:256,1,87.5,4|0,3:0|0:0,0:0:0:0:
276,188,13524,2,0,P|244:168|264:112,1,87.5
380,116,13774,2,0,P|396:80|444:88,1,87.5,8|0,0:0|0:0,0:0:0:0:
436,212,14024,1,0,0:0:0:0:
48,60,14524,6,0,B|49:122|49:122|74:145|74:145|72:244|72:232,2,175,0|8|0,0:0|0:0|0:0,0:0:0:0:
124,56,15149,1,0,0:0:0:0:
208,56,15274,1,0,0:0:0:0:
296,56,15399,1,0,0:0:0:0:
376,52,15524,2,0,P|388:152|316:196,2,175,0|8|0,0:0|0:0|0:0,0:0:0:0:
312,12,16149,5,0,0:0:0:0:
232,16,16274,1,0,0:0:0:0:
200,80,16399,1,0,0:0:0:0:
192,156,16524,2,0,B|192:256|192:256|292:256,3,175,0|8|0|0,0:0|0:0|0:0|0:0,0:0:0:0:
476,256,17524,1,0,0:0:0:0:
304,20,17774,1,8,0:0:0:0:
476,256,18024,2,0,P|400:320|320:292,1,175
172,156,18524,1,0,0:0:0:0:
372,44,18774,2,0,P|456:176|428:256,2,175,8|0|0,0:0|0:0|0:0,0:0:0:0:
172,156,19524,5,0,0:0:0:0:
332,328,19774,1,8,0:0:0:0:
372,44,20024,2,0,P|456:116|476:232,1,175
476,336,20524,1,8,0:0:0:0:
392,340,20649,1,8,0:0:0:0:
312,340,20774,1,2,0:0:0:0:
232,344,20899,1,2,0:0:0:0:
156,344,21024,2,0,P|72:312|44:224,1,175,8|4,3:0|3:0,0:0:0:0:
368,36,21524,5,4,0:0:0:0:
44,232,21774,1,4,0:0:0:0:
368,36,22024,2,4,B|420:200|420:200|348:136|236:196|232:292|320:388|424:320,1,525,4|0,0:0|0:0,0:0:0:0:
356,260,22899,1,0,0:0:0:0:
324,176,23024,1,0,0:0:0:0:
292,96,23149,1,0,0:0:0:0:
252,24,23274,2,0,B|148:28|148:28|148:112|148:112|112:128|112:128|112:292|112:292|112:292,1,350
256,192,24024,12,0,25274,0:0:0:0:
256,192,25520,12,4,29270,0:0:0:0:
