osu file format v14

[General]
AudioFilename: FINALLY.mp3
AudioLeadIn: 0
PreviewTime: 5701
Countdown: 1
SampleSet: Soft
StackLeniency: 0.7
Mode: 0
LetterboxInBreaks: 1
WidescreenStoryboard: 1

[Editor]
Bookmarks: 8274
DistanceSpacing: 0.8
BeatDivisor: 4
GridSize: 4
TimelineZoom: 1

[Metadata]
Title:Finally
TitleUnicode:Finally
Artist:Ariel
ArtistUnicode:Ariel
Creator:aaronzzz
Version:Juan Wash
Source:TV Commercial
Tags:Ariel 7.50 nalang tipid-pack holy shit m8
BeatmapID:678456
BeatmapSetID:298862

[Difficulty]
HPDrainRate:7
CircleSize:7
OverallDifficulty:7.5
ApproachRate:9
SliderMultiplier:3.49999990463257
SliderTickRate:2

[Events]
//Background and Video events
0,0,"BARIELG.jpg",0,0
Video,0,"Finally Ariel_(720p).avi"
//Break Periods
//Storyboard Layer 0 (Background)
//Storyboard Layer 1 (Fail)
//Storyboard Layer 2 (Pass)
//Storyboard Layer 3 (Foreground)
//Storyboard Sound Samples

[TimingPoints]
-226,500,4,2,0,100,1,0
5274,500,4,2,0,100,1,1
21270,500,4,2,0,100,1,0

[Colours]
Combo1 : 255,255,255
Combo2 : 0,202,0

[HitObjects]
92,104,274,5,8,0:0:0:0:
232,152,524,1,4,0:3:0:0:
128,240,774,1,8,0:0:0:0:
92,100,1024,5,8,3:0:0:0:
108,88,1149,1,8,3:0:0:0:
128,80,1274,1,4,3:0:0:0:
328,148,1524,2,0,P|416:164|412:96,1,174.999995231629
376,128,2024,2,0,P|308:80|216:132,1,174.999995231629,4|8,0:0|0:0,0:0:0:0:
192,64,2399,2,0,P|192:164|280:164,1,174.999995231629,8|8,0:0|0:0,0:0:0:0:
216,248,2774,2,0,P|300:204|280:136,1,174.999995231629,8|8,0:0|0:0,0:0:0:0:
248,192,3274,5,4,3:0:0:0:
232,184,3399,1,0,0:3:0:0:
212,184,3524,1,0,0:0:0:0:
192,192,3649,1,0,0:0:0:0:
176,208,3774,1,4,0:0:0:0:
176,228,3899,1,0,0:0:0:0:
180,244,4024,1,0,0:0:0:0:
188,264,4149,5,0,0:0:0:0:
188,284,4274,1,4,0:3:0:0:
180,304,4399,1,0,0:0:0:0:
164,312,4524,1,0,0:0:0:0:
144,316,4649,1,0,0:0:0:0:
124,316,4774,2,0,B|36:316|32:196|76:108,1,174.999995231629,12|0,0:0|0:0,0:0:0:0:
76,112,5274,1,0,0:0:0:0:
144,80,5524,2,0,B|244:84|220:4|164:28|216:152,1,174.999995231629,0|8,0:0|0:0,0:0:0:0:
252,200,6024,1,0,0:0:0:0:
305,126,6274,2,0,B|348:28|292:4|268:84|368:80,1,174.999995231629,0|8,0:0|0:0,0:0:0:0:
424,148,6774,1,0,0:0:0:0:
384,240,7024,1,0,0:0:0:0:
296,288,7274,1,0,0:0:0:0:
208,256,7524,1,0,0:0:0:0:
168,176,7774,1,8,0:0:0:0:
296,288,8024,6,0,P|380:292|384:176,1,174.999995231629
404,208,8399,1,0,0:0:0:0:
392,200,8524,1,0,0:0:0:0:
376,196,8649,1,0,0:0:0:0:
360,196,8774,6,0,P|372:148|312:112,1,87.4999976158143,8|0,0:0|0:0,0:0:0:0:
236,232,9024,2,0,P|212:284|280:320,1,87.4999976158143
236,320,9274,1,0,0:0:0:0:
260,328,9399,1,0,0:0:0:0:
284,324,9524,2,0,B|352:288|308:196|228:244,1,174.999995231629,0|8,0:0|0:0,0:0:0:0:
104,168,10024,1,0,0:0:0:0:
232,116,10274,1,0,0:0:0:0:
176,264,10524,2,0,B|144:308|24:288|44:192,1,174.999995231629,0|4,0:0|0:3,0:0:0:0:
92,60,11024,2,0,B|124:16|244:36|224:132,1,174.999995231629,0|4,0:0|0:3,0:0:0:0:
272,316,11524,1,0,0:0:0:0:
328,112,11774,1,0,0:0:0:0:
176,252,12024,1,0,0:0:0:0:
360,268,12274,1,0,0:0:0:0:
224,128,12524,1,0,0:0:0:0:
272,308,12774,1,0,0:0:0:0:
328,112,13024,1,8,0:3:0:0:
348,124,13149,1,4,3:3:0:0:
360,148,13274,6,0,P|340:192|416:272,1,174.999995231629,4|0,3:2|0:0,0:0:0:0:
320,336,13774,2,0,P|424:312|412:260,1,174.999995231629
380,200,14274,1,0,0:0:0:0:
332,144,14524,6,0,B|264:48|400:16|400:16,2,174.999995231629,0|8|0,0:0|0:0|0:0,0:0:0:0:
312,168,15149,1,0,0:0:0:0:
288,180,15274,1,0,0:0:0:0:
256,184,15399,1,0,0:0:0:0:
228,180,15524,2,0,B|136:172|173:67|92:72,1,174.999995231629,0|8,0:0|0:0,0:0:0:0:
52,132,16024,5,0,0:0:0:0:
104,216,16274,1,0,0:0:0:0:
216,236,16524,1,0,0:0:0:0:
332,168,16774,1,0,0:0:0:0:
336,344,17024,1,0,0:0:0:0:
176,268,17274,1,0,0:0:0:0:
180,108,17524,1,0,0:0:0:0:
336,168,17774,2,0,P|396:236|324:332,1,174.999995231629
304,348,18274,1,0,0:0:0:0:
224,340,18524,2,0,P|140:272|144:168,1,174.999995231628,8|0,0:0|0:0,0:0:0:0:
312,128,19024,2,0,P|244:212|140:208,1,174.999995231628,8|0,0:0|0:0,0:0:0:0:
312,128,19524,5,0,0:0:0:0:
220,44,19774,1,8,0:0:0:0:
120,112,20024,2,0,B|88:196|88:196|216:296,1,174.999995231629
176,260,20399,1,0,0:0:0:0:
200,276,20524,1,8,0:0:0:0:
308,192,20774,1,2,0:0:0:0:
332,172,20899,1,2,0:0:0:0:
352,152,21024,2,0,P|319:74|239:46,1,174.999995231629,8|4,3:0|0:0,0:0:0:0:
104,84,21524,5,0,0:0:0:0:
192,180,21774,1,4,0:0:0:0:
292,32,22020,1,0,0:0:0:0:
180,128,22270,1,0,0:0:0:0:
172,144,22395,1,8,0:0:0:0:
168,160,22520,1,8,0:0:0:0:
172,176,22645,1,4,0:3:0:0:
176,192,22770,1,4,0:3:0:0:
176,208,22895,1,0,0:0:0:0:
176,224,23020,1,4,0:0:0:0:
172,240,23145,1,4,0:0:0:0:
256,272,23270,2,0,B|248:324|248:324|104:360,1,174.999995231629,8|0,0:0|0:0,0:0:0:0:
108,208,23770,2,0,B|116:156|116:156|260:120,1,174.999995231629,8|0,0:0|0:0,0:0:0:0:
256,192,24024,12,0,25274,0:0:0:0:
256,192,25520,12,4,29270,0:0:0:0:
