osu file format v14

[General]
AudioFilename: FINALLY.mp3
AudioLeadIn: 0
PreviewTime: 5701
Countdown: 1
SampleSet: None
StackLeniency: 0.7
Mode: 1
LetterboxInBreaks: 1
WidescreenStoryboard: 1

[Editor]
DistanceSpacing: 0.8
BeatDivisor: 4
GridSize: 4
TimelineZoom: 1

[Metadata]
Title:Finally
TitleUnicode:Finally
Artist:Ariel
ArtistUnicode:Ariel
Creator:aaronzzz
Version:Edi Wow
Source:TV Commercial
Tags:Ariel 7.50 nalang tipid-pack holy shit m8
BeatmapID:678457
BeatmapSetID:298862

[Difficulty]
HPDrainRate:7
CircleSize:4
OverallDifficulty:9
ApproachRate:8
SliderMultiplier:3
SliderTickRate:2

[Events]
//Background and Video events
0,0,"BARIELG.jpg",0,0
Video,0,"Finally Ariel_(720p).avi"
//Break Periods
//Storyboard Layer 0 (Background)
//Storyboard Layer 1 (Fail)
//Storyboard Layer 2 (Pass)
//Storyboard Layer 3 (Foreground)
//Storyboard Sound Samples

[TimingPoints]
-226,500,4,2,0,100,1,0
5774,500,4,2,0,100,1,1
21774,500,4,2,0,100,1,0

[Colours]
Combo1 : 255,255,255
Combo2 : 0,202,0

[HitObjects]
124,128,274,5,0,0:0:0:0:
244,176,524,1,8,0:0:0:0:
376,136,774,1,0,0:0:0:0:
404,236,1024,1,2,0:0:0:0:
336,320,1149,1,2,0:0:0:0:
200,308,1274,1,4,0:0:0:0:
104,256,1524,1,8,0:0:0:0:
60,156,1774,5,0,0:0:0:0:
180,100,2024,1,2,0:0:0:0:
280,104,2274,1,0,0:0:0:0:
336,132,2399,1,2,0:0:0:0:
404,168,2524,1,0,0:0:0:0:
448,228,2649,1,0,0:0:0:0:
432,308,2774,1,2,0:0:0:0:
220,344,2899,1,12,0:0:0:0:
92,324,3024,1,4,0:0:0:0:
256,192,3274,12,0,4649,0:0:0:0:
312,328,4774,5,0,0:0:0:0:
232,308,4899,1,2,0:0:0:0:
168,272,5024,1,0,0:0:0:0:
120,256,5149,1,0,0:0:0:0:
92,232,5274,5,4,0:0:0:0:
128,112,5524,5,0,0:0:0:0:
272,120,5774,1,2,0:0:0:0:
352,184,6024,1,0,0:0:0:0:
280,264,6274,1,6,0:0:0:0:
204,216,6524,5,0,0:0:0:0:
104,140,6774,1,2,0:0:0:0:
96,44,7024,1,0,0:0:0:0:
224,36,7274,1,6,0:0:0:0:
288,80,7524,5,0,0:0:0:0:
360,120,7774,1,2,0:0:0:0:
392,176,8024,1,0,0:0:0:0:
444,248,8274,1,6,0:0:0:0:
428,344,8524,5,0,0:0:0:0:
324,336,8774,1,2,0:0:0:0:
240,316,9024,1,0,0:0:0:0:
172,240,9274,1,6,0:0:0:0:
136,160,9524,5,0,0:0:0:0:
156,56,9774,1,2,0:0:0:0:
264,60,10024,1,0,0:0:0:0:
364,112,10274,1,6,0:0:0:0:
436,180,10524,5,0,0:0:0:0:
368,272,10774,1,2,0:0:0:0:
288,304,11024,1,0,0:0:0:0:
200,284,11274,1,6,0:0:0:0:
96,236,11524,5,0,0:0:0:0:
124,80,11774,1,2,0:0:0:0:
252,60,12024,1,0,0:0:0:0:
356,144,12274,1,6,0:0:0:0:
460,256,12524,5,0,0:0:0:0:
424,304,12649,1,0,0:0:0:0:
360,336,12774,1,2,0:0:0:0:
284,336,12899,1,0,0:0:0:0:
200,312,13024,1,0,0:0:0:0:
148,272,13149,1,0,0:0:0:0:
156,176,13274,1,6,0:0:0:0:
144,116,13399,1,0,0:0:0:0:
140,64,13524,5,0,0:0:0:0:
284,72,13774,1,2,0:0:0:0:
364,136,14024,1,0,0:0:0:0:
292,216,14274,1,6,0:0:0:0:
184,280,14524,5,0,0:0:0:0:
48,180,14774,1,2,0:0:0:0:
200,104,15024,1,0,0:0:0:0:
368,216,15274,1,6,0:0:0:0:
356,320,15524,5,0,0:0:0:0:
200,260,15774,1,2,0:0:0:0:
116,172,16024,1,0,0:0:0:0:
280,92,16274,1,6,0:0:0:0:
420,64,16524,5,0,0:0:0:0:
264,152,16774,1,2,0:0:0:0:
444,196,17024,1,0,0:0:0:0:
268,296,17274,1,6,0:0:0:0:
412,332,17524,5,0,0:0:0:0:
244,312,17774,1,2,0:0:0:0:
348,184,18024,1,0,0:0:0:0:
208,160,18274,1,6,0:0:0:0:
128,80,18524,5,0,0:0:0:0:
288,60,18774,1,2,0:0:0:0:
448,128,19024,1,0,0:0:0:0:
252,280,19274,1,6,0:0:0:0:
128,264,19524,5,0,0:0:0:0:
128,264,19774,1,2,0:0:0:0:
128,264,20024,1,0,0:0:0:0:
128,264,20274,1,6,0:0:0:0:
192,176,20524,5,0,0:0:0:0:
284,176,20649,1,0,0:0:0:0:
192,176,20774,1,2,0:0:0:0:
284,176,20899,1,0,0:0:0:0:
192,176,21024,1,0,0:0:0:0:
284,176,21149,1,0,0:0:0:0:
192,176,21274,1,6,0:0:0:0:
284,176,21399,1,0,0:0:0:0:
280,192,21524,5,0,0:0:0:0:
360,216,21774,1,4,0:0:0:0:
444,252,22024,1,6,0:0:0:0:
412,344,22274,2,0,B|120:272|120:272|320:16,1,600
328,120,23524,1,0,0:0:0:0:
360,196,23774,1,4,0:0:0:0:
256,192,24024,12,0,25524,0:0:0:0:
256,192,25649,12,0,29274,0:0:0:0:
