osu file format v14

[General]
AudioFilename: Monster Musume no Iru Nichijou Opening.mp3
AudioLeadIn: 0
PreviewTime: 25472
Countdown: 0
SampleSet: Normal
StackLeniency: 0.3
Mode: 0
LetterboxInBreaks: 0
WidescreenStoryboard: 0

[Editor]
DistanceSpacing: 1.3
BeatDivisor: 2
GridSize: 4
TimelineZoom: 0.5999999

[Metadata]
Title:Saikousoku Fall in Love (TV Size)
TitleUnicode:最高速 Fall in Love (TV Size)
Artist:Ari, Natsuki, Sora, Haruka, Sakura, & Mayuka
ArtistUnicode:雨宮天, 小澤亜李, 相川奈都姫, 野村真悠華, 山崎はるか& 中村桜
Creator:XenoChan
Version:Normal
Source:モンスター娘のいる日常
Tags:Monster Musume Opening Monmusu モン娘 Cool Miia Love Papi Suu Meroune Anime AKiTOSHi AwisaRawwrrr
BeatmapID:751000
BeatmapSetID:339466

[Difficulty]
HPDrainRate:4
CircleSize:3.5
OverallDifficulty:4
ApproachRate:5
SliderMultiplier:1
SliderTickRate:2

[Events]
//Background and Video events
Video,0,"Monster Musume no Iru Nichijou Opening.avi"
0,0,"bg.jpg",0,0
//Break Periods
//Storyboard Layer 0 (Background)
//Storyboard Layer 1 (Fail)
//Storyboard Layer 2 (Pass)
//Storyboard Layer 3 (Foreground)
//Storyboard Sound Samples

[TimingPoints]
2470,454.545454545455,4,1,0,100,1,0
2470,-100,4,1,0,60,0,0
6106,-100,4,1,0,80,0,0
6560,-100,4,1,0,85,0,0
7015,-100,4,1,0,70,0,0
7470,-100,4,1,0,70,0,0
9742,-100,4,1,0,85,0,0
10197,-100,4,1,0,75,0,0
11106,-100,4,1,0,80,0,0
11560,-100,4,1,0,90,0,0
12015,-100,4,1,0,75,0,0
13379,-100,4,1,0,95,0,0
13833,-100,4,1,0,100,0,0
14288,-100,4,1,0,70,0,0
18833,342.857142857143,4,1,0,100,1,0
20204,-100,4,1,0,100,0,0
21233,-100,4,1,0,50,0,0
23290,-100,4,1,0,55,0,0
25690,-100,4,1,0,75,0,0
26033,-100,4,1,0,50,0,0
26375,-133.333333333333,4,1,0,50,0,0
26718,-100,4,1,0,50,0,0
29804,-100,4,1,0,70,0,0
30490,-133.333333333333,4,1,0,70,0,0
30833,-100,4,1,0,70,0,0
31175,-100,4,1,0,75,0,0
36661,-125,4,1,0,75,0,0
37004,-100,4,1,0,75,0,0
39233,-133.333333333333,4,1,0,75,0,0
39404,-100,4,1,0,75,0,0
42147,-100,4,1,0,75,0,0
46090,-133.333333333333,4,1,0,75,0,0
46261,-100,4,1,0,75,0,0
47633,-100,4,1,0,90,0,0
53461,-100,4,1,0,100,0,0
53804,-100,4,1,0,90,0,0
54833,-100,4,1,0,100,0,0
55175,-100,4,1,0,70,0,0
57233,-100,4,1,0,75,0,0
58604,-100,4,1,0,80,0,0
61004,-100,4,1,0,90,0,0
63061,-100,4,1,0,90,0,0
64090,-100,4,1,0,80,0,1
66490,-100,4,1,0,85,0,1
68204,-100,4,1,0,90,0,1
69233,-100,4,1,0,95,0,1
74890,-133.333333333333,4,1,0,95,0,1
75061,-100,4,1,0,95,0,1
80547,-100,4,1,0,100,0,1
88775,-100,4,1,0,100,0,0

[Colours]
Combo1 : 128,0,128
Combo2 : 253,57,63
Combo3 : 62,149,255
Combo4 : 255,192,0
Combo5 : 89,255,89
Combo6 : 255,128,192

[HitObjects]
360,96,2470,6,0,P|336:153|290:188,1,100
196,173,3379,2,0,P|160:208|144:255,1,100
256,320,4288,1,0,0:0:0:0:
260,192,4742,1,0,0:0:0:0:
204,76,5197,6,0,P|264:60|320:76,1,100
428,88,6106,1,2,3:3:0:0:
372,208,6560,2,0,P|424:212|480:196,2,100,4|0|0,2:2|0:0|0:0,0:0:0:0:
240,212,7924,2,0,B|180:220|132:176,1,100
104,64,8833,6,0,B|165:64|203:115|203:115|279:82,1,200,0|4,0:0|3:3,0:0:0:0:
404,40,10197,1,0,0:0:0:0:
396,168,10651,1,0,0:0:0:0:
376,296,11106,2,0,L|272:296,2,100,4|0|0,0:0|0:0|0:0,0:0:0:0:
296,196,12470,6,0,P|244:188|212:144,1,100
264,32,13379,2,0,P|312:36|360:72,1,100,0|4,0:0|0:0,0:0:0:0:
384,192,14288,2,0,L|384:312,1,100
256,268,15197,1,0,0:0:0:0:
164,176,15651,2,0,L|96:104,2,100
256,192,17015,12,4,20204,0:0:0:0:
384,244,21233,5,4,3:3:0:0:
376,116,21575,2,4,P|324:128|264:168,1,100,4|4,3:3|3:3,3:3:0:0:
180,232,22261,2,4,P|236:248|292:252,1,100,4|4,3:3|3:3,3:3:0:0:
212,140,22947,1,4,3:3:0:0:
84,148,23290,5,0,3:3:0:0:
88,20,23633,2,4,P|148:24|200:64,1,100,4|4,3:3|3:3,3:3:0:0:
308,72,24318,2,4,P|288:124|212:152,1,100,4|4,3:3|3:3,3:3:0:0:
132,196,25004,2,4,L|132:328,2,100,4|4|4,3:3|3:3|0:0,3:3:0:0:
184,76,26033,6,4,P|244:68|312:96,1,100,4|4,2:2|3:3,3:3:0:0:
324,104,26547,1,0,0:0:0:0:
360,136,26718,2,4,P|387:176|373:252,1,100,4|4,3:3|3:3,3:3:0:0:
308,328,27404,2,4,P|201:333|105:255,1,200,4|4,3:3|3:3,3:3:0:0:
124,156,28433,1,4,3:3:0:0:
252,128,28775,2,4,P|251:177|231:223,1,100,4|4,3:3|3:3,3:3:0:0:
328,312,29461,1,4,3:3:0:0:
456,300,29804,1,4,3:3:0:0:
448,172,30147,2,4,P|400:135|356:126,1,100,4|4,3:3|3:3,3:3:0:0:
312,128,30661,1,0,0:0:0:0:
264,132,30833,2,4,P|213:128|169:105,1,100,0|4,0:0|0:0,3:3:0:0:
40,108,31518,6,4,P|56:160|96:204,1,100,4|4,2:2|3:3,3:3:0:0:
156,304,32204,2,4,P|193:263|200:192,1,100,4|4,3:3|3:3,3:3:0:0:
260,104,32890,2,4,P|210:97|161:108,2,100,4|4|4,3:3|3:3|3:3,3:3:0:0:
364,184,33918,2,4,P|392:124|384:80,1,100,4|4,3:3|3:3,3:3:0:0:
260,104,34604,2,4,P|236:152|184:184,1,100,4|4,3:3|3:3,3:3:0:0:
116,80,35290,2,4,P|79:112|67:160,1,100,4|4,3:3|3:3,3:3:0:0:
108,284,35975,1,4,3:3:0:0:
172,172,36318,2,0,L|236:204,1,50,0|4,3:3|0:0,3:3:0:0:
264,216,36661,1,0,0:0:0:0:
400,332,37004,5,2,3:3:0:0:
268,332,37347,2,4,P|216:344|156:332,1,100,4|4,3:3|3:3,3:3:0:0:
48,296,38033,2,4,P|88:260|161:235,1,100,4|4,3:3|3:3,3:3:0:0:
260,248,38718,2,4,P|292:204|308:136,1,100,4|4,3:3|3:3,3:3:0:0:
312,112,39233,1,0,0:0:0:0:
308,64,39404,2,4,P|256:52|208:64,2,100,4|4|4,3:3|3:3|3:3,3:3:0:0:
228,168,40433,1,4,3:3:0:0:
108,212,40775,2,0,P|132:252|196:288,3,100
228,168,42147,5,4,0:0:0:0:
116,104,42490,2,4,P|148:68|216:48,2,100,4|4|4,2:2|3:3|3:3,3:3:0:0:
84,232,43518,1,4,3:3:0:0:
200,296,43861,2,4,L|288:208,2,100,4|4|4,3:3|3:3|3:3,3:3:0:0:
328,316,44890,1,4,3:3:0:0:
460,316,45233,2,4,P|476:264|460:196,2,100,4|4|4,3:3|3:3|3:3,3:3:0:0:
424,348,46090,1,0,0:0:0:0:
376,340,46261,2,0,B|355:327|355:327|363:295|363:295|347:255,1,100,4|4,3:3|3:3,0:0:0:0:
444,168,46947,2,4,B|464:155|464:155|456:123|456:123|472:83,1,100,4|4,3:3|3:3,3:3:0:0:
344,60,47633,5,4,3:3:0:0:
224,112,47975,1,4,3:3:0:0:
320,200,48318,1,8,0:0:0:0:
192,224,48661,2,4,L|144:276,1,50,4|4,3:3|3:3,3:3:0:0:
264,340,49175,2,0,L|308:284,1,50,4|4,3:3|3:3,0:0:0:0:
392,212,49690,2,4,P|352:184|288:168,1,100,8|4,0:0|2:3,2:3:0:0:
176,188,50375,1,4,3:3:0:0:
56,140,50718,2,4,P|80:96|152:64,1,100,4|8,3:3|0:0,2:3:0:0:
252,60,51404,2,4,L|216:120,1,50,4|4,3:3|3:3,2:3:0:0:
348,148,51918,2,4,L|304:208,1,50,4|4,3:3|3:3,2:3:0:0:
376,304,52433,6,4,P|316:320|256:304,1,100,4|4,0:3|0:3,0:3:0:0:
216,132,53290,2,0,L|176:192,1,50
64,216,53804,2,4,P|84:260|168:296,1,100,4|4,3:3|3:3,3:3:0:0:
252,312,54490,1,0,0:0:0:0:
384,312,54833,1,4,0:0:0:0:
392,184,55175,6,4,L|392:84,2,100,4|4|4,3:3|3:3|3:3,3:3:0:0:
276,244,56204,1,4,3:3:0:0:
160,188,56547,2,4,P|148:240|160:304,1,100,4|4,3:3|3:3,3:3:0:0:
276,336,57232,1,4,3:3:0:0:
404,332,57575,2,4,P|408:280|388:204,1,100,4|4,3:3|3:3,3:3:0:0:
284,176,58261,1,4,3:3:0:0:
208,280,58604,6,4,L|120:200,1,100,4|4,3:3|3:3,3:3:0:0:
104,172,59118,1,0,0:0:0:0:
140,140,59290,2,4,L|232:48,1,100,4|4,3:3|3:3,3:3:0:0:
248,36,59804,1,0,0:0:0:0:
284,68,59975,2,4,L|388:160,1,100,4|4,3:3|3:3,3:3:0:0:
396,168,60490,1,0,0:0:0:0:
368,204,60661,2,4,L|272:296,1,100,4|4,3:3|3:3,3:3:0:0:
256,192,61347,12,4,62718,0:0:0:0:
236,92,63747,5,0,2:2:0:0:
344,168,64090,6,0,L|460:260,1,100
384,336,64775,1,0,0:0:0:0:
276,308,65118,2,0,L|176:228,1,100
76,204,65804,1,0,0:0:0:0:
76,204,65975,1,0,0:0:0:0:
76,204,66147,2,0,P|106:152|170:129,1,100,0|2,0:0|0:0,0:0:0:0:
264,88,66833,5,0,0:0:0:0:
392,80,67175,1,0,0:0:0:0:
388,212,67518,2,0,P|344:236|292:236,1,100
172,280,68204,2,0,L|96:344,2,100
296,320,69233,1,2,0:0:0:0:
336,292,69404,1,0,0:0:0:0:
372,264,69575,5,0,0:0:0:0:
284,160,69918,2,0,L|184:212,1,100
64,220,70604,1,0,0:0:0:0:
60,88,70947,2,0,P|100:32|168:32,1,100
256,48,71633,1,0,0:0:0:0:
256,48,71804,1,0,0:0:0:0:
256,48,71975,1,0,0:0:0:0:
368,116,72318,6,0,P|410:204|384:298,1,200
252,312,73347,1,0,0:0:0:0:
128,352,73690,2,0,P|72:344|36:308,1,100
60,188,74375,2,0,P|100:220|160:188,1,100
180,180,74890,1,0,0:0:0:0:
212,144,75061,6,0,L|268:52,2,100
292,244,76090,1,0,0:0:0:0:
396,164,76433,2,0,L|396:32,2,100
368,292,77461,2,0,P|320:316|256:324,1,100,2|0,0:0|0:0,0:0:0:0:
168,248,78147,2,0,P|120:244|52:268,1,100
160,164,78833,5,0,0:0:0:0:
56,88,79175,2,0,P|100:56|172:32,1,100
256,100,79861,1,0,0:0:0:0:
360,180,80204,1,2,0:0:0:0:
440,76,80547,6,0,B|384:64|320:80,1,100,0|2,0:0|0:0,0:0:0:0:
212,92,81233,2,0,B|169:110|88:96,1,100,0|2,0:0|0:0,0:0:0:0:
48,212,81918,1,0,0:0:0:0:
172,248,82261,2,0,P|256:300|337:243,1,200,2|2,0:0|0:0,0:0:0:0:
336,120,83290,6,0,P|256:64|171:125,1,200
256,212,84318,1,0,0:0:0:0:
160,300,84661,2,0,P|204:328|260:340,1,100
368,284,85347,2,0,P|404:240|424:200,1,100
292,152,86033,22,0,B|308:76|410:73|372:162|353:230|256:268|256:268|177:225|124:182|104:72|208:72|219:150,1,600
416,320,88775,1,4,0:0:0:0:
