osu file format v14

[General]
AudioFilename: Monster Musume no Iru Nichijou Opening.mp3
AudioLeadIn: 0
PreviewTime: 25472
Countdown: 0
SampleSet: Normal
StackLeniency: 0.7
Mode: 0
LetterboxInBreaks: 0
WidescreenStoryboard: 0

[Editor]
DistanceSpacing: 1.3
BeatDivisor: 2
GridSize: 8
TimelineZoom: 1

[Metadata]
Title:Saikousoku Fall in Love (TV Size)
TitleUnicode:最高速 Fall in Love (TV Size)
Artist:Ari, Natsuki, Sora, Haruka, Sakura, & Mayuka
ArtistUnicode:雨宮天, 小澤亜李, 相川奈都姫, 野村真悠華, 山崎はるか& 中村桜
Creator:XenoChan
Version:Easy
Source:モンスター娘のいる日常
Tags:Monster Musume Opening Monmusu モン娘 Cool Miia Love Papi Suu Meroune Anime AKiTOSHi AwisaRawwrrr
BeatmapID:750999
BeatmapSetID:339466

[Difficulty]
HPDrainRate:3
CircleSize:3
OverallDifficulty:2
ApproachRate:3
SliderMultiplier:0.8
SliderTickRate:2

[Events]
//Background and Video events
Video,0,"Monster Musume no Iru Nichijou Opening.avi"
0,0,"bg.jpg",0,0
//Break Periods
2,20404,24250
//Storyboard Layer 0 (Background)
//Storyboard Layer 1 (Fail)
//Storyboard Layer 2 (Pass)
//Storyboard Layer 3 (Foreground)
//Storyboard Sound Samples

[TimingPoints]
2470,454.545454545455,4,1,0,100,1,0
2470,-100,4,1,0,50,0,0
6106,-100,4,1,0,60,0,0
6560,-100,4,1,0,65,0,0
7470,-100,4,1,0,70,0,0
9742,-100,4,1,0,85,0,0
10197,-100,4,1,0,95,0,0
10651,-100,4,1,0,85,0,0
11106,-100,4,1,0,95,0,0
11560,-100,4,1,0,80,0,0
13379,-100,4,1,0,85,0,0
13833,-100,4,1,0,70,0,0
14288,-100,4,1,0,85,0,0
14742,-100,4,1,0,70,0,0
17015,-100,4,1,0,100,0,0
18833,342.857142857143,4,1,0,100,1,0
20204,-100,4,1,0,100,0,0
25690,-100,4,1,0,80,0,0
26375,-100,4,1,0,70,0,0
29804,-100,4,1,0,70,0,0
31175,-100,4,1,0,75,0,0
37004,-100,4,1,0,75,0,0
40775,-100,4,1,0,100,0,0
42147,-100,4,1,0,70,0,0
42490,-100,4,1,0,80,0,0
42833,-100,4,1,0,70,0,0
47633,-100,4,1,0,90,0,0
53461,-100,4,1,0,100,0,0
53804,-100,4,1,0,80,0,0
54833,-100,4,1,0,90,0,0
55861,-100,4,1,0,70,0,0
61347,-100,4,1,0,90,0,0
63061,-100,4,1,0,90,0,0
64090,-100,4,1,0,80,0,1
66490,-100,4,1,0,85,0,1
68204,-100,4,1,0,90,0,1
69575,-100,4,1,0,70,0,1
75061,-100,4,1,0,80,0,1
80547,-100,4,1,0,100,0,1
88775,-100,4,1,0,100,0,0

[Colours]
Combo1 : 128,0,128
Combo2 : 253,57,63
Combo3 : 62,149,255
Combo4 : 255,192,0
Combo5 : 89,255,89
Combo6 : 255,128,192

[HitObjects]
448,48,2470,5,0,2:2:0:0:
344,48,2924,1,0,2:2:0:0:
304,144,3379,2,0,L|328:224,1,80,0|0,2:2|2:2,0:0:0:0:
336,328,4288,2,0,P|256:304|224:224,1,160,0|0,3:0|3:0,3:0:0:0:
248,136,5651,1,0,2:2:0:0:
352,120,6106,2,0,L|424:176,2,80,0|0|0,0:0|0:0|3:3,3:3:0:0:
264,168,7470,1,0,0:0:0:0:
288,64,7924,2,0,P|189:38|127:75,1,160,0|0,3:0|3:0,3:0:0:0:
72,264,9742,6,0,L|83:184,1,80,0|4,0:0|0:0,3:3:0:0:
184,168,10651,2,0,L|168:280,1,80,0|4,0:0|0:0,3:3:0:0:
104,328,11560,2,0,P|64:216|81:98,1,240,0|0,0:0|0:0,3:3:0:0:
184,96,13379,6,0,L|260:117,1,80,0|4,2:2|2:2,0:0:0:0:
360,96,14288,2,0,L|312:32,1,80,0|4,2:2|2:2,0:0:0:0:
416,16,15197,2,0,P|480:110|432:214,1,240,0|0,0:0|0:0,3:3:0:0:
344,272,17015,1,4,2:2:0:0:
256,192,17242,12,4,20204,2:2:0:0:
320,320,25690,54,4,P|375:305|404:202,1,160,4|4,0:0|3:3,0:0:0:0:
304,224,26718,1,4,3:3:0:0:
208,272,27061,2,4,P|136:296|80:208,1,160,4|4,3:3|3:3,3:3:0:0:
64,144,28090,1,4,3:3:0:0:
80,40,28433,2,4,P|145:3|201:52,1,160,4|4,3:3|3:3,3:3:0:0:
240,152,29461,1,4,3:3:0:0:
200,248,29804,2,4,B|164:176|50:196|37:60,1,240,4|4,3:3|3:3,3:3:0:0:
136,40,31175,5,4,0:0:0:0:
240,48,31518,1,4,2:2:0:0:
256,152,31861,2,4,L|216:232,1,80,4|4,3:3|3:3,3:3:0:0:
256,320,32547,2,4,P|352:312|400:256,1,160,4|4,3:3|3:3,3:3:0:0:
432,176,33575,1,4,3:3:0:0:
408,80,33918,2,4,P|352:24|264:40,1,160,4|4,3:3|3:3,3:3:0:0:
184,80,34947,1,0,0:0:0:0:
176,184,35290,2,4,L|176:272,2,80,4|4|4,3:3|3:3|3:3,3:3:0:0:
80,232,36318,1,4,3:3:0:0:
40,136,36661,1,4,3:3:0:0:
88,48,37004,5,4,2:2:0:0:
192,72,37347,2,4,B|272:128|248:216,1,160,4|4,3:3|3:3,3:3:0:0:
168,272,38375,1,4,3:3:0:0:
88,208,38718,2,4,P|102:169|138:149,1,80,4|4,3:3|3:3,3:3:0:0:
232,184,39404,2,4,B|304:256|407:165,1,160,4|4,3:3|3:3,3:3:0:0:
464,128,40433,1,4,3:3:0:0:
376,72,40775,2,0,L|288:136,1,80,0|0,2:2|2:2,2:2:0:0:
232,184,41461,2,0,P|248:224|280:256,1,80,0|0,2:2|2:2,2:2:0:0:
368,304,42147,6,0,P|376:256|368:192,1,80,4|4,0:0|2:2,2:2:0:0:
376,120,42833,1,4,3:3:0:0:
272,144,43175,1,4,3:3:0:0:
312,48,43518,2,4,P|256:40|200:64,1,80,4|4,3:3|3:3,3:3:0:0:
160,120,44204,1,4,3:3:0:0:
64,160,44547,1,4,3:3:0:0:
104,256,44890,2,4,P|128:296|168:336,1,80,4|4,3:3|3:3,3:3:0:0:
240,272,45575,1,4,3:3:0:0:
320,344,45918,1,4,3:3:0:0:
328,240,46261,2,4,P|288:168|200:144,1,160,4|4,3:3|3:3,3:3:0:0:
120,176,47290,1,0,0:0:0:0:
88,272,47633,6,0,L|184:272,1,80,4|4,3:3|3:3,0:0:0:0:
272,272,48318,1,0,0:0:0:0:
464,192,49004,2,0,L|384:192,1,80,4|4,3:3|3:3,0:0:0:0:
280,192,49690,1,0,0:0:0:0:
88,104,50375,2,0,L|184:104,1,80,4|4,3:3|3:3,0:0:0:0:
272,104,51061,1,0,0:0:0:0:
456,192,51747,2,0,B|360:224,1,80,4|4,3:3|3:3,0:0:0:0:
280,248,52433,6,0,B|248:184|128:192,1,160
168,288,53461,1,4,0:0:0:0:
80,344,53804,2,0,B|24:336|40:184,1,160,0|4,0:0|3:3,0:0:0:0:
40,96,54833,1,4,0:0:0:0:
128,40,55175,6,4,P|208:24|288:56,1,160,4|4,3:3|3:3,3:3:0:0:
344,136,56204,2,4,L|256:192,1,80,4|4,3:3|3:3,3:3:0:0:
176,160,56890,2,4,P|176:208|216:248,1,80,4|4,3:3|3:3,3:3:0:0:
288,280,57575,2,4,L|376:312,2,80,4|4|4,3:3|3:3|3:3,3:3:0:0:
256,192,58604,12,4,61347,0:0:0:0:
352,112,63061,6,0,L|464:112,2,80,0|0|0,2:2|2:2|2:2,2:2:0:0:
248,80,64090,6,0,B|210:159|88:128|56:224,1,240
136,288,65461,2,0,B|164:200|286:231|324:152,1,240,0|2,0:0|0:0,0:0:0:0:
352,56,66833,6,0,B|248:48,1,80
168,48,67518,2,0,P|120:56|88:104,1,80
104,184,68204,2,0,B|191:133|294:247|365:200,1,240,0|2,0:0|0:0,0:0:0:0:
368,120,69575,6,0,L|280:64,1,80
200,56,70261,2,0,L|96:48,1,80
72,144,70947,2,0,P|80:184|136:208,1,80
200,256,71633,1,0,0:0:0:0:
400,320,72318,5,0,0:0:0:0:
448,224,72661,2,0,L|432:128,1,80
344,88,73347,1,0,0:0:0:0:
240,80,73690,2,0,L|156:80,2,80
232,304,75061,6,0,L|328:304,1,80
416,312,75747,2,0,B|392:256|392:256|464:120|417:73,1,240
328,56,77118,2,0,L|248:56,1,80,0|2,0:0|0:0,0:0:0:0:
144,72,77804,6,0,B|80:121|144:233|128:313,1,240
232,304,79175,2,0,L|328:304,1,80
320,200,79861,2,0,L|224:184,1,80,0|2,0:0|0:0,0:0:0:0:
248,80,80547,5,0,0:0:0:0:
168,24,80890,2,0,B|103:89|57:-1|29:67,1,160
40,168,81918,2,0,B|68:100|114:190|179:125,1,160
232,328,83290,6,0,P|320:320|360:248,1,160
256,80,84661,2,0,P|178:76|126:133,1,160
256,192,86033,12,4,88775,0:0:0:0:
