osu file format v11

[General]
AudioFilename: title_theme.mp3
AudioLeadIn: 1599
PreviewTime: 249
Countdown: 0
SampleSet: Soft
StackLeniency: 0.2
Mode: 0
LetterboxInBreaks: 1

[Editor]
DistanceSpacing: 1.4
BeatDivisor: 4
GridSize: 16

[Metadata]
Title:Angry birds
TitleUnicode:Angry birds
Artist:Ari Pulkkinen
ArtistUnicode:Ari Pulkkinen
Creator:_Rosy_River
Version:Insane
Source:Angry birds
Tags:
BeatmapID:218491
BeatmapSetID:77890

[Difficulty]
HPDrainRate:6
CircleSize:4
OverallDifficulty:6
ApproachRate:8
SliderMultiplier:2.8
SliderTickRate:1

[Events]
//Background and Video events
0,0,"SPLASHES_SHEET_1.png"
//Break Periods
//Storyboard Layer 0 (Background)
//Storyboard Layer 1 (Fail)
//Storyboard Layer 2 (Pass)
//Storyboard Layer 3 (Foreground)
//Storyboard Sound Samples
//Background Colour Transformations
3,100,163,162,255

[TimingPoints]
-1561,500,4,2,0,60,1,0
11375,-95.2380952380952,4,2,0,60,0,0
12875,-89.2857142857143,4,2,0,60,0,0
13131,-100,4,2,0,60,0,0
14875,-133.333333333333,4,2,0,60,0,0
15875,-98.0392156862745,4,2,0,60,0,0
20000,-166.666666666667,4,2,0,60,0,0
27089,-166.666666666667,4,3,0,60,0,0
28000,-133.333333333333,4,2,0,60,0,0
36000,-100,4,2,0,60,0,0
38000,-116.279069767442,4,2,0,60,0,0
40125,-100,4,2,0,60,0,0
49000,-200,4,2,0,60,0,0
49875,-100,4,2,0,60,0,0
59564,-100,4,2,0,5,0,0
60064,-100,4,2,0,60,0,0
63564,-100,4,2,0,5,0,0
64064,-100,4,2,0,60,0,0
66064,-90.9090909090909,4,2,0,47,0,0

[Colours]
Combo1 : 255,255,0
Combo2 : 0,255,0
Combo3 : 0,255,255
Combo4 : 255,0,0
Combo5 : 255,128,0

[HitObjects]
48,120,189,2,0,P|72:72|136:64|136:64|160:56,1,70
128,152,439,1,0,0:0:0
152,160,564,1,0,0:0:0
176,168,689,1,0,0:0:0
208,72,939,1,0,0:0:0
304,72,1189,6,0,P|328:144,1,70,0|0,0:0|0:0,0:0:0
352,216,1439,1,0,0:0:0
289,228,1564,1,0,0:0:0
320,304,1689,1,0,0:0:0
256,312,1814,1,0,0:0:0
200,280,1939,1,2,0:0:0
32,160,2189,5,0,0:0:0
80,80,2314,2,0,P|156:111,1,70,0|0,0:0|0:0,0:0:0
246,124,2564,1,0,0:0:0
247,125,2689,2,0,P|175:193,1,70,0|0,0:0|0:0,0:0:0
79,174,2939,1,0,0:0:0
80,296,3189,1,0,0:0:0
112,284,3314,1,0,0:0:0
143,273,3439,1,0,0:0:0
256,328,3689,1,0,0:0:0
256,328,3939,5,2,0:0:0
336,80,4189,5,0,0:0:0
400,112,4314,1,0,0:0:0
432,176,4439,1,0,0:0:0
320,192,4689,1,0,0:0:0
288,320,4939,5,2,0:0:0
176,112,5189,5,0,0:0:0
112,144,5314,1,0,0:0:0
80,208,5439,1,0,0:0:0
192,224,5689,1,0,0:0:0
288,320,5939,53,0,0:0:0
176,152,6189,22,0,P|240:112|240:112|232:104,1,70
320,96,6439,1,0,0:0:0
408,74,6564,1,2,0:0:0
352,128,6689,1,0,0:0:0
440,130,6814,1,2,0:0:0
320,160,6939,1,0,0:0:0
407,183,7064,1,2,0:0:0
351,233,7189,2,0,P|319:265|255:265|255:265,1,70
208,192,7439,5,0,0:0:0
160,320,7689,5,0,0:0:0
64,224,7939,1,2,0:0:0
64,128,8189,6,0,P|128:96,1,70
64,40,8439,1,0,0:0:0
145,174,8689,2,0,P|225:161|272:78,1,140
448,128,9189,6,0,P|384:96,1,70
448,43,9439,1,0,0:0:0
374,175,9689,2,0,P|298:163|261:115,1,140
96,288,10189,6,0,P|163:253,1,70
192,160,10439,1,0,0:0:0
336,224,10564,1,2,0:0:0
224,192,10689,1,0,0:0:0
368,192,10814,1,2,0:0:0
256,224,10939,1,0,0:0:0
400,160,11064,1,2,0:0:0
341,90,11189,2,0,P|309:90|277:122|245:90,1,70
160,64,11439,5,0,0:0:0
64,128,11689,1,0,0:0:0
63,236,11939,1,2,0:0:0
91,318,12189,6,0,P|129:317|183:287,1,73.4999977569581
128,224,12439,5,0,0:0:0
192,96,12689,1,0,0:0:0
256,192,12939,1,0,0:0:0
320,64,13189,1,0,0:0:0
384,160,13439,2,0,P|448:128,2,70
364,196,13814,1,0,0:0:0
389,228,13939,1,0,0:0:0
464,288,14189,5,2,0:0:0
320,320,14439,5,2,0:0:0
64,320,14689,1,0,0:0:0
287,256,14939,1,2,0:0:0
96,256,15189,1,0,0:0:0
192,64,15439,1,0,0:0:0
192,160,15689,2,0,P|192:224,2,52.5000020027161
276,121,16189,5,0,0:0:0
316,94,16314,1,0,0:0:0
352,128,16439,2,0,P|416:96,2,71.400000435791,2|0|2,0:0|0:0|0:0,0:0:0
320,256,16939,6,0,P|416:320,2,71.400000435791,2|0|2,0:0|0:0|0:0,0:0:0
160,320,17439,5,2,0:0:0
96,288,17564,1,0,0:0:0
64,224,17689,1,2,0:0:0
96,160,17814,1,0,0:0:0
161,128,17939,1,2,0:0:0
256,64,18189,5,0,0:0:0
320,128,18439,1,0,0:0:0
352,96,18564,2,0,P|404:78|471:100,1,71.400000435791,0|2,0:0|0:0,0:0:0
480,192,18939,1,0,0:0:0
448,224,19064,2,0,P|400:236|346:238,1,71.400000435791,0|2,0:0|0:0,0:0:0
288,320,19439,5,0,0:0:0
128,192,19689,1,2,0:0:0
288,64,19939,1,2,0:0:0
64,96,20439,6,0,P|119:60|167:93|229:150|272:97|335:88,1,251.999992309571,0|2,0:0|0:0,0:0:0
448,288,21439,2,0,P|393:324|345:291|283:234|240:287|177:296,1,251.999992309571,0|2,0:0|0:0,0:0:0
384,192,22439,5,8,0:0:0
256,160,22689,1,8,0:0:0
128,192,22939,1,8,0:0:0
64,128,23439,5,2,0:0:0
256,256,23689,1,2,0:0:0
448,128,23939,1,2,0:0:0
222,96,24439,38,0,P|286:69|326:126|326:126|384:96|384:96,1,167.999994873047
258,164,25189,1,2,0:0:0
295,231,25439,2,0,P|231:258|191:201|191:201|133:231|133:231,1,167.999994873047
259,165,26189,1,2,0:0:0
448,128,26439,5,8,0:0:0
256,256,26689,1,8,0:0:0
64,128,26939,1,8,0:0:0
64,320,27439,37,2,0:0:0
256,64,27689,1,2,0:0:0
448,320,27939,1,2,0:0:0
32,128,28439,38,0,P|72:109|72:109|98:128|152:130,1,105.000004005432,0|0,0:0|0:0,0:0:0
160,96,28814,1,0,0:0:0
144,64,28939,1,0,0:0:0
243,80,29189,1,0,0:0:0
352,80,29439,1,0,0:0:0
320,104,29564,1,0,0:0:0
312,136,29689,1,0,0:0:0
328,168,29814,1,0,0:0:0
408,144,29939,2,0,P|456:192|400:264|408:272,1,105.000004005432,0|0,0:0|0:0,0:0:0
320,288,30439,5,0,0:0:0
224,288,30689,1,0,0:0:0
128,256,30939,1,0,0:0:0
64,64,31439,5,2,0:0:0
190,160,31689,1,2,0:0:0
320,64,31939,1,2,0:0:0
416,192,32439,6,0,P|480:160,2,52.5000020027161,0|0|0,0:0|0:0|0:0,0:0:0
352,224,32814,1,0,0:0:0
288,256,32939,2,0,P|224:288,1,52.5000020027161
171,251,33189,1,0,0:0:0
72,112,33439,5,0,0:0:0
112,96,33564,1,0,0:0:0
152,112,33689,1,0,0:0:0
192,128,33814,1,0,0:0:0
232,112,33939,1,0,0:0:0
320,32,34189,1,0,0:0:0
416,96,34439,37,0,0:0:0
320,192,34689,1,0,0:0:0
472,280,34939,1,0,0:0:0
288,320,35439,5,2,0:0:0
160,288,35689,1,2,0:0:0
128,160,35939,1,2,0:0:0
313,80,36439,6,0,P|384:64|448:64,1,70
448,96,36689,1,0,0:0:0
416,160,36814,2,0,P|329:178|307:176,1,70
320,320,37189,1,2,0:0:0
93,297,37439,6,0,P|132:255|187:242,1,70,2|0,0:0|0:0,0:0:0
105,178,37689,2,0,P|179:152|208:212|225:157,1,70,2|0,0:0|0:0,0:0:0
160,88,37939,1,0,0:0:0
256,112,38189,5,2,0:0:0
256,192,38439,12,0,39439,0:0:0
144,184,39689,5,0,0:0:0
176,216,39814,1,0,0:0:0
216,208,39939,1,2,0:0:0
168,56,40189,5,0,0:0:0
272,64,40439,6,0,P|296:144,1,70
340,191,40689,1,2,0:0:0
384,128,40814,2,0,P|360:48,1,70
480,24,41189,1,2,0:0:0
480,160,41439,5,0,0:0:0
448,192,41564,1,0,0:0:0
480,224,41689,1,2,0:0:0
448,256,41814,1,0,0:0:0
480,288,41939,1,0,0:0:0
368,336,42189,5,2,0:0:0
256,192,42439,12,0,43439,0:0:0
67,165,43689,6,0,P|103:143|140:166|157:189|205:162,1,140,0|2,0:0|0:0,0:0:0
214,255,44189,6,0,P|265:254|302:199|302:199|326:191,1,70,0|0,0:0|0:0,0:0:0
320,160,44439,5,2,0:0:0
320,160,44564,2,0,P|402:217,2,70,0|0|0,0:0|0:0|0:0,0:0:0
256,96,44939,1,2,0:0:0
256,96,45064,2,0,P|318:59,2,70,0|0|0,0:0|0:0|0:0,0:0:0
320,160,45439,5,0,0:0:0
352,224,45564,1,0,0:0:0
416,224,45689,1,0,0:0:0
448,160,45814,1,0,0:0:0
416,96,45939,1,2,0:0:0
320,64,46189,6,0,P|266:67|229:105,1,70,2|0,0:0|0:0,0:0:0
160,96,46439,1,2,0:0:0
32,192,46689,1,2,0:0:0
128,288,46939,5,0,0:0:0
160,352,47064,1,0,0:0:0
224,352,47189,1,0,0:0:0
256,288,47314,1,0,0:0:0
224,224,47439,1,0,0:0:0
128,160,47689,5,2,0:0:0
128,160,47814,2,0,P|224:128,1,70
288,160,48064,1,0,0:0:0
288,160,48189,2,0,P|384:128,2,70,0|0|0,0:0|0:0|0:0,0:0:0
352,256,48689,5,2,0:0:0
192,224,48939,1,2,0:0:0
224,64,49189,1,2,0:0:0
384,96,49439,2,0,P|416:64,4,35,0|0|0|0|2,0:0|0:0|0:0|0:0|0:0,0:0:0
320,160,50189,5,0,0:0:0
352,192,50314,1,0,0:0:0
417,240,50439,2,0,P|353:272|284:240,1,140,2|0,0:0|0:0,0:0:0
256,320,50939,1,0,0:0:0
192,320,51064,1,0,0:0:0
160,256,51189,1,0,0:0:0
192,192,51314,1,0,0:0:0
256,192,51439,1,0,0:0:0
287,256,51689,1,0,0:0:0
288,256,51939,5,4,0:0:0
448,240,52189,6,0,P|384:176,1,70
448,112,52439,5,8,0:0:0
400,80,52564,1,0,0:0:0
352,64,52689,1,8,0:0:0
304,80,52814,1,0,0:0:0
256,96,52939,1,8,0:0:0
208,80,53064,1,0,0:0:0
160,64,53189,1,8,0:0:0
112,80,53314,1,0,0:0:0
32,160,53439,5,8,0:0:0
80,176,53564,1,0,0:0:0
128,192,53689,1,8,0:0:0
176,176,53814,1,0,0:0:0
224,160,53939,1,4,0:0:0
48,288,54189,6,0,P|144:304,1,70
160,272,54439,1,8,0:0:0
224,336,54689,1,8,0:0:0
288,256,54939,5,8,0:0:0
336,240,55064,1,0,0:0:0
384,224,55189,1,8,0:0:0
432,240,55314,1,0,0:0:0
480,256,55439,1,4,0:0:0
384,320,55689,53,0,0:0:0
384,128,55939,1,0,0:0:0
464,80,56189,37,0,0:0:0
416,64,56314,1,0,0:0:0
368,80,56439,2,0,P|288:112,1,70,0|0,0:0|0:0,0:0:0
272,80,56689,1,2,0:0:0
400,160,56939,2,0,P|464:192,1,70,0|0,0:0|0:0,0:0:0
496,224,57189,1,2,0:0:0
400,256,57439,2,0,P|336:288,1,70,0|0,0:0|0:0,0:0:0
304,256,57689,1,2,0:0:0
224,336,57939,2,0,P|160:304,1,70,0|0,0:0|0:0,0:0:0
128,336,58189,1,2,0:0:0
64,192,58439,5,0,0:0:0
120,122,58689,2,0,P|157:108|193:116,1,70,0|0,0:0|0:0,0:0:0
240,176,58939,1,0,0:0:0
352,128,59189,5,0,0:0:0
416,240,59439,1,2,0:0:0
304,288,59689,1,0,0:0:0
240,176,59939,53,0,0:0:0
176,296,60189,37,0,0:0:0
129,287,60314,1,0,0:0:0
88,256,60439,2,8,P|136:192,1,70,0|0,0:0|0:0,0:0:0
96,160,60689,1,2,0:0:0
208,48,60939,1,2,0:0:0
176,88,61064,1,0,0:0:0
204,130,61189,2,0,P|252:138|308:114,1,70,0|0,0:0|0:0,0:0:0
320,112,61439,1,0,0:0:0
360,88,61564,2,0,P|392:72|440:88,2,70,2|0|2,0:0|0:0|0:0,0:0:0
376,128,61939,1,0,0:0:0
448,240,62189,38,0,P|416:256|360:256,1,70
328,200,62439,1,2,0:0:0
296,296,62564,1,0,0:0:0
256,224,62689,1,2,0:0:0
224,320,62814,1,0,0:0:0
160,256,62939,1,0,0:0:0
32,288,63189,5,0,0:0:0
68,129,63439,1,4,0:0:0
128,64,63689,1,0,0:0:0
210,98,63939,1,0,0:0:0
328,80,64189,5,0,0:0:0
368,56,64314,1,0,0:0:0
408,88,64439,2,0,P|408:168,1,70
440,184,64689,1,0,0:0:0
400,288,64939,2,0,P|320:248,1,70
296,272,65189,1,0,0:0:0
176,272,65439,5,0,0:0:0
128,288,65564,1,0,0:0:0
96,240,65689,1,0,0:0:0
48,208,65814,1,0,0:0:0
64,160,65939,1,0,0:0:0
216,112,66189,6,0,P|288:136|312:96|352:112,1,77.0000023498536
320,32,66439,1,2,0:0:0
368,128,66564,1,0,0:0:0
400,48,66689,1,2,0:0:0
448,144,66814,1,0,0:0:0
432,240,66939,5,0,0:0:0
352,256,67189,2,0,P|256:304,1,77.0000023498536
240,272,67439,1,0,0:0:0
