osu file format v11

[General]
AudioFilename: title_theme.mp3
AudioLeadIn: 1599
PreviewTime: -1
Countdown: 0
SampleSet: Soft
StackLeniency: 0.2
Mode: 0
LetterboxInBreaks: 1

[Editor]
DistanceSpacing: 1.4
BeatDivisor: 4
GridSize: 16

[Metadata]
Title:Angry birds
TitleUnicode:Angry birds
Artist:Ari Pulkkinen
ArtistUnicode:Ari Pulkkinen
Creator:_Rosy_River
Version:Hard
Source:Angry birds
Tags:
BeatmapID:218301
BeatmapSetID:77890

[Difficulty]
HPDrainRate:4
CircleSize:4
OverallDifficulty:3
ApproachRate:7
SliderMultiplier:2.1
SliderTickRate:1

[Events]
//Background and Video events
0,0,"SPLASHES_SHEET_1.png"
//Break Periods
2,36139,37539
2,39639,41539
//Storyboard Layer 0 (Background)
//Storyboard Layer 1 (Fail)
//Storyboard Layer 2 (Pass)
//Storyboard Layer 3 (Foreground)
//Storyboard Sound Samples
//Background Colour Transformations
3,100,163,162,255

[TimingPoints]
-1561,500,4,2,0,60,1,0
12875,-89.2857142857143,4,2,0,60,0,0
14875,-100,4,2,0,60,0,0
15875,-89.2857142857143,4,2,0,60,0,0
20000,-166.666666666667,4,2,0,60,0,0
23000,-166.666666666667,4,2,0,40,0,0
24000,-166.666666666667,4,2,0,60,0,0
27000,-166.666666666667,4,2,0,40,0,0
28000,-166.666666666667,4,2,0,60,0,0
32193,-166.666666666667,4,2,0,36,0,0
33125,-111.111111111111,4,2,0,46,0,0
46500,-100,4,2,0,49,0,0
52125,-125,4,2,0,48,0,0
54625,-128.205128205128,4,2,0,60,0,0
60314,-111.111111111111,4,2,0,60,0,0

[Colours]
Combo1 : 255,255,0
Combo2 : 0,255,0
Combo3 : 0,255,255
Combo4 : 255,0,0
Combo5 : 255,128,0

[HitObjects]
64,144,189,2,0,P|120:96|160:104,1,105
224,96,689,1,2,0:0:0
304,96,939,1,0,0:0:0
160,200,1189,2,0,P|200:256,1,52.5
224,272,1439,1,0,0:0:0
304,272,1689,1,2,0:0:0
384,272,1939,1,0,0:0:0
464,216,2189,5,0,0:0:0
408,152,2439,6,0,P|336:208,4,52.5
344,88,3189,1,0,0:0:0
272,128,3439,1,0,0:0:0
104,208,3939,5,0,0:0:0
144,136,4189,6,0,P|192:112,1,52.5
224,96,4439,1,2,0:0:0
312,120,4689,1,0,0:0:0
392,88,4939,1,0,0:0:0
352,216,5189,2,0,P|280:184,1,52.5
264,200,5439,1,2,0:0:0
184,224,5689,1,0,0:0:0
232,296,5939,1,0,0:0:0
56,216,6189,6,0,P|96:168,1,52.5
120,144,6439,2,0,P|200:160,3,52.5,2|0|2|0,0:0|0:0|0:0|0:0,0:0:0
192,128,6939,1,0,0:0:0
224,112,7064,1,0,0:0:0
256,128,7189,1,0,0:0:0
288,144,7314,1,0,0:0:0
320,128,7439,1,2,0:0:0
256,232,7689,5,0,0:0:0
256,232,7939,1,0,0:0:0
288,304,8189,2,0,P|336:256|328:216,1,105,0|2,0:0|0:0,0:0:0
392,168,8689,1,0,0:0:0
464,200,8939,1,0,0:0:0
456,280,9189,1,0,0:0:0
408,312,9314,1,0,0:0:0
368,288,9439,2,0,P|320:256|272:288,1,105,2|0,0:0|0:0,0:0:0
216,320,9939,1,0,0:0:0
120,280,10189,6,0,P|152:232,1,52.5,0|0,0:0|0:0,0:0:0
112,192,10439,2,0,P|56:152,3,52.5,2|0|2|0,0:0|0:0|0:0|0:0,0:0:0
80,120,10939,1,0,0:0:0
112,96,11064,1,0,0:0:0
152,96,11189,1,0,0:0:0
192,112,11314,1,0,0:0:0
232,96,11439,1,2,0:0:0
240,200,11689,5,0,0:0:0
320,256,11939,1,0,0:0:0
440,256,12189,6,0,P|416:240|408:216,1,52.5
368,144,12439,1,2,0:0:0
328,240,12689,1,0,0:0:0
296,144,12939,1,2,0:0:0
256,240,13189,1,0,0:0:0
184,240,13439,2,0,P|184:160,1,58.8000007177734
144,144,13689,2,0,P|200:72,2,58.8000007177734,0|0|2,0:0|0:0|0:0,0:0:0
72,160,14189,1,0,0:0:0
48,264,14439,5,2,0:0:0
120,264,14689,1,0,0:0:0
168,320,14939,1,2,0:0:0
184,208,15189,2,0,P|224:256,1,52.5
256,240,15439,1,2,0:0:0
296,320,15689,1,0,0:0:0
368,320,15939,1,0,0:0:0
440,288,16189,6,0,P|464:264|472:240,1,58.8000007177734,0|0,0:0|0:0,0:0:0
456,208,16439,1,2,0:0:0
360,240,16689,1,0,0:0:0
408,152,16939,1,2,0:0:0
312,184,17189,1,0,0:0:0
240,128,17439,2,0,P|224:200,1,58.8000007177734
176,208,17689,2,0,P|144:136,2,58.8000007177734,0|0|2,0:0|0:0|0:0,0:0:0
96,256,18189,5,0,0:0:0
160,320,18439,6,0,P|216:344|272:328,1,117.600001435547,2|0,0:0|0:0,0:0:0
352,336,18939,2,0,P|408:336|480:280,1,117.600001435547,2|0,0:0|0:0,0:0:0
408,248,19439,1,0,0:0:0
328,176,19689,1,0,0:0:0
256,248,19939,1,0,0:0:0
56,104,20439,6,0,P|120:112|168:80|192:48,1,125.999996154785
256,104,21189,1,0,0:0:0
88,208,21439,2,0,P|128:176|168:168|232:176,1,125.999996154785
256,104,22189,1,0,0:0:0
368,192,22439,5,2,0:0:0
368,192,22689,1,2,0:0:0
368,192,22939,1,2,0:0:0
288,288,23439,1,2,0:0:0
288,288,23689,1,2,0:0:0
288,288,23939,1,2,0:0:0
72,304,24439,6,0,P|104:264|144:256|208:272,1,125.999996154785
224,200,25189,1,0,0:0:0
32,200,25439,2,0,P|96:208|144:176|168:144,1,125.999996154785
224,200,26189,1,0,0:0:0
104,88,26439,5,2,0:0:0
184,80,26689,1,2,0:0:0
232,144,26939,1,2,0:0:0
256,248,27439,1,2,0:0:0
336,256,27689,1,2,0:0:0
384,192,27939,1,2,0:0:0
416,80,28439,6,0,P|416:152,1,62.9999980773926
464,168,28814,1,0,0:0:0
464,208,28939,1,0,0:0:0
472,288,29189,1,2,0:0:0
400,264,29439,2,0,P|336:312,2,62.9999980773926
344,200,30189,1,0,0:0:0
264,160,30439,5,2,0:0:0
264,160,30689,1,2,0:0:0
264,160,30939,1,2,0:0:0
200,248,31439,1,2,0:0:0
160,184,31689,1,2,0:0:0
88,160,31939,1,2,0:0:0
64,264,32439,5,0,0:0:0
88,288,32564,1,0,0:0:0
120,288,32689,1,2,0:0:0
152,304,32814,1,0,0:0:0
184,304,32939,1,0,0:0:0
176,208,33189,5,0,0:0:0
256,248,33439,2,0,P|272:224|295:225|295:225|288:240|240:256,1,94.499997116089
304,320,33939,1,0,0:0:0
432,296,34439,5,0,0:0:0
432,296,34689,1,0,0:0:0
432,296,34939,1,0,0:0:0
312,208,35439,1,2,0:0:0
256,312,35689,1,2,0:0:0
160,312,35939,1,2,0:0:0
96,192,38439,5,0,0:0:0
128,80,38689,1,2,0:0:0
208,160,38939,1,2,0:0:0
240,48,39189,1,2,0:0:0
320,128,39439,1,2,0:0:0
144,176,42439,5,0,0:0:0
224,256,42689,1,2,0:0:0
256,144,42939,1,2,0:0:0
362,165,43189,1,2,0:0:0
447,226,43439,1,2,0:0:0
96,88,44439,5,0,0:0:0
96,88,44689,2,0,P|208:104,1,94.499997116089
127,176,45189,1,0,0:0:0
200,192,45439,2,0,P|248:160|280:88,1,94.499997116089
328,80,45939,1,2,0:0:0
400,96,46189,1,0,0:0:0
408,168,46439,5,0,0:0:0
408,168,46689,2,0,P|408:272,1,105
328,288,47189,2,0,P|288:312|232:288,1,105
208,312,47564,1,0,0:0:0
176,320,47689,1,0,0:0:0
48,328,47939,5,2,0:0:0
104,176,48189,5,0,0:0:0
72,208,48314,1,0,0:0:0
96,248,48439,2,0,P|152:264|208:232|208:232,1,105,0|0,0:0|0:0,0:0:0
200,160,48939,2,0,P|264:160|304:184,1,105
288,280,49439,5,0,0:0:0
328,256,49564,1,0,0:0:0
352,296,49689,2,0,P|416:296,2,52.5
256,352,50189,5,2,0:0:0
184,312,50439,2,0,P|128:320|64:296,1,105
72,200,50939,1,0,0:0:0
104,176,51064,1,0,0:0:0
144,168,51189,1,0,0:0:0
184,176,51314,1,0,0:0:0
216,200,51439,1,0,0:0:0
352,320,51939,5,0,0:0:0
424,200,52189,5,0,0:0:0
392,176,52314,1,0,0:0:0
360,160,52439,2,0,P|320:176,3,42,2|0|2|0,0:0|0:0|0:0|0:0,0:0:0
288,160,52939,2,0,P|248:136,3,42,2|0|2|0,0:0|0:0|0:0|0:0,0:0:0
224,128,53439,38,0,P|160:128|136:88|176:72|208:88|192:128|112:128,1,168,2|2,0:0|0:0,0:0:0
48,192,54189,5,2,0:0:0
72,304,54439,6,0,P|152:224,1,84,2|0,0:0|0:0,0:0:0
184,176,54939,1,2,0:0:0
216,208,55064,1,0,0:0:0
248,176,55189,1,2,0:0:0
280,208,55314,1,0,0:0:0
304,240,55439,2,0,P|408:240|448:176,1,157.5,0|2,0:0|0:0,0:0:0
256,192,56439,12,0,57939,0:0:0
104,176,58439,5,0,0:0:0
184,136,58689,1,2,0:0:0
208,160,58814,1,0,0:0:0
232,184,58939,2,0,P|304:176|328:160,2,81.9000027493287
432,120,59939,5,0,0:0:0
368,64,60439,2,0,P|296:32|248:40,1,94.499997116089,2|0,0:0|0:0,0:0:0
240,112,60939,2,0,P|312:144|360:136,1,94.499997116089,2|0,0:0|0:0,0:0:0
424,136,61439,1,0,0:0:0
392,216,61689,1,0,0:0:0
312,256,61939,1,0,0:0:0
232,192,62189,5,0,0:0:0
200,208,62314,1,0,0:0:0
176,232,62439,2,0,P|128:224|80:248,2,94.499997116089
136,328,63189,1,2,0:0:0
240,344,63439,1,0,0:0:0
368,192,63939,5,0,0:0:0
304,104,64189,1,0,0:0:0
264,80,64314,1,0,0:0:0
224,64,64439,2,0,P|176:56|128:80,1,94.499997116089,0|0,0:0|0:0,0:0:0
144,160,64939,2,0,P|96:144|40:88,2,94.499997116089,0|0|0,0:0|0:0|0:0,0:0:0
72,232,65689,1,0,0:0:0
184,264,65939,1,0,0:0:0
248,176,66189,6,0,P|296:224,1,47.2499985580445
320,192,66439,1,0,0:0:0
352,216,66564,1,0,0:0:0
392,216,66689,1,0,0:0:0
424,192,66814,1,0,0:0:0
464,216,66939,1,0,0:0:0
392,320,67189,5,2,0:0:0
256,344,67439,5,0,0:0:0
