osu file format v13

[General]
AudioFilename: Uraomote fortune.mp3
AudioLeadIn: 1000
PreviewTime: 39515
Countdown: 0
SampleSet: Normal
StackLeniency: 0.6
Mode: 0
LetterboxInBreaks: 1
WidescreenStoryboard: 1

[Editor]
Bookmarks: 55200,55878,72240
DistanceSpacing: 1
BeatDivisor: 4
GridSize: 4
TimelineZoom: 1

[Metadata]
Title:URAOMOTE FORTUNE
TitleUnicode:URAOMOTE FORTUNE
Artist:Ari Ozawa
ArtistUnicode:小澤亜李
Creator:kumaapon
Version:Hard
Source:月刊少女野崎くん
Tags:Gekkan Shoujo Nozaki-kun Ending Chiyo Sakura
BeatmapID:463770
BeatmapSetID:195469

[Difficulty]
HPDrainRate:6
CircleSize:4
OverallDifficulty:5
ApproachRate:7
SliderMultiplier:1.8
SliderTickRate:1

[Events]
//Background and Video events
Video,0,"123707225_mp4_h264_aac_hd.flv"
0,0,"Gekkan-Shoujo-Nozaki-kun.jpg",0,0
//Break Periods
//Storyboard Layer 0 (Background)
//Storyboard Layer 1 (Fail)
//Storyboard Layer 2 (Pass)
//Storyboard Layer 3 (Foreground)
//Storyboard Sound Samples
//Background Colour Transformations
3,100,163,162,255

[TimingPoints]
655,454.545454545455,4,2,1,50,1,0
2474,-100,4,1,1,50,0,0
9745,-200,4,2,1,5,0,0
10426,-100,4,1,1,50,0,0
17927,-133.333333333333,4,2,1,50,0,0
18836,-100,4,2,0,50,0,0
40655,-100,4,1,1,50,0,1
53836,-100,4,1,1,50,0,0
55200,-100,4,1,1,50,0,1
69745,-200,4,2,1,50,0,0
70422,-100,4,2,1,50,0,0
77695,-100,4,1,1,50,0,0
86557,-100,4,2,1,5,0,0

[HitObjects]
144,256,655,5,2,0:0:0:0:
84,192,1109,1,2,0:0:0:0:
148,128,1564,2,0,B|216:92|264:160|344:116,1,180
360,52,2245,1,8,0:0:0:0:
436,88,2473,2,8,P|460:144|464:180,1,90,0|8,0:0|0:0,0:0:0:0:
440,248,2927,1,0,0:0:0:0:
384,320,3155,2,8,P|328:344|292:348,1,90,8|0,0:0|0:0,0:0:0:0:
212,360,3609,5,8,0:0:0:0:
128,324,3836,2,8,P|104:268|100:232,1,90,0|8,0:0|0:0,0:0:0:0:
116,152,4291,1,0,0:0:0:0:
180,92,4518,2,8,P|204:148|208:184,1,90,8|0,0:0|0:0,0:0:0:0:
280,232,4973,5,0,0:0:0:0:
340,300,5200,2,8,P|364:244|368:208,1,90,8|0,0:0|0:0,0:0:0:0:
304,152,5655,2,8,P|280:96|276:60,1,90,8|0,0:0|0:0,0:0:0:0:
188,52,6109,2,8,P|132:28|96:24,1,90,8|0,0:0|0:0,0:0:0:0:
48,96,6564,1,8,0:0:0:0:
64,184,6791,2,8,P|120:208|156:212,1,90,0|8,0:0|0:0,0:0:0:0:
96,284,7245,2,0,P|152:308|188:312,1,90,0|8,0:0|0:0,0:0:0:0:
268,284,7700,5,0,0:0:0:0:
200,224,7927,2,0,P|184:160|192:128,1,90,8|0,0:0|0:0,0:0:0:0:
276,168,8382,2,0,P|292:104|284:72,1,90,8|0,0:0|0:0,0:0:0:0:
216,48,8836,1,8,0:0:0:0:
116,92,9064,2,0,L|76:128,4,45,0|0|0|0|0,0:0|0:0|0:0|0:0|0:0,0:0:0:0:
188,172,9745,6,4,B|240:196|292:152|340:184,1,135
324,308,10655,5,8,0:0:0:0:
388,220,10882,1,0,0:0:0:0:
364,132,11109,6,0,P|332:84|304:60,1,90,8|8,0:0|0:0,0:0:0:0:
216,68,11564,6,0,P|168:100|144:128,1,90,8|8,0:0|0:0,0:0:0:0:
144,212,12018,2,0,P|192:180|216:152,1,90,8|0,0:0|0:0,0:0:0:0:
268,228,12473,2,0,P|300:276|328:300,1,90,8|0,0:0|0:0,0:0:0:0:
376,224,12927,2,0,L|376:104,1,90,8|0,0:0|0:0,0:0:0:0:
308,76,13382,2,0,L|308:196,1,90,8|0,0:0|0:0,0:0:0:0:
220,140,13836,1,8,0:0:0:0:
256,192,14064,12,0,15882,0:0:0:0:
120,100,16336,5,0,0:0:0:0:
120,100,16450,1,0,0:0:0:0:
120,100,16564,2,0,P|160:160|200:160,1,90
300,288,17245,2,0,P|368:256|420:260,1,90,0|0,0:0|0:0,0:0:0:0:
412,168,17700,1,0,0:0:0:0:
408,100,17927,2,0,L|456:64,6,33.7500012874604,0|0|0|0|0|0|0,0:0|0:0|0:0|0:0|0:0|0:0|0:0,0:0:0:0:
440,184,18836,6,0,P|372:216|320:212,1,90,0|0,0:0|0:0,0:0:0:0:
320,300,19291,1,0,0:0:0:0:
232,276,19518,1,0,0:0:0:0:
144,300,19745,6,0,P|136:240|164:184,1,90,0|0,0:0|0:0,0:0:0:0:
232,196,20200,2,0,P|240:136|212:80,1,90,0|0,0:0|0:0,0:0:0:0:
288,40,20655,2,0,P|348:32|404:60,1,90,0|0,0:0|0:0,0:0:0:0:
424,116,21109,2,0,P|432:176|404:232,1,90,0|0,0:0|0:0,0:0:0:0:
400,292,21564,2,0,P|340:300|284:272,1,90,0|0,0:0|0:0,0:0:0:0:
284,208,22018,1,0,0:0:0:0:
204,244,22245,6,0,L|132:160,1,90
68,132,22700,2,0,L|152:60,1,90
220,112,23155,1,0,0:0:0:0:
300,72,23382,2,0,P|380:52|404:84,1,90,0|0,0:0|0:0,0:0:0:0:
396,144,23836,2,0,P|316:164|292:132,1,90,0|0,0:0|0:0,0:0:0:0:
242,233,24291,6,0,L|243:347,1,90
212,192,24745,6,0,L|104:228,1,90
242,150,25200,6,0,L|174:58,1,90
291,166,25655,6,0,L|357:73,1,90
291,217,26109,6,0,L|400:252,1,90
468,112,26564,6,0,L|359:77,1,90,4|0,0:0|0:0,0:0:0:0:
284,44,27018,2,0,P|204:64|180:32,1,90,0|0,0:0|0:0,0:0:0:0:
212,172,27473,2,0,P|292:152|316:184,1,90,0|0,0:0|0:0,0:0:0:0:
364,200,27927,1,0,0:0:0:0:
324,280,28155,1,0,0:0:0:0:
256,340,28382,2,0,P|228:288|212:224,1,90
140,216,28836,6,0,P|132:140|172:124,1,90,0|0,0:0|0:0,0:0:0:0:
172,56,29291,1,0,0:0:0:0:
232,124,29518,1,0,0:0:0:0:
260,208,29745,2,0,P|228:256|268:296,1,90
328,288,30200,1,0,0:0:0:0:
364,204,30427,2,0,P|388:148|364:108,1,90
324,52,30882,1,0,0:0:0:0:
296,140,31109,1,0,0:0:0:0:
212,176,31336,2,4,B|228:176|252:208|252:256|196:296|156:288|116:264|76:224|76:192|36:152|36:152|76:112|76:80|116:40|152:16|196:8|260:40|260:96|220:128|180:120,1,630
316,100,33155,5,0,0:0:0:0:
316,224,33382,1,0,0:0:0:0:
72,336,34064,5,0,0:0:0:0:
72,336,34177,1,0,0:0:0:0:
72,336,34291,2,0,P|100:284|116:220,1,90
128,168,34745,1,0,0:0:0:0:
148,80,34973,6,0,P|200:52|264:36,1,90
300,132,35427,2,0,P|248:160|184:176,1,90
284,232,35882,2,0,P|232:260|168:276,1,90
120,300,36336,1,0,0:0:0:0:
144,212,36564,1,0,0:0:0:0:
216,160,36791,1,0,0:0:0:0:
272,92,37018,6,0,P|300:40|316:-24,1,90
380,64,37473,1,2,0:0:0:0:
348,148,37700,2,0,P|376:200|392:264,1,90
296,244,38155,1,2,0:0:0:0:
212,208,38382,1,0,0:0:0:0:
256,192,38609,12,4,40427,0:0:0:0:
352,40,40655,5,8,0:0:0:0:
436,76,40883,2,8,P|460:132|464:168,1,90,0|8,0:0|0:0,0:0:0:0:
440,248,41337,1,0,0:0:0:0:
384,320,41564,2,8,P|328:344|292:348,1,90,8|0,0:0|0:0,0:0:0:0:
212,360,42019,5,0,0:0:0:0:
128,324,42245,2,8,P|104:268|100:232,1,90,8|0,0:0|0:0,0:0:0:0:
116,152,42700,1,0,0:0:0:0:
180,92,42928,2,8,P|204:148|208:184,1,90,8|0,0:0|0:0,0:0:0:0:
280,232,43383,5,8,0:0:0:0:
340,300,43610,2,8,P|364:244|368:208,1,90,0|8,0:0|0:0,0:0:0:0:
304,152,44065,2,8,P|280:96|276:60,1,90,0|8,0:0|0:0,0:0:0:0:
188,52,44519,2,8,P|132:28|96:24,1,90,0|8,0:0|0:0,0:0:0:0:
48,96,44974,5,0,0:0:0:0:
64,184,45201,2,8,P|120:208|156:212,1,90,8|0,0:0|0:0,0:0:0:0:
96,284,45655,2,8,P|152:308|188:312,1,90,8|0,0:0|0:0,0:0:0:0:
268,300,46109,2,0,P|252:236|260:204,1,90,8|0,0:0|0:0,0:0:0:0:
340,244,46564,2,0,P|356:180|348:148,1,90,8|0,0:0|0:0,0:0:0:0:
288,96,47018,2,0,P|224:80|192:88,1,90,8|0,0:0|0:0,0:0:0:0:
152,160,47473,6,0,P|216:176|248:168,1,90,8|0,0:0|0:0,0:0:0:0:
324,204,47927,1,0,0:0:0:0:
324,204,48041,1,0,0:0:0:0:
324,204,48155,1,0,0:0:0:0:
256,264,48382,2,0,P|192:280|160:272,1,90
92,320,48836,2,0,P|76:256|84:224,1,90
112,148,49291,5,0,0:0:0:0:
184,96,49518,2,0,P|200:160|192:192,1,90
276,144,49973,1,0,0:0:0:0:
276,144,50086,1,0,0:0:0:0:
276,144,50200,2,0,P|292:208|284:240,1,90
384,196,50655,2,0,P|400:260|392:292,1,90
308,300,51109,6,0,L|232:352,1,90,8|0,0:0|0:0,0:0:0:0:
176,284,51564,2,0,L|108:212,1,90,8|0,0:0|0:0,0:0:0:0:
196,180,52018,2,0,L|264:252,1,90,8|0,0:0|0:0,0:0:0:0:
336,200,52473,2,0,L|408:132,1,90,8|0,0:0|0:0,0:0:0:0:
328,84,52927,1,0,0:0:0:0:
248,40,53155,2,0,P|232:104|240:136,1,90
204,208,53609,1,0,0:0:0:0:
272,268,53836,1,0,0:0:0:0:
232,284,53950,1,0,0:0:0:0:
188,292,54064,1,0,0:0:0:0:
108,332,54291,2,0,P|84:268|92:220,1,90,0|0,0:0|0:0,0:0:0:0:
88,156,54745,1,0,0:0:0:0:
264,192,55200,5,8,0:0:0:0:
212,264,55427,1,0,0:0:0:0:
268,336,55655,1,8,0:0:0:0:
352,308,55882,1,0,0:0:0:0:
360,220,56109,1,8,0:0:0:0:
328,136,56336,1,0,0:0:0:0:
404,88,56564,1,8,0:0:0:0:
320,56,56791,6,0,P|256:32|208:40,1,90,0|8,0:0|0:0,0:0:0:0:
244,124,57245,2,0,P|180:148|132:140,1,90,0|8,0:0|0:0,0:0:0:0:
72,172,57700,2,0,P|48:236|56:284,1,90,0|8,0:0|0:0,0:0:0:0:
164,280,58155,5,0,0:0:0:0:
228,216,58382,1,8,0:0:0:0:
316,216,58609,2,0,B|348:256|388:256|388:256|348:304|356:384,1,180,0|8,0:0|0:0,0:0:0:0:
268,328,59291,6,0,P|204:352|156:344,1,90,0|8,0:0|0:0,0:0:0:0:
104,308,59745,2,0,P|80:244|88:196,1,90,0|8,0:0|0:0,0:0:0:0:
48,140,60200,1,0,0:0:0:0:
156,116,60427,2,8,B|244:-44|260:300|276:-44|372:116,1,270,8|0,0:0|0:0,0:0:0:0:
412,196,61336,1,0,0:0:0:0:
412,196,61564,2,0,P|436:260|428:308,1,90,8|0,0:0|0:0,0:0:0:0:
344,272,62019,2,0,P|280:296|232:288,1,90,8|0,0:0|0:0,0:0:0:0:
176,332,62473,1,8,0:0:0:0:
116,164,62927,5,0,0:0:0:0:
28,176,63155,2,0,P|84:88|176:104,1,180,8|0,0:0|0:0,0:0:0:0:
240,68,63836,5,8,0:0:0:0:
240,68,63950,1,0,0:0:0:0:
240,68,64064,1,0,0:0:0:0:
312,124,64291,2,0,P|248:148|200:140,1,90,8|0,0:0|0:0,0:0:0:0:
292,208,64745,5,8,0:0:0:0:
292,208,64973,2,0,P|284:284|372:284,1,180,0|8,0:0|0:0,0:0:0:0:
304,104,65655,2,0,P|332:36|372:44,1,90,0|8,0:0|0:0,0:0:0:0:
432,88,66109,1,0,0:0:0:0:
440,200,66336,2,0,L|340:200,1,90,8|0,0:0|0:0,0:0:0:0:
240,200,66791,1,0,0:0:0:0:
188,288,67018,2,0,L|88:288,1,90,8|0,0:0|0:0,0:0:0:0:
72,184,67473,1,0,0:0:0:0:
148,104,67700,2,0,L|248:104,1,90,8|0,0:0|0:0,0:0:0:0:
316,56,68155,5,0,0:0:0:0:
316,56,68268,1,0,0:0:0:0:
316,56,68382,1,8,0:0:0:0:
384,112,68609,2,0,P|408:176|400:224,1,90,0|8,0:0|0:0,0:0:0:0:
328,236,69064,2,0,P|264:260|216:252,1,90,0|8,0:0|0:0,0:0:0:0:
152,252,69518,1,0,0:0:0:0:
152,252,69745,2,0,B|158:230|120:192|164:132,1,112.5,8|0,0:0|0:0,0:0:0:0:
328,56,70655,5,0,0:0:0:0:
408,128,70882,2,0,P|416:184|396:232,1,90,0|0,0:0|0:0,0:0:0:0:
324,288,71336,1,0,0:0:0:0:
224,328,71564,2,0,P|168:336|120:316,1,90,0|0,0:0|0:0,0:0:0:0:
80,228,72018,1,0,0:0:0:0:
132,136,72245,2,0,P|188:128|236:148,1,90,0|0,0:0|0:0,0:0:0:0:
296,184,72700,1,0,0:0:0:0:
384,176,72927,2,0,P|408:112|400:64,1,90,0|0,0:0|0:0,0:0:0:0:
316,64,73382,1,0,0:0:0:0:
208,60,73609,1,0,0:0:0:0:
136,140,73836,1,0,0:0:0:0:
156,228,74064,6,0,P|220:252|268:244,1,90,0|0,0:0|0:0,0:0:0:0:
236,344,74518,2,0,P|292:352|340:332,1,90,0|0,0:0|0:0,0:0:0:0:
416,284,74973,2,0,P|424:228|404:180,1,90,0|0,0:0|0:0,0:0:0:0:
400,88,75427,2,0,P|344:80|296:100,1,90,0|0,0:0|0:0,0:0:0:0:
200,80,75882,6,0,L|116:48,2,90,0|0|0,0:0|0:0|0:0,0:0:0:0:
288,144,76564,1,0,0:0:0:0:
188,180,76791,2,0,B|92:180|92:180|92:280,1,180,0|4,0:0|0:0,0:0:0:0:
368,272,77700,5,0,0:0:0:0:
372,164,77927,2,0,L|456:88,1,90,8|0,0:0|0:0,0:0:0:0:
368,48,78382,1,8,0:0:0:0:
296,84,78609,1,0,0:0:0:0:
224,140,78836,2,0,P|160:164|112:156,1,90,8|0,0:0|0:0,0:0:0:0:
92,240,79291,1,8,0:0:0:0:
164,296,79518,2,0,P|228:324|264:332,1,90,8|8,0:0|0:0,0:0:0:0:
332,304,79973,5,8,0:0:0:0:
408,252,80200,2,0,P|428:220|444:152,1,90,0|0,0:0|0:0,0:0:0:0:
372,116,80655,1,8,0:0:0:0:
288,84,80882,1,8,0:0:0:0:
288,84,80995,1,0,0:0:0:0:
288,84,81109,1,8,0:0:0:0:
200,60,81336,2,0,P|172:124|164:160,1,90,8|8,0:0|0:0,0:0:0:0:
140,228,81791,1,0,0:0:0:0:
228,236,82018,2,8,P|280:260|312:232,1,90,8|0,0:0|0:0,0:0:0:0:
348,164,82473,5,8,0:0:0:0:
424,212,82700,1,8,0:0:0:0:
384,292,82927,2,0,L|432:316,2,45,8|0|8,0:0|0:0|0:0,0:0:0:0:
296,300,83382,2,0,P|236:340|208:308,1,90,8|8,0:0|0:0,0:0:0:0:
172,268,83836,1,8,0:0:0:0:
208,184,84064,5,8,0:0:0:0:
208,184,84177,1,0,0:0:0:0:
208,184,84291,1,0,0:0:0:0:
288,140,84518,5,8,0:0:0:0:
288,140,84632,1,0,0:0:0:0:
288,140,84745,1,0,0:0:0:0:
208,96,84973,5,8,0:0:0:0:
208,96,85086,1,0,0:0:0:0:
208,96,85200,1,0,0:0:0:0:
128,140,85427,5,0,0:0:0:0:
128,140,85655,1,0,0:0:0:0:
128,140,85882,1,0,0:0:0:0:
256,192,86564,12,0,88836,0:0:0:0:
