osu file format v13

[General]
AudioFilename: Uraomote fortune.mp3
AudioLeadIn: 1000
PreviewTime: 39515
Countdown: 0
SampleSet: Soft
StackLeniency: 0.6
Mode: 0
LetterboxInBreaks: 1
WidescreenStoryboard: 1

[Editor]
Bookmarks: 39515,85200
DistanceSpacing: 1.2
BeatDivisor: 4
GridSize: 4
TimelineZoom: 1

[Metadata]
Title:URAOMOTE FORTUNE
TitleUnicode:URAOMOTE FORTUNE
Artist:Ari Ozawa
ArtistUnicode:小澤亜李
Creator:kumaapon
Version:Easy
Source:月刊少女野崎くん
Tags:Gekkan Shoujo Nozaki-kun Ending Chiyo Sakura
BeatmapID:463769
BeatmapSetID:195469

[Difficulty]
HPDrainRate:2
CircleSize:3
OverallDifficulty:2
ApproachRate:2
SliderMultiplier:0.8
SliderTickRate:1

[Events]
//Background and Video events
Video,0,"123707225_mp4_h264_aac_hd.flv"
0,0,"anime_wallpaper_Gekkan_Shojo_Nozaki-kun_5574783992.jpg",0,0
//Break Periods
2,70854,76140
//Storyboard Layer 0 (Background)
//Storyboard Layer 1 (Fail)
//Storyboard Layer 2 (Pass)
//Storyboard Layer 3 (Foreground)
//Storyboard Sound Samples
//Background Colour Transformations
3,100,163,162,255

[TimingPoints]
655,454.545454545455,4,2,1,50,1,0
2474,-100,4,1,1,50,0,0
9745,-100,4,2,1,50,0,0
10882,-100,4,1,1,50,0,0
17926,-100,4,2,0,50,0,0
40655,-100,4,1,1,50,0,1
53836,-100,4,1,1,50,0,0
69632,-100,4,1,1,50,0,1
69745,-100,4,2,1,50,0,0
70650,-100,4,2,1,50,0,0
77695,-100,4,1,1,50,0,0
86557,-100,4,2,1,5,0,0

[HitObjects]
80,140,2473,5,0,0:0:0:0:
164,96,2927,1,8,0:0:0:0:
248,140,3382,2,0,L|320:88,1,80,0|8,0:0|0:0,0:0:0:0:
400,136,4291,1,0,0:0:0:0:
456,212,4745,5,8,0:0:0:0:
376,268,5200,1,0,0:0:0:0:
280,268,5655,2,0,L|280:228|280:224,1,40,8|0,0:0|0:0,0:0:0:0:
288,132,6336,2,0,P|216:68|168:148,1,200,0|8,0:0|0:0,0:0:0:0:
224,208,7927,2,0,P|208:272|56:248,1,240,0|8,0:0|0:0,0:0:0:0:
116,184,9745,2,0,P|84:136|72:116,2,80,0|0|0,0:0|0:0|0:0,0:0:0:0:
192,128,11109,5,8,0:0:0:0:
284,156,11564,2,0,P|280:212|272:252,1,80,0|8,0:0|0:0,0:0:0:0:
224,304,12473,2,0,P|168:300|128:292,1,80,0|8,0:0|0:0,0:0:0:0:
72,232,13382,2,0,P|76:176|84:136,1,80,0|8,0:0|0:0,0:0:0:0:
256,192,14291,12,0,17473,0:0:0:0:
312,80,17927,6,0,P|368:84|408:92,2,80,0|8|0,0:0|0:0|0:0,0:0:0:0:
220,48,19291,1,0,0:0:0:0:
160,124,19745,2,0,P|164:180|172:220,1,80,0|8,0:0|0:0,0:0:0:0:
188,288,20655,2,0,P|244:284|284:276,1,80,0|8,0:0|0:0,0:0:0:0:
340,340,21564,2,0,P|396:336|436:328,1,80,0|8,0:0|0:0,0:0:0:0:
380,244,22473,2,0,P|384:188|392:148,1,80,0|8,0:0|0:0,0:0:0:0:
300,204,23382,6,0,P|296:148|288:108,1,80,0|8,0:0|0:0,0:0:0:0:
204,96,24291,1,0,0:0:0:0:
120,48,24745,1,0,0:0:0:0:
80,136,25200,6,0,P|84:192|92:232,1,80,0|8,0:0|0:0,0:0:0:0:
184,204,26109,2,0,P|180:260|172:300,1,80,0|8,0:0|0:0,0:0:0:0:
264,320,27018,1,0,0:0:0:0:
360,304,27473,1,0,0:0:0:0:
328,216,27927,2,0,P|384:220|424:228,1,80,0|8,0:0|0:0,0:0:0:0:
376,132,28836,2,0,P|320:136|280:144,1,80,0|8,0:0|0:0,0:0:0:0:
176,196,29745,6,0,P|188:256|216:276,1,80,8|0,0:0|0:0,0:0:0:0:
264,196,30655,2,0,P|252:136|224:116,1,80,8|0,0:0|0:0,0:0:0:0:
256,192,31564,12,8,32927,0:0:0:0:
256,188,33382,5,2,0:0:0:0:
176,68,34064,2,0,L|160:52,2,20,0|0|0,0:0|0:0|0:0,0:0:0:0:
316,108,34973,6,2,L|364:108,1,40
424,236,35882,2,0,L|440:252,2,20,0|0|0,0:0|0:0|0:0,0:0:0:0:
276,112,37018,2,0,P|208:92|184:92,1,80
176,132,37700,2,0,P|108:152|84:152,1,80
256,192,38609,12,4,40200,0:0:0:0:
140,176,40655,6,0,L|76:248,1,80,0|0,0:0|0:0,0:0:0:0:
220,252,41564,1,0,0:0:0:0:
316,252,42018,6,0,L|368:252,2,40,0|0|0,0:0|0:0|0:0,0:0:0:0:
332,156,42927,6,0,P|312:120|268:84,1,80,0|0,0:0|0:0,0:0:0:0:
188,104,43836,2,0,P|208:140|252:176,1,80,0|0,0:0|0:0,0:0:0:0:
144,192,44745,2,0,P|108:212|72:256,1,80,0|0,0:0|0:0,0:0:0:0:
128,304,45655,2,0,L|216:304,1,80
296,264,46564,1,0,0:0:0:0:
372,204,47018,1,0,0:0:0:0:
336,116,47473,6,0,P|316:80|272:44,1,80,0|0,0:0|0:0,0:0:0:0:
192,48,48382,1,0,0:0:0:0:
108,92,48836,2,0,P|128:128|172:164,1,80,0|0,0:0|0:0,0:0:0:0:
100,232,49745,1,0,0:0:0:0:
188,268,50200,2,0,P|224:288|260:332,1,80,0|0,0:0|0:0,0:0:0:0:
344,344,51109,1,0,0:0:0:0:
416,280,51564,2,0,B|416:112|416:112|468:156|336:148,1,280
252,44,53836,6,0,P|216:64|180:108,1,80,0|0,0:0|0:0,0:0:0:0:
124,164,54745,1,0,0:0:0:0:
172,248,55200,6,0,P|192:212|236:176,1,80,0|0,0:0|0:0,0:0:0:0:
260,272,56109,2,0,P|280:236|324:200,1,80,0|0,0:0|0:0,0:0:0:0:
348,296,57018,2,0,P|368:260|412:224,1,80,0|0,0:0|0:0,0:0:0:0:
408,140,57927,1,0,0:0:0:0:
328,104,58382,2,0,P|252:80|168:108,1,160,0|8,0:0|0:0,0:0:0:0:
124,180,59745,1,8,0:0:0:0:
176,260,60200,2,0,P|212:280|248:324,1,80,0|0,0:0|0:0,0:0:0:0:
312,248,61109,1,0,0:0:0:0:
360,164,61564,2,0,P|380:128|424:92,1,80,0|0,0:0|0:0,0:0:0:0:
332,40,62473,5,0,0:0:0:0:
236,48,62927,2,0,L|148:92,1,80
236,148,63836,2,0,L|148:192,1,80
192,276,64745,2,0,P|228:296|264:340,2,80,0|0|0,0:0|0:0|0:0,0:0:0:0:
268,216,66109,1,0,0:0:0:0:
336,148,66564,2,0,P|372:168|408:212,2,80,0|0|0,0:0|0:0|0:0,0:0:0:0:
404,80,67927,1,0,0:0:0:0:
312,48,68382,2,0,P|276:68|240:112,1,80,0|0,0:0|0:0,0:0:0:0:
168,148,69291,1,0,0:0:0:0:
168,244,69745,2,0,P|224:280|252:280,2,80,0|0|0,0:0|0:0|0:0,0:0:0:0:
104,148,77700,6,0,P|84:236|104:248,1,120
176,296,78836,6,0,L|176:348,2,40,0|0|0,0:0|0:0|0:0,0:0:0:0:
256,244,79745,6,0,P|236:208|192:172,1,80,0|0,0:0|0:0,0:0:0:0:
292,132,80654,2,0,P|312:168|356:204,1,80,0|0,0:0|0:0,0:0:0:0:
428,156,81563,2,0,P|408:120|364:84,1,80,0|0,0:0|0:0,0:0:0:0:
300,36,82473,2,0,L|212:36,1,80
132,72,83382,1,0,0:0:0:0:
80,152,83836,1,0,0:0:0:0:
136,232,84291,2,0,P|172:212|208:168,1,80,0|0,0:0|0:0,0:0:0:0:
280,132,85200,2,0,P|300:168|344:204,1,80,0|0,0:0|0:0,0:0:0:0:
256,192,86564,12,4,88836,0:0:0:0:
