osu file format v5

[General]
AudioFilename: FWN 02 Teddy Picker.mp3
AudioLeadIn: 0
PreviewTime: -1
Countdown: 1
SampleSet: Normal
StackLeniency: 0.6
Mode: 0
LetterboxInBreaks: 1
EditorBookmarks: 1667,4867,8067,11267,14467,17667,20867,39667,47267,50067,58779,64370,71559,85139,91529

[Metadata]
Title:Teddy Picker
Artist:Arctic Monkeys
Creator:spiky_meteorite
Version:Normal
Source:
Tags:

[Difficulty]
HPDrainRate:7
CircleSize:4
OverallDifficulty:7
SliderMultiplier:1.4
SliderTickRate:1

[Events]
//Background and Video events
0,0,"teddypicker.jpg"
//Break Periods
2,25863,32751
2,52588,57978
//Storyboard Layer 0 (Background)
//Storyboard Layer 1 (Failing)
//Storyboard Layer 2 (Passing)
//Storyboard Layer 3 (Foreground)
//Storyboard Sound Samples
//Background Colour Transformations
3,100,163,162,255

[TimingPoints]
1700,399.387605671304,4,1,0,100,1

[Colours]
Combo1 : 128,128,255
Combo2 : 255,40,116
Combo3 : 0,164,82
Combo4 : 198,198,0
Combo5 : 34,145,255

[HitObjects]
96,64,1700,1,0
192,64,2099,1,0
288,64,2498,2,2,B|448:64,1,140
448,184,3297,5,0
352,184,3696,1,0
256,184,4096,2,2,B|96:184,1,140
64,296,4895,5,0
160,296,5294,1,0
256,296,5693,2,2,B|416:296,1,140
320,64,6492,5,0
320,160,6892,1,0
320,256,7291,2,2,B|162:256,1,140
224,64,8090,6,0,B|160:96|96:160|64:224|64:320|64:320|224:320,1,420
288,64,9687,6,0,B|352:96|416:160|448:224|448:320|448:320|320:320,1,420
256,192,11285,12,0,14081
64,152,14480,6,0,B|117:108|177:85|240:90|302:123|317:201|109:257|64:312|416:248,1,560
416,344,16477,5,0
320,344,16876,2,0,B|160:344,1,140,0|0
160,144,17675,6,0,C|223:274|320:174|417:273|464:144,1,560
400,88,19672,5,0
328,88,20071,2,0,C|180:88,1,140
88,176,20870,6,2,C|376:176,1,280
440,176,22068,1,2
440,264,22468,2,2,C|152:264,1,280
88,264,23666,1,2
88,168,24065,5,0
152,168,24465,1,0
216,168,24864,1,0
250,168,25064,1,0
280,168,25263,1,0
344,168,25663,1,0
128,192,33651,5,0
192,192,34050,1,0
256,192,34449,1,0
288,192,34649,1,0
320,192,34849,1,0
320,256,35248,2,2,B|160:256,3,140
320,160,36846,5,0
256,192,37245,1,0
194,229,37644,2,2,B|32:320,4,140
256,96,40041,5,0
256,192,40440,1,0
256,288,40839,1,0
352,192,41638,5,0
288,192,42038,1,0
224,192,42437,1,0
160,192,42836,1,2
96,256,43436,5,0
128,256,43635,1,0
160,256,43835,1,0
192,256,44035,1,0
288,256,44434,1,0
320,256,44634,1,0
360,256,44833,6,0,C|448:128,3,140
96,224,47030,5,0
128,224,47230,2,0,B|160:192|224:160|416:160|416:320,1,280
192,288,48827,5,0
224,288,49027,1,0
256,288,49227,1,0
192,192,49626,6,0,B|352:192,7,140
96,64,59211,5,0
128,64,59411,1,0
160,64,59611,1,0
224,64,60010,2,2,B|384:64,2,140
448,160,61608,5,0
416,160,61807,1,0
384,160,62007,1,0
320,160,62406,1,0
256,160,62806,2,2,B|96:160,3,140
128,224,64403,1,0
192,224,64803,1,0
224,224,65002,1,0
64,288,65602,5,0
128,288,66001,1,0
192,288,66400,1,0
224,288,66600,1,0
256,288,66800,1,0
320,288,67199,2,2,B|480:288,1,140
160,160,68797,5,0
320,160,69196,1,0
416,224,69595,2,8,B|352:320|224:352|64:320|32:160,1,420
64,160,71193,5,0
96,160,71393,1,0
96,64,71992,6,2,B|384:64,3,280
448,176,75187,6,2,B|160:176,3,280
96,288,78382,6,2,B|384:288,3,280
256,192,81577,12,2,83973
256,192,85172,5,2
256,32,86370,5,0
256,96,86769,1,0
256,160,87168,1,0
256,224,87568,1,0
256,256,87768,1,0
256,288,87967,1,0
416,192,88766,5,0
320,192,89165,1,0
224,192,89565,2,2,B|64:192,3,140
224,192,91562,5,0
288,192,91961,1,0
128,128,92760,5,0
192,160,93159,1,0
256,192,93559,1,0
320,224,93958,1,0
384,256,94357,1,0
64,192,95955,5,0
96,192,96155,1,0
128,192,96354,1,0
160,192,96554,1,0
192,192,96754,1,0
224,192,96953,2,2,B|384:192,1,140
448,192,97752,1,0
256,192,98751,12,0,101147
