osu file format v14

[General]
AudioFilename: 02-arctic_monkeys-teddy_picker-mst.mp3
AudioLeadIn: 0
PreviewTime: 83157
Countdown: 1
SampleSet: Soft
StackLeniency: 0.7
Mode: 0
LetterboxInBreaks: 1
WidescreenStoryboard: 0

[Editor]
DistanceSpacing: 1
BeatDivisor: 4
GridSize: 4
TimelineZoom: 1

[Metadata]
Title:Teddy Picker
TitleUnicode:Teddy Picker
Artist:Arctic Monkeys
ArtistUnicode:Arctic Monkeys
Creator:Katsuri
Version:Normal
Source:
Tags:DC DiamondCrush Diamond Crush favorite worst nightmare AM
BeatmapID:200587
BeatmapSetID:66451

[Difficulty]
HPDrainRate:2
CircleSize:3
OverallDifficulty:2
ApproachRate:3
SliderMultiplier:1.6
SliderTickRate:2

[Events]
//Background and Video events
0,0,"teddy.png",0,0
//Break Periods
2,120099,121655
//Storyboard Layer 0 (Background)
//Storyboard Layer 1 (Fail)
//Storyboard Layer 2 (Pass)
//Storyboard Layer 3 (Foreground)
//Storyboard Sound Samples

[TimingPoints]
1666,399.467376830892,4,2,0,100,1,0
26732,-100,4,2,0,50,0,0
26932,-100,4,2,0,100,0,0
40014,-100,4,2,0,100,0,1
52398,-100,4,2,0,100,0,0
85154,-100,4,2,0,100,0,1
97538,-100,4,2,0,100,0,0
100725,399.467376830892,4,2,0,100,1,0
123095,-100,4,2,0,100,0,1
135478,-100,4,2,0,100,0,0
140671,-100,4,2,0,100,0,1
142269,-100,4,2,0,100,0,0
147063,-100,4,2,0,100,0,1
148659,399.467376830892,4,2,0,100,1,0
159020,399.467376830892,4,2,0,100,1,0

[Colours]
Combo1 : 101,153,144
Combo2 : 247,241,193
Combo3 : 186,206,176
Combo4 : 143,106,97

[HitObjects]
192,280,1666,6,0,P|256:320|324:280,1,160,4|0,0:0|1:0,0:0:0:0:
256,136,2464,2,0,L|256:56,1,80,2|2,0:0|0:0,0:0:0:0:
476,156,3263,2,0,B|480:232|480:232|500:320,2,160,0|0|0,0:0|1:0|0:0,0:0:0:0:
324,208,4462,1,0,1:0:0:0:
256,252,4662,1,0,0:0:0:0:
188,208,4861,1,4,0:0:0:0:
96,80,5261,6,0,P|44:144|52:216,1,160,0|2,1:0|0:0,0:0:0:0:
72,296,5860,1,2,0:0:0:0:
308,336,6459,2,0,P|352:260|344:192,1,160,0|0,0:0|1:0,0:0:0:0:
208,104,7258,2,0,P|164:180|172:248,1,160,0|0,0:0|1:0,0:0:0:0:
332,244,8057,6,0,B|412:260|412:260|492:260,2,160,0|0|0,0:0|1:0|0:0,0:0:0:0:
180,140,9455,1,0,1:0:0:0:
180,140,9656,2,0,B|100:124|100:124|21:124,2,160,0|0|0,0:0|1:0|0:0,0:0:0:0:
256,280,11053,6,0,L|256:360,1,80,0|0,1:0|0:0,0:0:0:0:
116,284,11652,1,0,1:0:0:0:
80,128,12052,2,0,B|80:88|80:88|100:48,1,80,2|2,0:0|0:0,0:0:0:0:
256,24,12651,2,0,L|256:104,1,80,0|0,1:0|0:0,0:3:0:0:
396,100,13250,1,0,1:0:0:0:
432,256,13650,2,0,B|432:296|432:296|412:336,1,80,2|2,0:0|0:0,0:0:0:0:
176,316,14448,6,0,P|88:328|40:272,1,160,4|0,0:0|1:0,0:0:0:0:
148,188,15247,2,0,L|196:120,1,80,0|0,1:0|1:0,0:0:0:0:
40,84,15847,2,0,B|152:92|152:68|280:84,1,240,2|0,0:0|1:0,0:0:0:0:
432,32,16845,2,0,L|432:112,1,80,2|2,0:0|0:0,0:0:0:0:
420,352,17644,6,0,P|452:268|424:208,1,160,4|0,0:0|1:0,0:0:0:0:
296,304,18443,1,2,0:0:0:0:
216,304,18643,1,2,0:0:0:0:
88,208,19042,1,0,0:0:0:0:
88,208,19242,2,0,P|60:268|92:352,1,160,4|0,0:0|1:0,0:0:0:0:
184,220,20041,2,0,L|192:136,1,80,2|2,0:0|0:0,0:0:0:0:
328,220,20640,2,0,L|320:136,1,80,2|4,0:0|0:0,0:0:0:0:
184,56,21239,6,0,P|256:92|328:56,2,160,0|0|0,1:0|0:0|1:0,0:0:0:0:
80,180,22438,1,0,0:0:0:0:
180,304,22837,1,0,1:0:0:0:
332,304,23237,1,0,0:0:0:0:
432,180,23636,1,0,1:0:0:0:
296,96,24036,6,0,B|340:92|340:92|372:68,2,80,0|0|0,0:0|0:0|1:0,0:0:0:0:
216,96,24635,2,0,B|172:92|172:92|140:68,2,80,0|0|0,0:0|0:0|0:0,0:0:0:0:
256,164,25234,2,0,L|256:244,2,80,0|0|4,1:0|0:0|0:0,0:0:0:0:
116,244,26033,1,0,1:0:0:0:
256,320,26432,1,2,0:0:0:0:
396,244,26832,1,4,0:0:0:0:
476,108,27231,6,0,B|392:88|392:116|316:96,1,160,4|0,0:0|1:0,0:0:0:0:
256,44,27831,1,0,0:0:0:0:
132,72,28230,2,0,B|92:84|92:84|52:76,2,80,0|0|0,0:0|1:0|0:0,0:0:0:0:
184,176,28829,2,0,B|232:176|256:148|256:148|280:176|328:176,1,160,0|0,0:0|1:0,0:0:0:0:
436,292,29628,2,0,P|468:324|468:360,2,80,0|0|0,0:0|0:0|1:0,0:0:0:0:
276,316,30427,6,0,P|200:340|124:316,1,160,0|0,0:0|1:0,0:0:0:0:
40,180,31226,2,0,P|116:156|192:180,1,160,0|0,0:0|1:0,0:0:0:0:
304,64,32025,2,0,B|304:104|304:104|320:140,2,80,0|0|0,0:0|0:0|1:0,0:0:0:0:
396,196,32824,2,4,L|476:192,1,80,2|2,0:0|0:0,0:0:0:0:
416,44,33423,1,0,1:0:0:0:
416,44,33623,6,0,B|360:-16|296:40|304:84|304:84|312:128|248:184|192:124,1,320,0|0,0:0|0:0,0:0:0:0:
32,104,34821,2,0,L|72:176,1,80,0|2,1:0|0:0,0:0:0:0:
144,316,35420,2,0,P|228:352|368:316,1,240,2|0,0:0|1:0,0:0:0:0:
352,236,36219,1,0,1:0:0:0:
216,184,36619,2,0,B|180:200|180:200|136:200,2,80,0|2|0,0:0|0:0|0:0,0:0:0:0:
296,168,37218,2,0,B|332:152|332:152|376:152,2,80,2|0|2,0:0|0:0|0:0,0:0:0:0:
324,20,38017,1,0,0:0:0:0:
324,20,38217,2,0,P|256:56|188:20,1,160,0|2,1:0|0:0,0:0:0:0:
116,44,38816,2,0,B|60:116|92:164|152:164|152:220|92:220|60:268|116:340,1,320,4|0,0:0|0:0,0:0:0:0:
272,312,40014,6,0,B|360:312|360:312|428:284,2,160,0|0|0,1:0|1:0|1:0,0:0:0:0:
216,160,41213,1,0,1:0:0:0:
296,160,41413,1,0,0:0:0:0:
328,88,41612,2,0,P|256:56|184:88,2,160,0|0|0,1:0|1:0|1:0,0:0:0:0:
256,232,42811,1,0,1:0:0:0:
216,300,43010,1,0,0:0:0:0:
296,300,43210,1,4,0:0:0:0:
400,176,43610,6,0,P|440:96|440:24,2,160,0|0|0,1:0|0:0|1:0,0:0:0:0:
112,176,45207,2,0,P|72:96|72:24,2,160,0|0|0,1:0|0:0|1:0,0:0:0:0:
256,108,46406,6,0,P|326:129|347:59,1,160,0|0,1:0|1:0,0:0:0:0:
508,52,47205,2,0,P|456:120|468:192,1,160,0|0,1:0|1:0,0:0:0:0:
448,348,48004,2,0,B|360:344|360:344|296:312,1,160,4|0,0:0|0:0,0:0:0:0:
64,348,48803,2,0,B|152:344|152:344|216:312,1,160,4|0,0:0|0:0,0:0:0:0:
256,192,49602,12,0,51998,0:0:0:0:
88,72,52797,6,0,P|72:164|92:228,1,160,4|0,0:0|1:0,0:0:0:0:
308,328,53796,2,0,B|334:321|334:321|392:332,1,80,2|0,0:0|1:0,0:0:0:0:
468,340,54195,1,0,0:0:0:0:
468,340,54395,2,0,P|488:256|472:184,2,160,0|0|0,0:0|1:0|0:0,0:0:0:0:
452,28,55793,1,0,0:0:0:0:
452,28,55993,6,0,P|352:76|304:56,1,160,4|0,0:0|1:0,0:0:0:0:
240,28,56592,1,2,0:0:0:0:
100,104,56992,2,0,L|16:84,2,80,2|0|2,0:0|1:0|0:0,0:0:0:0:
108,184,57591,2,0,P|84:276|136:312,1,160,0|0,1:0|1:0,0:0:0:0:
280,264,58390,2,0,P|304:224|252:136,1,160,0|0,1:0|1:0,0:0:0:0:
404,88,59189,6,0,B|389:140|364:168|364:168|396:196|392:232,2,160,4|0|0,0:0|1:0|0:0,0:0:0:0:
248,56,60387,1,0,1:0:0:0:
248,56,60587,1,0,0:0:0:0:
248,56,60787,2,0,L|84:72,1,160,2|0,0:0|1:0,0:0:0:0:
180,204,61586,2,0,L|344:184,1,160,0|0,0:0|1:0,0:0:0:0:
224,300,62385,6,0,P|144:312|84:264,2,160,0|0|0,0:0|1:0|0:0,0:0:0:0:
304,292,63383,1,2,0:0:0:0:
304,292,63583,1,0,1:0:0:0:
236,148,63982,1,0,0:0:0:0:
376,64,64382,1,0,1:0:0:0:
384,224,64781,1,0,0:0:0:0:
504,120,65181,1,0,1:0:0:0:
504,120,65580,6,0,P|404:148|348:136,1,160,4|0,0:0|1:0,0:0:0:0:
208,64,66379,2,0,L|128:80,3,80,0|0|0|0,0:0|0:0|1:0|0:0,0:0:0:0:
88,148,67178,1,4,0:0:0:0:
108,308,67578,1,0,1:0:0:0:
348,328,68177,1,0,0:0:0:0:
348,328,68377,1,0,1:0:0:0:
348,328,68576,1,0,0:0:0:0:
428,316,68776,6,0,P|464:240|448:160,1,160,0|0,0:0|1:0,0:0:0:0:
308,96,69575,2,0,L|384:72,1,80,0|0,0:0|1:0,0:0:0:0:
228,36,70174,2,0,L|152:60,1,80,0|0,1:0|0:0,0:0:0:0:
256,192,70474,12,0,71972,0:0:0:0:
256,48,72771,6,0,L|256:128,1,80,0|0,1:0|0:0,0:0:0:0:
204,280,73370,2,2,P|272:328|308:280,2,160
152,216,74369,2,0,L|72:204,1,80,0|0,1:0|0:0,0:0:0:0:
220,144,74968,1,0,1:0:0:0:
220,144,75167,2,0,B|280:72|280:72|356:80,1,160,4|0,0:0|1:0,0:0:0:0:
416,120,75767,1,2,1:0:0:0:
444,276,76166,1,2,1:0:0:0:
288,320,76566,2,0,P|231:323|128:332,1,160,4|0,1:0|0:0,0:0:0:0:
48,320,77165,1,0,1:0:0:0:
92,168,77564,2,0,B|92:128|92:128|80:116|80:116|72:52,2,120,2|2|4,0:0|0:0|0:0,0:0:0:0:
312,76,78763,5,0,0:0:0:0:
428,184,79162,2,0,L|440:264,1,80,0|0,1:0|0:0,0:0:0:0:
400,332,79562,1,0,0:0:0:0:
400,332,79761,2,2,P|312:336|160:332,1,240,2|0,0:1|0:0,0:1:0:0:
60,208,80760,2,0,L|68:296,1,80,0|0,1:0|0:0,0:0:0:0:
152,152,81359,1,0,1:0:0:0:
152,152,81559,1,4,0:0:0:0:
256,192,81659,12,4,83157,0:0:0:0:
300,344,85154,6,0,P|332:284|308:192,1,160,0|0,1:0|1:0,0:0:0:0:
252,48,85953,2,0,B|253:94|253:94|240:132,1,80,0|0,1:0|0:0,0:0:0:0:
199,197,86353,2,0,P|178:273|212:344,2,160,0|0|0,1:0|1:0|1:0,0:0:0:0:
200,36,87551,1,0,1:0:0:0:
256,96,87751,1,0,0:0:0:0:
312,36,87950,1,4,0:0:0:0:
404,168,88350,6,0,P|416:248|396:336,1,160,0|0,1:0|0:0,0:0:0:0:
324,344,88949,1,2,1:0:0:0:
184,264,89349,1,2,1:0:0:0:
108,244,89548,2,0,P|96:164|116:76,3,160,0|0|0|0,1:0|1:0|1:0|1:0,0:0:0:0:
268,64,91146,6,0,L|348:64,1,80,0|2,0:0|0:0,0:0:0:0:
380,140,91546,2,0,L|296:144,1,80,0|2,1:0|0:0,0:0:0:0:
276,220,91945,2,0,L|356:228,1,80,0|2,0:0|0:0,0:0:0:0:
376,304,92345,2,0,L|296:320,1,80,0|0,1:0|0:0,0:0:0:0:
220,336,92744,1,0,1:0:0:0:
60,328,93144,1,0,1:0:0:0:
192,240,93543,1,0,1:0:0:0:
56,160,93942,1,0,1:0:0:0:
156,36,94342,1,4,0:0:0:0:
296,264,95940,6,0,L|296:344,1,80,2|0,0:0|0:0,0:0:0:0:
216,344,96339,2,0,L|216:264,1,80,2|0,0:0|0:0,0:0:0:0:
192,188,96739,2,0,B|256:140|256:140|324:192,1,160,4|4,0:0|0:0,0:0:0:0:
468,128,97538,6,0,P|440:48|368:40,1,160,4|0,0:0|1:0,0:0:0:0:
300,64,98137,2,0,L|128:60,1,160,2|2,0:0|0:0,0:0:0:0:
144,284,99335,1,2,0:0:0:0:
144,284,99535,1,0,1:0:0:0:
200,228,99735,2,0,B|216:192|216:192|216:148,1,80,2|0,0:0|0:0,0:0:0:0:
296,151,100134,2,0,B|296:192|296:192|312:228,1,80,2|0,0:0|1:0,0:0:0:0:
420,340,100725,6,0,L|504:352,2,80,0|0|0,0:0|0:0|1:0,0:0:0:0:
392,264,101324,1,2,0:0:0:0:
468,124,101723,2,0,P|384:60|332:76,1,160,2|0,1:0|0:0,0:0:0:0:
260,88,102322,2,0,L|176:72,1,80,0|2,0:0|0:0,0:0:0:0:
104,92,102722,1,0,1:0:0:0:
80,248,103121,2,0,L|160:240,1,80,0|2,0:0|0:0,0:0:0:0:
228,284,103521,1,0,1:0:0:0:
376,344,103920,6,0,P|480:256|444:176,1,240,4|4,0:0|0:0,0:0:0:0:
288,160,104919,2,0,P|327:164|368:172,1,80,2|0,0:0|1:0,0:0:0:0:
240,72,105518,2,0,P|145:73|85:49,1,160,0|0,0:0|1:0,0:0:0:0:
48,204,106317,1,0,0:0:0:0:
48,204,106517,1,2,0:0:0:0:
48,204,106717,2,0,B|48:232|48:232|52:328|112:336,1,160,0|4,1:0|0:0,0:0:0:0:
268,316,107515,6,0,L|344:288,1,80,2|2,0:0|0:0,0:0:0:0:
192,232,108115,2,0,L|148:164,1,80,2|0,0:0|0:0,0:0:0:0:
164,84,108514,2,0,L|240:120,1,80,2|0,0:0|0:0,0:0:0:0:
312,96,108914,2,0,L|276:24,1,80,2|0,0:0|0:0,0:0:0:0:
356,8,109313,2,0,L|392:80,1,80,2|0,0:0|0:0,0:0:0:0:
464,116,109713,1,0,1:0:0:0:
464,116,109912,1,0,1:0:0:0:
464,276,110312,6,0,P|384:332|252:296,1,240,2|4,0:0|0:0,0:0:0:0:
64,124,111910,2,0,P|140:48|268:68,1,240,0|4,0:0|0:0,0:0:0:0:
488,204,113507,2,0,L|252:156,1,240,2|4,0:0|0:0,0:0:0:0:
20,208,115105,2,0,L|256:256,1,240,2|4,0:0|0:0,0:0:0:0:
256,192,116703,12,4,119899,0:0:0:0:
240,72,123095,6,0,B|152:72|152:72|84:100,2,160,0|0|0,1:0|1:0|1:0,0:0:0:0:
296,224,124294,1,0,1:0:0:0:
216,224,124494,1,0,0:0:0:0:
184,296,124693,2,0,P|256:328|328:296,2,160,0|0|0,1:0|1:0|1:0,0:0:0:0:
256,152,125892,1,0,1:0:0:0:
296,84,126091,1,0,0:0:0:0:
216,84,126291,1,4,0:0:0:0:
112,208,126691,6,0,P|72:288|72:360,2,160,0|0|0,1:0|0:0|1:0,0:0:0:0:
400,208,128288,2,0,P|440:288|440:360,2,160,0|0|0,1:0|0:0|1:0,0:0:0:0:
256,276,129487,6,0,P|186:255|165:325,1,160,0|0,1:0|1:0,0:0:0:0:
4,332,130286,2,0,P|56:264|44:192,1,160,0|0,1:0|1:0,0:0:0:0:
64,36,131085,2,0,B|152:40|152:40|216:72,1,160,4|0,0:0|0:0,0:0:0:0:
448,36,131884,2,0,B|360:40|360:40|296:72,1,160,4|0,0:0|0:0,0:0:0:0:
256,192,132683,12,0,135079,0:0:0:0:
256,44,135878,5,4,0:0:0:0:
144,252,137475,1,4,0:0:0:0:
368,252,139073,1,4,0:0:0:0:
368,252,140671,2,0,L|208:252,3,160,0|0|0|0,1:0|1:0|1:0|1:0,1:0:0:0:
104,132,142269,5,4,0:0:0:0:
256,80,143867,1,4,0:0:0:0:
408,132,145465,1,4,0:0:0:0:
408,132,147063,2,0,P|420:240|400:292,3,160,0|0|0|0,1:0|1:0|1:0|1:0,1:0:0:0:
248,320,148659,6,0,L|88:320,1,160,4|0,0:0|1:0,0:0:0:0:
60,164,149457,2,0,P|51:128|52:80,1,80,0|2,1:0|0:0,0:0:0:0:
204,28,150057,1,0,1:0:0:0:
204,28,150256,2,0,L|216:120,1,80,0|2,0:0|0:0,0:0:0:0:
288,144,150656,1,0,1:0:0:0:
440,96,151055,1,0,0:0:0:0:
416,256,151455,1,0,1:0:0:0:
264,308,151854,6,0,P|172:328|100:308,2,160,0|0|0,0:0|1:0|0:0,0:0:0:0:
308,240,152853,1,2,0:0:0:0:
348,84,153252,2,0,P|204:32|224:204,2,360,2|0|4,0:0|0:0|0:0,0:0:0:0:
376,240,155449,5,0,0:0:0:0:
216,264,155849,1,0,1:0:0:0:
296,264,156049,1,0,0:0:0:0:
136,240,156448,1,0,1:0:0:0:
136,240,156648,1,0,0:0:0:0:
96,172,156848,2,0,L|80:52,1,120,2|2,0:0|0:0,0:0:0:0:
208,24,157447,2,0,L|188:156,1,120,2|2,0:0|0:0,0:0:0:0:
256,244,158046,1,2,0:0:0:0:
256,244,159020,5,4,0:0:0:0:
