osu file format v12

[General]
AudioFilename: 02-I Bet You Look Good On The Dancefloor.mp3
AudioLeadIn: 0
PreviewTime: 46817
Countdown: 0
SampleSet: Normal
StackLeniency: 0.7
Mode: 0
LetterboxInBreaks: 0
WidescreenStoryboard: 0

[Editor]
Bookmarks: 27730
DistanceSpacing: 0.9
BeatDivisor: 4
GridSize: 8

[Metadata]
Title:I Bet You Look Good on the Dancefloor
TitleUnicode:I Bet You Look Good on the Dancefloor
Artist:Arctic Monkeys
ArtistUnicode:Arctic Monkeys
Creator:Mashley
Version:Insane
Source:
Tags:gonzvlo
BeatmapID:125151
BeatmapSetID:39217

[Difficulty]
HPDrainRate:8
CircleSize:5
OverallDifficulty:8
ApproachRate:9
SliderMultiplier:2.1
SliderTickRate:2

[Events]
//Background and Video events
0,0,"untitled.jpg",0,0
//Break Periods
2,65425,73971
2,126004,134338
//Storyboard Layer 0 (Background)
//Storyboard Layer 1 (Fail)
//Storyboard Layer 2 (Pass)
//Storyboard Layer 3 (Foreground)
//Storyboard Sound Samples
//Background Colour Transformations
3,100,0,0,0

[TimingPoints]
18671,289.156626506024,4,1,0,51,1,0
27943,290.556900726392,4,1,0,51,1,0
35768,290.556900726392,4,1,0,51,1,0
36058,290.556900726392,4,1,0,51,1,0
39850,291.26213592233,4,1,0,51,1,0
41316,291.26213592233,4,1,0,51,1,0
41898,291.26213592233,4,1,0,51,1,0
45990,291.26213592233,4,1,0,51,1,0
46266,291.26213592233,4,1,0,51,1,0
46580,290.768112430337,4,1,0,51,1,1
55739,-100,4,1,0,51,0,0
55920,291.26213592233,4,1,0,51,1,1
65225,290.556900726392,4,1,0,51,1,0
67549,290.768112430337,4,1,0,51,1,0
74571,289.855072463768,4,1,0,51,1,0
86193,290.556900726392,4,1,0,51,1,0
91703,290.556900726392,4,1,0,51,1,0
92584,290.556900726392,4,1,0,51,1,0
93193,290.768112430337,4,1,0,51,1,1
94656,290.768112430337,4,1,0,51,1,1
95247,290.768112430337,4,1,0,51,1,1
95537,290.768112430337,4,1,0,51,1,1
97580,290.768112430337,4,1,0,51,1,1
97870,290.768112430337,4,1,0,51,1,1
100768,290.768112430337,4,1,0,51,1,1
101349,290.768112430337,4,1,0,51,1,1
102366,-100,4,1,0,51,0,0
102514,290.768112430337,4,1,0,51,1,1
103406,290.768112430337,4,1,0,51,1,1
103696,290.768112430337,4,1,0,51,1,1
107195,290.768112430337,4,1,0,51,1,1
108323,290.768112430337,4,1,0,51,1,1
111822,290.768112430337,4,1,0,51,1,1
114448,290.768112430337,4,1,0,51,1,1
115320,290.9796314258,4,1,0,51,1,1
121149,290.9796314258,4,1,0,51,1,1
125804,285.714285714286,4,1,0,51,1,0
134938,292.682926829268,4,1,0,51,1,0
143123,300,4,1,0,51,1,0
144318,292.682926829268,4,1,0,51,1,0
146616,289.855072463768,4,1,0,51,1,1
153427,-100,4,1,0,51,0,0
153587,291.26213592233,4,1,0,51,1,1
155922,291.26213592233,4,1,0,51,1,1
158553,291.26213592233,4,1,0,51,1,1
159426,291.26213592233,4,1,0,51,1,1
160606,291.26213592233,4,1,0,51,1,1
161183,295.566502463054,4,1,0,51,1,1
161794,295.566502463054,4,1,0,51,1,0
163490,295.566502463054,4,1,0,51,1,0

[Colours]
Combo1 : 255,204,244
Combo2 : 74,147,227
Combo3 : 120,73,171
Combo4 : 99,184,95
Combo5 : 190,65,118
Combo6 : 181,248,253

[HitObjects]
352,328,27943,6,2,B|384:408|480:400|520:320|488:264,1,210,2|0,0:0|0:0,0:0:0:0:
496,232,28378,2,0,B|496:8,2,210,2|8|4,0:0|0:0|0:0,0:0:0:0:
416,232,29105,2,0,B|296:232,1,105,2|0,0:0|0:0,0:0:0:0:
312,144,29395,2,0,B|360:104|408:144,1,105,8|0,0:0|0:0,0:0:0:0:
424,64,29686,2,2,B|352:8|208:32|192:136|208:192,1,315,2|0,0:0|0:0,0:0:0:0:
208,264,30267,5,2,0:0:0:0:
136,312,30412,2,0,B|88:352|40:312,1,105,0|8,0:0|0:0,0:0:0:0:
88,248,30703,1,2,0:0:0:0:
32,88,30993,1,2,0:0:0:0:
200,120,31284,1,4,0:0:0:0:
272,80,31429,2,0,B|319:40|366:80,1,105,8|0,0:0|0:0,0:0:0:0:
368,168,31720,2,0,B|263:168,1,105,2|0,0:0|0:0,0:0:0:0:
208,232,32010,2,0,B|184:328|288:368|344:328,1,210,4|8,0:0|0:0,0:0:0:0:
392,272,32446,1,0,0:0:0:0:
456,216,32591,6,0,B|512:192|512:128,2,105,2|0|0,0:0|0:0|0:0,0:0:0:0:
432,136,33027,1,2,0:0:0:0:
296,40,33318,1,12,0:0:0:0:
216,64,33463,2,0,B|112:96,1,105
40,128,33754,2,2,B|0:192|40:288|128:280,1,210
192,328,34189,2,0,B|312:328,1,105,0|8,0:0|0:0,0:0:0:0:
296,240,34480,2,0,B|248:200|200:240,2,105,2|0|0,0:0|0:0|0:0,0:0:0:0:
368,280,34916,5,2,0:0:0:0:
488,160,35206,1,8,0:0:0:0:
408,160,35352,2,2,B|312:112|312:112|344:16,1,210
400,80,35768,2,0,B|456:96|488:32,2,105,8|0|8,0:0|0:0|0:0,0:0:0:0:
328,128,36203,2,0,B|264:144|240:200,1,105,0|8,0:0|0:0,0:0:0:0:
192,256,36493,2,0,B|152:200|96:200,1,105,0|8,0:0|0:0,0:0:0:0:
24,208,36784,2,0,B|48:152|8:96,2,105,0|8|0,0:0|0:0|0:0,0:0:0:0:
8,288,37220,38,0,B|24:360|104:368|168:344|176:280,1,210,4|0,0:0|0:0,0:0:0:0:
96,264,37656,1,2,0:0:0:0:
248,328,37946,1,2,0:0:0:0:
328,320,38091,1,8,0:0:0:0:
384,256,38237,1,0,0:0:0:0:
376,176,38382,2,0,B|320:160|304:96,1,105,8|0,0:0|0:0,0:0:0:0:
368,48,38673,2,0,B|424:64|440:128,2,105,8|0|12,0:0|0:0|0:0,0:0:0:0:
200,32,39254,5,0,0:0:0:0:
128,72,39399,1,0,0:0:0:0:
48,72,39544,2,2,B|-8:144|32:232|120:216,1,210,2|0,0:0|0:0,0:0:0:0:
144,296,39995,2,0,B|184:248|240:256,1,105,8|0,0:0|0:0,0:0:0:0:
296,200,40286,2,0,B|352:224|400:200,1,105,8|0,0:0|0:0,0:0:0:0:
480,224,40578,1,0,0:0:0:0:
456,144,40723,1,2,0:0:0:0:
312,64,41015,1,2,0:0:0:0:
160,144,41316,1,12,0:0:0:0:
56,272,41607,5,0,0:0:0:0:
136,248,41752,1,0,0:0:0:0:
200,304,41898,2,0,B|232:256|304:264,1,105,2|0,0:0|0:0,0:0:0:0:
368,232,42189,2,0,B|424:264|488:248,1,105,8|0,0:0|0:0,0:0:0:0:
496,184,42480,2,0,B|408:168|392:64|472:32,1,210,4|8,0:0|0:0,0:0:0:0:
368,8,42917,1,0,0:0:0:0:
368,8,43063,2,0,B|248:8,1,105,0|2,0:0|0:0,0:0:0:0:
264,96,43354,2,0,B|312:136|360:96,2,105,8|0|12,0:0|0:0|0:0,0:0:0:0:
72,176,43936,5,8,0:0:0:0:
16,240,44082,1,0,0:0:0:0:
40,320,44228,2,2,B|96:264|184:272|216:352,1,210
264,280,44664,1,0,0:0:0:0:
264,280,44810,2,2,P|368:288|448:216,1,210
448,144,45247,1,0,0:0:0:0:
448,144,45393,2,0,B|384:136|368:64,1,105,0|8,0:0|0:0,0:0:0:0:
288,72,45684,2,0,B|280:136|208:152,1,105,0|0,0:0|0:0,0:0:0:0:
248,224,45990,2,0,B|304:232|328:288,2,105,0|8|4,0:0|0:0|0:0,0:0:0:0:
32,376,46580,6,2,B|-32:320|-8:224|64:208,1,210
144,232,47016,1,0,0:0:0:0:
128,152,47161,1,2,0:0:0:0:
256,48,47452,1,2,0:0:0:0:
480,8,47743,6,2,B|544:64|520:160|448:176,1,210
368,152,48179,1,0,0:0:0:0:
384,232,48324,1,2,0:0:0:0:
256,336,48615,1,2,0:0:0:0:
32,88,48906,70,2,B|72:24|144:24|200:72|200:128,1,210
160,184,49342,1,0,0:0:0:0:
128,264,49487,1,2,0:0:0:0:
128,264,49778,1,2,0:0:0:0:
480,296,50069,6,2,B|440:360|368:360|312:312|312:256,1,210
352,200,50505,1,0,0:0:0:0:
384,120,50650,1,2,0:0:0:0:
384,120,50941,1,2,0:0:0:0:
144,360,51232,70,2,B|64:336|64:336|72:248|8:216,1,210
40,128,51668,1,0,0:0:0:0:
112,184,51813,1,2,0:0:0:0:
112,184,52104,1,2,0:0:0:0:
368,24,52395,6,2,B|448:48|448:48|440:136|504:168,1,210
472,256,52831,1,0,0:0:0:0:
400,200,52976,1,2,0:0:0:0:
400,200,53267,1,2,0:0:0:0:
256,192,53558,12,12,55593,0:0:0:0:
496,336,55920,70,0,B|456:280|392:304,1,105,4|0,0:0|0:0,0:0:0:0:
336,344,56211,1,8,0:0:0:0:
336,264,56356,1,0,0:0:0:0:
288,192,56502,2,2,B|232:112|336:48|392:136,1,210
456,176,56939,2,0,B|480:112|440:56,1,105,0|2,0:0|0:0,0:0:0:0:
376,32,57230,2,0,B|328:0|264:32,1,105,0|2,0:0|0:0,0:0:0:0:
216,80,57521,1,0,0:0:0:0:
136,56,57667,1,2,0:0:0:0:
56,72,57813,2,2,B|-16:112|-24:200|32:248,1,210,2|0,0:0|0:0,0:0:0:0:
72,320,58250,6,0,B|128:288|184:304,1,105,4|0,0:0|0:0,0:0:0:0:
248,272,58541,2,0,B|288:312|344:296,1,105,8|2,0:0|0:0,0:0:0:0:
384,224,58832,2,0,B|352:136|432:80|520:144,1,210,0|10,0:0|0:0,0:0:0:0:
496,48,59269,1,0,0:0:0:0:
416,24,59415,2,0,B|304:-8,1,105,4|0,0:0|0:0,0:0:0:0:
312,80,59706,2,0,B|208:48,1,105,8|2,0:0|0:0,0:0:0:0:
128,24,59997,2,0,B|160:112|80:176|0:128,1,210,0|10,0:0|0:0,0:0:0:0:
8,216,60434,69,0,0:0:0:0:
56,288,60580,2,0,B|96:248|152:264,1,105,4|0,0:0|0:0,0:0:0:0:
240,264,60871,1,8,0:0:0:0:
304,216,61017,1,2,0:0:0:0:
384,232,61162,2,0,B|392:144|512:144|504:56,1,210,4|2,0:0|0:0,0:0:0:0:
440,16,61599,2,0,B|408:64|336:48,1,105,0|8,0:0|0:0,0:0:0:0:
264,32,61890,2,2,B|168:16|168:16|160:72|80:88,1,210,2|0,0:0|0:0,0:0:0:0:
32,152,62327,1,0,0:0:0:0:
8,232,62473,1,2,0:0:0:0:
88,256,62619,2,0,B|144:280|160:344,1,105,8|0,0:0|0:0,0:0:0:0:
240,360,62910,6,0,B|296:344|296:344|312:288,1,105,8|0,0:0|0:0,0:0:0:0:
376,240,63201,2,0,B|320:224|320:224|304:168,1,105,12|0,0:0|0:0,0:0:0:0:
304,96,63492,2,0,B|248:112|248:112|232:168,1,105,8|0,0:0|0:0,0:0:0:0:
168,216,63784,2,0,B|224:232|224:232|240:288,1,105,12|0,0:0|0:0,0:0:0:0:
256,192,64075,12,4,65225,0:0:0:0:
24,136,74571,6,0,B|8:56|104:0|168:64,1,210,4|2,0:0|0:0,0:0:0:0:
224,120,75005,2,0,B|256:168|312:176,1,105
392,160,75295,1,0,0:0:0:0:
448,104,75440,1,8,0:0:0:0:
472,184,75585,1,0,0:0:0:0:
480,264,75730,2,0,B|424:248|376:288,1,105
344,360,76020,1,2,0:0:0:0:
176,384,76310,1,12,0:0:0:0:
136,312,76455,6,0,B|88:280|32:304,2,105,0|0|0,0:0|0:0|0:0,0:0:0:0:
208,272,76889,2,2,B|248:184|192:88|120:88,1,210,2|0,0:0|0:0,0:0:0:0:
128,176,77324,1,2,0:0:0:0:
176,16,77614,1,2,0:0:0:0:
296,128,77904,1,0,0:0:0:0:
368,80,78049,2,0,B|488:80,1,105,0|2,0:0|0:0,0:0:0:0:
472,168,78339,2,0,B|424:208|376:168,2,105,8|0|12,0:0|0:0|0:0,0:0:0:0:
432,328,78918,5,0,0:0:0:0:
352,312,79063,1,0,0:0:0:0:
272,296,79208,2,2,B|240:224|120:232|120:328,1,210,2|0,0:0|0:0,0:0:0:0:
200,336,79643,1,2,0:0:0:0:
40,296,79933,1,2,0:0:0:0:
152,176,80223,1,0,0:0:0:0:
168,96,80368,2,0,B|128:48|80:48,1,105,8|2,0:0|0:0,0:0:0:0:
80,128,80657,2,0,B|48:176|88:240,1,105
160,264,80947,1,4,0:0:0:0:
304,344,81237,5,0,0:0:0:0:
368,296,81382,1,0,0:0:0:0:
440,256,81527,2,2,B|512:216|496:96|432:72,1,210
376,128,81962,1,0,0:0:0:0:
376,128,82252,2,0,B|344:80|264:72,1,105,8|0,0:0|0:0,0:0:0:0:
120,64,82686,2,0,B|24:72|0:160|40:240,1,210,4|8,0:0|0:0,0:0:0:0:
8,296,83121,1,8,0:0:0:0:
72,344,83266,2,0,B|112:304|176:312,1,105,0|8,0:0|0:0,0:0:0:0:
256,312,83556,2,0,B|264:256|336:224,1,105
384,280,83846,38,0,B|496:288|512:160|448:112,1,210,4|0,0:0|0:0,0:0:0:0:
408,80,84281,1,0,0:0:0:0:
336,40,84426,2,0,B|232:0,1,105,0|2,0:0|0:0,0:0:0:0:
208,80,84715,2,0,B|312:120,2,105,8|0|8,0:0|0:0|0:0,0:0:0:0:
40,104,85295,1,8,0:0:0:0:
8,184,85440,1,0,0:0:0:0:
96,184,85585,6,2,B|168:160|240:232|216:320,1,210
136,304,86020,1,0,0:0:0:0:
136,304,86193,2,2,B|114:228|186:156|258:180,1,210,2|0,0:0|0:0,0:0:0:0:
336,216,86628,1,2,0:0:0:0:
440,80,86919,1,2,0:0:0:0:
512,232,87209,1,0,0:0:0:0:
456,296,87355,2,0,B|416:328|352:312,1,105,0|2,0:0|0:0,0:0:0:0:
280,280,87645,1,0,0:0:0:0:
280,280,87936,1,12,0:0:0:0:
456,112,88226,5,0,0:0:0:0:
376,136,88372,1,0,0:0:0:0:
312,80,88517,2,0,B|280:128|208:120,1,105,2|0,0:0|0:0,0:0:0:0:
144,152,88808,2,0,B|88:120|24:136,1,105,8|0,0:0|0:0,0:0:0:0:
16,200,89098,2,0,B|104:216|120:320|40:352,1,210,4|8,0:0|0:0,0:0:0:0:
144,376,89534,1,0,0:0:0:0:
144,376,89679,2,0,B|264:376,1,105,0|2,0:0|0:0,0:0:0:0:
248,288,89970,2,0,B|200:248|152:288,2,105,8|0|12,0:0|0:0|0:0,0:0:0:0:
440,208,90551,5,8,0:0:0:0:
496,144,90696,1,0,0:0:0:0:
472,64,90841,2,2,B|416:120|328:112|296:32,1,210
248,104,91277,1,0,0:0:0:0:
248,104,91423,2,2,P|144:96|64:160,1,210
64,240,91848,1,0,0:0:0:0:
64,240,91993,2,0,B|128:248|144:320,1,105,0|8,0:0|0:0,0:0:0:0:
224,312,92284,2,0,B|232:248|304:232,1,105,0|0,0:0|0:0,0:0:0:0:
264,160,92584,2,0,B|200:152|184:80,2,105,0|8|4,0:0|0:0|0:0,0:0:0:0:
480,8,93193,6,2,B|544:64|520:160|448:176,1,210
368,152,93629,1,0,0:0:0:0:
384,232,93774,1,2,0:0:0:0:
256,336,94065,1,2,0:0:0:0:
32,376,94356,6,2,B|-32:320|-8:224|64:208,1,210
144,232,94801,1,0,0:0:0:0:
128,152,94946,1,2,0:0:0:0:
256,48,95247,1,2,0:0:0:0:
480,296,95537,70,2,B|440:360|368:360|312:312|312:256,1,210
352,200,95973,1,0,0:0:0:0:
384,120,96118,1,2,0:0:0:0:
384,120,96409,1,2,0:0:0:0:
32,88,96700,6,2,B|72:24|144:24|200:72|200:128,1,210
160,184,97136,1,0,0:0:0:0:
128,264,97281,1,2,0:0:0:0:
128,264,97580,1,2,0:0:0:0:
144,360,97870,70,2,B|64:336|64:336|72:248|8:216,1,210
40,128,98306,1,0,0:0:0:0:
112,184,98451,1,2,0:0:0:0:
112,184,98742,1,2,0:0:0:0:
368,24,99033,6,2,B|448:48|448:48|440:136|504:168,1,210
472,256,99469,1,0,0:0:0:0:
400,200,99614,1,2,0:0:0:0:
400,200,99905,1,2,0:0:0:0:
256,192,100196,12,12,102221,0:0:0:0:
16,48,102514,70,0,B|56:104|120:80,1,105,4|0,0:0|0:0,0:0:0:0:
176,40,102804,1,8,0:0:0:0:
176,120,102950,1,0,0:0:0:0:
224,192,103095,2,2,B|280:272|176:336|120:248,1,210
56,208,103551,2,0,B|32:272|72:328,1,105,0|2,0:0|0:0,0:0:0:0:
136,352,103841,2,0,B|184:384|248:352,1,105,0|2,0:0|0:0,0:0:0:0:
296,304,104132,1,0,0:0:0:0:
376,328,104277,1,2,0:0:0:0:
456,312,104422,2,2,B|528:272|536:184|480:136,1,210,2|0,0:0|0:0,0:0:0:0:
440,64,104859,6,0,B|384:96|328:80,1,105,4|0,0:0|0:0,0:0:0:0:
264,112,105149,2,0,B|224:72|168:88,1,105,8|2,0:0|0:0,0:0:0:0:
128,160,105440,2,0,B|160:248|80:304|-8:240,1,210,0|10,0:0|0:0,0:0:0:0:
16,336,105876,1,0,0:0:0:0:
96,360,106022,2,0,B|208:392,1,105,4|0,0:0|0:0,0:0:0:0:
200,304,106312,2,0,B|304:336,1,105,8|2,0:0|0:0,0:0:0:0:
384,360,106603,2,0,B|352:272|432:208|512:256,1,210,0|10,0:0|0:0,0:0:0:0:
504,168,107039,69,0,0:0:0:0:
456,96,107195,2,0,B|416:136|360:120,1,105,4|0,0:0|0:0,0:0:0:0:
272,120,107485,1,8,0:0:0:0:
208,168,107631,1,2,0:0:0:0:
128,152,107776,2,0,B|120:240|0:240|8:328,1,210,4|2,0:0|0:0,0:0:0:0:
80,368,108212,2,0,P|128:336|176:344,1,105
248,352,108468,2,2,B|344:368|344:368|352:312|432:296,1,210,2|0,0:0|0:0,0:0:0:0:
480,232,108904,1,0,0:0:0:0:
504,152,109049,1,2,0:0:0:0:
424,128,109195,2,0,B|368:104|352:40,1,105,8|0,0:0|0:0,0:0:0:0:
272,24,109486,6,0,B|216:40|216:40|200:96,1,105,8|0,0:0|0:0,0:0:0:0:
136,144,109776,2,0,B|192:160|192:160|208:216,1,105,12|0,0:0|0:0,0:0:0:0:
208,288,110067,2,0,B|264:272|264:272|280:216,1,105,8|0,0:0|0:0,0:0:0:0:
344,168,110358,2,0,B|288:152|288:152|272:96,1,105,12|0,0:0|0:0,0:0:0:0:
345,288,110649,70,0,B|332:243|332:243|276:227,1,105,8|0,0:0|0:0,0:0:0:0:
344,168,110939,2,0,B|356:123|356:123|412:107,1,105,12|0,0:0|0:0,0:0:0:0:
416,190,111230,2,0,B|428:234|428:234|484:250,1,105,8|0,0:0|0:0,0:0:0:0:
417,310,111521,2,0,B|404:354|404:354|348:370,1,105,12|0,0:0|0:0,0:0:0:0:
264,368,111822,6,0,B|176:376|112:312|112:248,1,210,0|2,0:0|0:0,0:0:0:0:
96,176,112258,2,0,B|72:112|16:104,1,105
32,24,112548,1,8,0:0:0:0:
112,48,112694,1,0,0:0:0:0:
192,32,112839,1,0,0:0:0:0:
272,56,112985,1,2,0:0:0:0:
272,56,113130,2,0,B|240:112|264:184|352:200|408:152,1,210,4|8,0:0|0:0,0:0:0:0:
464,192,113566,2,0,B|488:248|464:296,1,105,0|8,0:0|0:0,0:0:0:0:
408,352,113857,2,0,B|376:304|400:248,1,105
312,240,114148,70,0,B|112:344,1,210,4|8,0:0|0:0,0:0:0:0:
48,304,114593,2,0,B|8:264|32:200,1,105
88,144,114884,2,0,B|109:86|69:46,2,105,8|0|0,0:0|0:0|0:0,0:0:0:0:
144,208,115320,2,0,B|344:312,1,210,4|8,0:0|0:0,0:0:0:0:
408,272,115756,2,0,B|448:232|424:168,1,105
368,112,116047,2,0,B|346:54|386:14,2,105,8|0|0,0:0|0:0|0:0,0:0:0:0:
304,168,116483,6,0,B|248:200|192:152,1,105
120,120,116774,2,0,B|56:128|32:192,1,105,8|0,0:0|0:0,0:0:0:0:
8,264,117065,2,0,B|16:352|104:376|176:344,1,210,4|8,0:0|0:0,0:0:0:0:
264,360,117502,1,0,0:0:0:0:
360,344,117647,2,0,B|384:288|440:280,1,105,0|8,0:0|0:0,0:0:0:0:
496,200,117938,2,0,B|464:152|496:96,1,105,0|2,0:0|0:0,0:0:0:0:
312,48,118375,1,2,0:0:0:0:
224,72,118520,1,12,0:0:0:0:
136,104,118666,1,0,0:0:0:0:
48,144,118811,69,2,0:0:0:0:
48,144,118957,2,2,B|0:232|88:312|184:232,1,210
232,296,119393,2,0,B|272:256|328:264,1,105,0|2,0:0|0:0,0:0:0:0:
408,312,119684,2,0,B|464:320|504:272,1,105,8|0,0:0|0:0,0:0:0:0:
480,184,119975,1,2,0:0:0:0:
480,184,120121,2,2,B|528:96|440:16|344:96,1,210
296,32,120557,2,0,B|256:72|200:64,1,105,0|2,0:0|0:0,0:0:0:0:
120,16,120848,2,0,B|64:8|24:56,1,105,8|0,0:0|0:0,0:0:0:0:
40,144,121149,6,0,B|112:136|176:216|152:288,1,210,0|8,0:0|0:0,0:0:0:0:
216,360,121585,2,0,B|256:320|320:320,1,105
408,320,121876,2,0,B|376:256|416:216,2,105,8|0|0,0:0|0:0|0:0,0:0:0:0:
472,248,122312,2,2,B|520:144|392:160|456:56,1,210,2|0,0:0|0:0,0:0:0:0:
360,40,122749,2,0,B|304:32|256:56,1,105,2|0,0:0|0:0,0:0:0:0:
160,64,123040,1,2,0:0:0:0:
88,120,123185,1,8,0:0:0:0:
176,160,123331,1,0,0:0:0:0:
256,192,123476,12,4,125804,0:0:0:0:
448,24,134938,6,0,B|416:80|456:128,1,105,4|0,0:0|0:0,0:0:0:0:
400,200,135230,2,0,B|400:144|352:112,1,105,8|0,0:0|0:0,0:0:0:0:
264,64,135523,1,4,0:0:0:0:
168,80,135669,1,0,0:0:0:0:
128,168,135816,1,8,0:0:0:0:
40,192,135962,1,0,0:0:0:0:
32,288,136108,6,0,B|88:280|136:320,1,105,4|0,0:0|0:0,0:0:0:0:
216,352,136401,2,0,B|258:316|314:324,1,105,8|0,0:0|0:0,0:0:0:0:
408,320,136694,1,4,0:0:0:0:
408,320,136840,1,0,0:0:0:0:
464,240,136986,1,8,0:0:0:0:
464,240,137133,1,0,0:0:0:0:
432,152,137279,6,0,B|392:192|336:200,1,105,4|0,0:0|0:0,0:0:0:0:
280,128,137572,1,8,0:0:0:0:
184,96,137718,1,0,0:0:0:0:
88,112,137864,2,0,B|128:152|104:216,1,105,4|0,0:0|0:0,0:0:0:0:
56,288,138157,1,8,0:0:0:0:
144,328,138303,1,0,0:0:0:0:
232,360,138450,6,0,B|312:272,1,105,4|0,0:0|0:0,0:0:0:0:
280,192,138742,2,0,B|200:280,1,105,8|0,0:0|0:0,0:0:0:0:
176,184,139035,2,0,B|256:96,1,105,4|0,0:0|0:0,0:0:0:0:
224,16,139328,2,0,B|144:104,1,105,8|0,0:0|0:0,0:0:0:0:
72,48,139620,37,4,0:0:0:0:
16,144,139767,1,4,0:0:0:0:
32,240,139913,2,0,B|88:240|112:296,1,105,8|0,0:0|0:0,0:0:0:0:
184,360,140206,1,4,0:0:0:0:
280,344,140352,1,0,0:0:0:0:
352,280,140498,2,0,B|384:232|440:232,1,105,8|0,0:0|0:0,0:0:0:0:
440,136,140791,6,4,B|384:144|344:96,1,105
272,40,141084,1,8,0:0:0:0:
192,88,141230,2,0,B|144:56|80:80,1,105,0|4,0:0|0:0,0:0:0:0:
40,152,141523,1,0,0:0:0:0:
40,248,141669,1,8,0:0:0:0:
120,200,141816,1,0,0:0:0:0:
256,192,141962,12,12,144318,0:0:0:0:
32,296,146616,38,2,B|72:360|144:360|200:312|200:256,1,210
160,200,147050,1,0,0:0:0:0:
128,120,147195,1,2,0:0:0:0:
128,120,147485,1,2,0:0:0:0:
480,88,147775,6,2,B|440:24|368:24|312:72|312:128,1,210
352,184,148210,1,0,0:0:0:0:
384,264,148355,1,2,0:0:0:0:
384,264,148644,1,2,0:0:0:0:
144,24,148934,70,2,B|64:48|64:48|72:136|8:168,1,210
40,256,149369,1,0,0:0:0:0:
112,200,149514,1,2,0:0:0:0:
112,200,149804,1,2,0:0:0:0:
368,360,150094,6,2,B|448:336|448:336|440:248|504:216,1,210
472,128,150529,1,0,0:0:0:0:
400,184,150673,1,2,0:0:0:0:
400,184,150963,1,2,0:0:0:0:
256,192,151253,12,12,153282,0:0:0:0:
400,352,153587,70,0,B|344:296|360:200|456:176,1,210,6|2,0:0|0:0,0:0:0:0:
472,104,154023,1,0,0:0:0:0:
400,56,154169,1,2,0:0:0:0:
320,48,154315,2,0,B|296:104|248:128,1,105,0|2,0:0|0:0,0:0:0:0:
168,104,154606,2,0,B|136:48|56:48,2,105,0|2|0,0:0|0:0|0:0,0:0:0:0:
192,184,155043,2,2,B|256:240|248:328|168:376,1,210
104,352,155480,2,2,B|40:296|48:208|128:160,1,210,2|0,0:0|0:0,0:0:0:0:
64,104,155922,5,6,0:0:0:0:
128,48,156067,1,0,0:0:0:0:
200,88,156213,1,10,0:0:0:0:
272,40,156358,1,0,0:0:0:0:
280,120,156504,69,6,0:0:0:0:
344,176,156650,1,0,0:0:0:0:
416,136,156795,1,10,0:0:0:0:
488,184,156941,1,0,0:0:0:0:
448,256,157087,6,0,B|408:304|352:320,1,105,2|0,0:0|0:0,0:0:0:0:
280,320,157378,2,0,B|232:272|184:280,1,105,2|0,0:0|0:0,0:0:0:0:
112,320,157669,1,2,0:0:0:0:
64,96,157960,1,6,0:0:0:0:
288,160,158252,1,2,0:0:0:0:
392,32,158553,70,0,B|376:80|416:136,1,105,2|0,0:0|0:0,0:0:0:0:
480,184,158844,2,2,B|512:232|504:304|432:352|368:320,1,210
312,344,159281,1,0,0:0:0:0:
240,304,159426,1,2,0:0:0:0:
160,328,159571,2,0,B|104:336|48:304,1,105,0|2,0:0|0:0,0:0:0:0:
56,224,159862,2,0,B|112:232|160:200,1,105,0|2,0:0|0:0,0:0:0:0:
176,120,160154,1,0,0:0:0:0:
192,40,160299,1,10,0:0:0:0:
264,88,160445,1,0,0:0:0:0:
336,48,160606,6,2,B|400:48|464:96|480:184,1,210
432,248,161042,1,0,0:0:0:0:
352,224,161183,1,2,0:0:0:0:
296,288,161330,1,0,0:0:0:0:
216,264,161478,1,2,0:0:0:0:
160,328,161626,1,0,0:0:0:0:
256,192,161794,12,4,163490,0:0:0:0:
