osu file format v12

[General]
AudioFilename: 02-I Bet You Look Good On The Dancefloor.mp3
AudioLeadIn: 0
PreviewTime: 46817
Countdown: 0
SampleSet: Normal
StackLeniency: 0.7
Mode: 0
LetterboxInBreaks: 0
WidescreenStoryboard: 0

[Editor]
Bookmarks: 27730,155344
DistanceSpacing: 0.9
BeatDivisor: 4
GridSize: 8

[Metadata]
Title:I Bet You Look Good on the Dancefloor
TitleUnicode:I Bet You Look Good on the Dancefloor
Artist:Arctic Monkeys
ArtistUnicode:Arctic Monkeys
Creator:Mashley
Version:Easy
Source:
Tags:gonzvlo
BeatmapID:126530
BeatmapSetID:39217

[Difficulty]
HPDrainRate:2
CircleSize:3
OverallDifficulty:2
ApproachRate:3
SliderMultiplier:0.9
SliderTickRate:2

[Events]
//Background and Video events
0,0,"untitled.jpg",0,0
//Break Periods
2,65425,73131
2,126003,133498
//Storyboard Layer 0 (Background)
//Storyboard Layer 1 (Fail)
//Storyboard Layer 2 (Pass)
//Storyboard Layer 3 (Foreground)
//Storyboard Sound Samples
//Background Colour Transformations
3,100,0,0,0

[TimingPoints]
18671,289.156626506024,4,1,0,51,1,0
27943,290.556900726392,4,1,0,51,1,0
35768,290.556900726392,4,1,0,51,1,0
36058,290.556900726392,4,1,0,51,1,0
39850,291.26213592233,4,1,0,51,1,0
41316,291.26213592233,4,1,0,51,1,0
41898,291.26213592233,4,1,0,51,1,0
45990,291.26213592233,4,1,0,51,1,0
46266,291.26213592233,4,1,0,51,1,0
46580,290.768112430337,4,1,0,51,1,1
55739,-100,4,1,0,51,0,0
55920,291.26213592233,4,1,0,51,1,1
65225,290.556900726392,4,1,0,51,1,0
67549,290.768112430337,4,1,0,51,1,0
74571,289.855072463768,4,1,0,51,1,0
86193,290.556900726392,4,1,0,51,1,0
91703,290.556900726392,4,1,0,51,1,0
92584,290.556900726392,4,1,0,51,1,0
93193,290.768112430337,4,1,0,51,1,1
94656,290.768112430337,4,1,0,51,1,1
95247,290.768112430337,4,1,0,51,1,1
95537,290.768112430337,4,1,0,51,1,1
97580,290.768112430337,4,1,0,51,1,1
97870,290.768112430337,4,1,0,51,1,1
100768,290.768112430337,4,1,0,51,1,1
101349,290.768112430337,4,1,0,51,1,1
102366,-100,4,1,0,51,0,0
102514,290.768112430337,4,1,0,51,1,1
103406,290.768112430337,4,1,0,51,1,1
103696,290.768112430337,4,1,0,51,1,1
107195,290.768112430337,4,1,0,51,1,1
108323,290.768112430337,4,1,0,51,1,1
111822,290.768112430337,4,1,0,51,1,1
114448,290.768112430337,4,1,0,51,1,1
115320,290.9796314258,4,1,0,51,1,1
121149,290.9796314258,4,1,0,51,1,1
125804,285.714285714286,4,1,0,51,1,0
134938,292.682926829268,4,1,0,51,1,0
143123,300,4,1,0,51,1,0
144318,292.682926829268,4,1,0,51,1,0
146616,289.855072463768,4,1,0,51,1,1
153427,-100,4,1,0,51,0,0
153587,291.26213592233,4,1,0,51,1,1
155922,291.26213592233,4,1,0,51,1,1
158553,291.26213592233,4,1,0,51,1,1
159426,291.26213592233,4,1,0,51,1,1
160606,291.26213592233,4,1,0,51,1,1
161183,295.566502463054,4,1,0,51,1,1
161794,295.566502463054,4,1,0,51,1,0
163490,295.566502463054,4,1,0,51,1,0

[Colours]
Combo1 : 255,204,244
Combo2 : 74,147,227
Combo3 : 120,73,171
Combo4 : 99,184,95
Combo5 : 190,65,118
Combo6 : 181,248,253

[HitObjects]
0,192,27943,6,2,B|-32:264|16:336|128:352|160:256,1,270,6|8,0:0|0:0,0:0:0:0:
176,192,29105,2,0,B|192:120|136:56|48:64,2,180,0|8|0,0:0|0:0|0:0,0:0:0:0:
288,312,30848,1,8,0:0:0:0:
448,344,31429,1,0,0:0:0:0:
392,192,32010,1,12,0:0:0:0:
352,32,32591,6,2,B|288:104|176:96,1,180,2|8,0:0|0:0,0:0:0:0:
32,104,33754,2,0,B|0:208|40:280|152:288|200:240,1,270,4|0,0:0|0:0,0:0:0:0:
240,296,34916,1,2,0:0:0:0:
392,344,35497,1,8,0:0:0:0:
496,216,36058,1,4,0:0:0:0:
344,168,36639,1,8,0:0:0:0:
232,56,37220,5,0,0:0:0:0:
232,56,37801,2,2,B|240:136|192:184|112:176,1,180
24,296,38963,1,8,0:0:0:0:
168,376,39544,5,4,0:0:0:0:
168,376,40141,2,2,B|160:296|208:248|288:256,1,180
416,328,41316,1,8,0:0:0:0:
472,176,41898,38,2,B|504:120|464:32|392:24,1,180,2|8,0:0|0:0,0:0:0:0:
296,144,43063,1,0,0:0:0:0:
136,112,43645,1,4,0:0:0:0:
256,192,43936,12,4,45393,0:0:0:0:
288,96,46580,54,8,B|336:-8|480:-16|544:112|504:216,1,360,4|8,0:0|0:0,0:0:0:0:
392,288,48324,1,2,0:0:0:0:
224,288,48906,6,8,B|176:392|32:400|-32:272|8:168,1,360,4|8,0:0|0:0,0:0:0:0:
152,144,50650,1,2,0:0:0:0:
296,72,51232,70,0,B|352:88|384:160|360:232,1,180,4|8,0:0|0:0,0:0:0:0:
232,320,52395,2,0,B|176:304|144:232|168:160,1,180,4|2,0:0|0:0,0:0:0:0:
256,192,53267,12,4,54721,0:0:0:0:
392,40,55920,6,0,B|456:24|512:72|504:152,1,180,0|8,0:0|0:0,0:0:0:0:
504,224,56793,1,0,0:0:0:0:
504,224,57085,2,0,B|472:296|384:296|416:168|328:168|288:240,1,270
256,312,58250,1,8,0:0:0:0:
256,312,58832,1,6,0:0:0:0:
96,344,59415,70,8,B|8:328|0:240|56:184,1,180,0|8,0:0|0:0,0:0:0:0:
56,48,60580,1,4,0:0:0:0:
184,144,61162,1,8,0:0:0:0:
344,160,61745,2,0,B|400:200|464:176|488:104,2,180,0|8|4,0:0|0:0|0:0,0:0:0:0:
256,192,63055,12,4,65225,0:0:0:0:
336,16,74571,22,0,B|432:-16|504:32|512:128|464:208|368:192,1,360,0|4,0:0|0:0,0:0:0:0:
288,328,76310,1,8,0:0:0:0:
128,296,76889,2,0,B|152:184|48:128,1,180,0|2,0:0|0:0,0:0:0:0:
184,24,78049,1,8,0:0:0:0:
240,176,78628,1,4,0:0:0:0:
256,336,79208,6,0,B|312:376|384:328|376:256,1,180,0|8,0:0|0:0,0:0:0:0:
512,168,80368,1,4,0:0:0:0:
368,88,80947,1,8,0:0:0:0:
224,16,81527,2,2,B|224:120|120:144,1,180,2|8,0:0|0:0,0:0:0:0:
32,280,82686,1,4,0:0:0:0:
104,320,82976,2,0,B|144:344|144:344|192:320,1,90,0|8,0:0|0:0,0:0:0:0:
360,352,83846,5,4,0:0:0:0:
360,352,84426,2,2,B|352:272|400:224|480:232,1,180
496,72,85585,1,8,0:0:0:0:
344,8,86193,5,4,0:0:0:0:
344,8,86774,2,2,B|352:88|304:136|224:128,1,180
96,56,87936,1,8,0:0:0:0:
40,208,88517,38,2,B|8:264|48:352|120:360,1,180,2|8,0:0|0:0,0:0:0:0:
216,240,89679,1,0,0:0:0:0:
376,272,90260,1,4,0:0:0:0:
256,192,90551,12,4,91993,0:0:0:0:
224,288,93193,54,8,B|176:392|32:400|-32:272|8:168,1,360,4|8,0:0|0:0,0:0:0:0:
120,96,94946,1,2,0:0:0:0:
288,96,95537,6,8,B|336:-8|480:-16|544:112|504:216,1,360,4|8,0:0|0:0,0:0:0:0:
360,240,97281,1,2,0:0:0:0:
216,312,97870,70,0,B|160:296|128:224|152:152,1,180,4|8,0:0|0:0,0:0:0:0:
280,64,99033,2,0,B|336:80|368:152|344:224,1,180,4|2,0:0|0:0,0:0:0:0:
256,192,99905,12,4,101349,0:0:0:0:
120,344,102514,6,0,B|56:360|0:312|8:232,1,180,0|8,0:0|0:0,0:0:0:0:
8,160,103406,1,0,0:0:0:0:
8,160,103696,2,0,B|40:88|128:88|96:216|184:216|224:144,1,270
256,72,104859,1,8,0:0:0:0:
256,72,105440,1,6,0:0:0:0:
416,40,106022,70,8,B|504:56|512:144|456:200,1,180,0|8,0:0|0:0,0:0:0:0:
456,336,107195,1,4,0:0:0:0:
328,240,107776,1,8,0:0:0:0:
168,224,108323,2,0,B|112:184|48:208|24:280,2,180,0|8|4,0:0|0:0|0:0,0:0:0:0:
256,192,109631,12,4,111822,0:0:0:0:
336,336,112985,6,0,B|400:384|512:352|528:248|536:176|456:104,1,360,0|4,0:0|0:0,0:0:0:0:
344,32,114738,1,8,0:0:0:0:
264,176,115320,1,4,0:0:0:0:
136,72,115901,1,8,0:0:0:0:
40,200,116483,70,2,B|16:296|96:368,1,180
216,256,117647,1,2,0:0:0:0:
368,304,118229,1,2,0:0:0:0:
480,184,118811,6,0,B|400:136|416:48|464:16,1,180,4|8,0:0|0:0,0:0:0:0:
288,16,119975,1,0,0:0:0:0:
216,160,120557,1,8,0:0:0:0:
64,216,121149,70,0,B|32:320|144:368,2,180,0|8|4,0:0|0:0|0:0,0:0:0:0:
88,136,122603,1,0,0:0:0:0:
112,56,122894,1,8,0:0:0:0:
264,40,123476,2,2,B|352:-8|456:0|520:80|512:200,2,360,2|2|12,0:0|0:0|0:0,0:0:0:0:
352,32,134938,22,0,B|448:16|496:120,2,180,0|8|0,0:0|0:0|0:0,0:0:0:0:
264,168,136694,1,8,0:0:0:0:
120,104,137279,5,0,0:0:0:0:
32,240,137864,1,8,0:0:0:0:
168,336,138450,2,0,B|248:280|344:328,1,180,0|8,0:0|0:0,0:0:0:0:
472,232,139620,5,0,0:0:0:0:
488,72,140206,1,8,0:0:0:0:
328,48,140791,1,0,0:0:0:0:
304,208,141377,1,8,0:0:0:0:
256,192,141962,12,4,144318,0:0:0:0:
288,288,146616,38,8,B|336:392|480:400|544:272|504:168,1,360,4|8,0:0|0:0,0:0:0:0:
384,104,148355,1,2,0:0:0:0:
248,200,148934,70,0,B|268:139|236:67|180:51,1,180,4|2,0:0|0:0,0:0:0:0:
49,150,150094,2,0,B|28:210|60:282|116:298,1,180,4|8,0:0|0:0,0:0:0:0:
256,192,150963,12,4,152413,0:0:0:0:
392,344,153587,6,0,B|456:360|512:312|504:232,1,180,0|8,0:0|0:0,0:0:0:0:
504,160,154460,1,0,0:0:0:0:
504,160,154752,2,0,B|472:88|384:88|416:216|328:216|288:144,1,270
256,72,155922,1,8,0:0:0:0:
256,72,156504,1,6,0:0:0:0:
96,40,157087,70,8,B|8:56|0:144|56:200,1,180,0|8,0:0|0:0,0:0:0:0:
56,336,158252,1,4,0:0:0:0:
184,240,158844,1,8,0:0:0:0:
344,224,159426,2,0,B|400:184|464:208|488:280,2,180,0|8|4,0:0|0:0|0:0,0:0:0:0:
256,192,160751,12,4,163490,0:0:0:0:
