osu file format v9

[General]
AudioFilename: DT.mp3
AudioLeadIn: 0
PreviewTime: 74040
Countdown: 0
SampleSet: Normal
StackLeniency: 0.5
Mode: 0
LetterboxInBreaks: 1

[Editor]
Bookmarks: 7349,116181,133257,133619,145062,160504,163045
DistanceSpacing: 0.6
BeatDivisor: 4
GridSize: 4

[Metadata]
Title:Brianstorm
Artist:Arctic Monkeys
Creator:Gonzvlo
Version:Tough
Source:
Tags:RandomJibberish Favourite Worst Nightmare Brainstorm

[Difficulty]
HPDrainRate:7
CircleSize:4
OverallDifficulty:8
ApproachRate:8
SliderMultiplier:2.6
SliderTickRate:2

[Events]
//Background and Video events
0,0,"BG.jpg"
Video,0,"Arctic Monkeys - Brianstorm (HD)_OriginalFLV.avi"
//Break Periods
2,64100,71142
2,133838,144487
//Storyboard Layer 0 (Background)
//Storyboard Layer 1 (Fail)
//Storyboard Layer 2 (Pass)
//Storyboard Layer 3 (Foreground)
//Storyboard Sound Samples
//Background Colour Transformations
3,100,163,162,255

[TimingPoints]
2858,363.284088156939,4,1,0,70,1,0
27360,-100,4,2,1,80,0,0
28541,-100,4,1,1,80,0,0
40618,363.284088156939,4,1,0,70,1,0
43545,363.284088156939,4,1,0,70,1,0
49372,363.284088156939,4,1,0,70,1,0
56614,363.284088156939,4,1,0,70,1,0
58088,363.284088156939,4,1,0,70,1,0
71770,-100,4,2,1,80,0,0
75402,-100,4,1,1,80,0,0
75502,363.284088156939,4,1,0,70,1,0
81328,363.284088156939,4,1,0,70,1,0
100236,363.284088156939,4,1,0,70,1,0
103837,363.284088156939,4,1,0,70,1,0
104543,363.284088156939,4,1,0,70,1,0
107495,363.284088156939,4,1,0,70,1,0
113276,363.284088156939,4,1,0,70,1,0
122014,363.284088156939,4,1,0,70,1,0
133643,363.284088156939,4,1,0,70,1,0
139425,361.44578313253,4,1,0,70,1,0
145237,363.284088156939,4,1,0,70,1,1
146425,-100,4,1,1,80,0,1
156680,-100,4,1,1,80,0,0
159321,-100,4,1,1,100,0,0
159777,-100,4,2,1,100,0,0
165444,-100,4,1,1,100,0,0
169758,-83.3333333333333,4,1,1,100,0,0
169940,-83.3333333333333,4,1,1,90,0,0
169985,-83.3333333333333,4,2,1,100,0,0
170303,-83.3333333333333,4,1,1,90,0,0
170349,-83.3333333333333,4,2,1,100,0,0
170666,-83.3333333333333,4,1,1,90,0,0
170712,-83.3333333333333,4,2,1,100,0,0
171030,-83.3333333333333,4,1,1,90,0,0
171075,-83.3333333333333,4,2,1,100,0,0
171393,-83.3333333333333,4,1,1,100,0,0

[Colours]
Combo1 : 143,228,16
Combo2 : 48,108,250
Combo3 : 245,5,23
SliderBorder : 30,30,30

[HitObjects]
256,192,26108,1,4
256,192,27561,12,8,28651
368,292,29014,6,0,B|328:348|256:364|184:348|144:292,1,260,4|8
200,240,29559,2,0,B|224:268|256:276|288:268|312:240,1,130
464,204,30104,1,8
448,48,30467,2,0,B|264:176,1,195,4|0
300,44,31012,2,0,B|188:128,1,130
80,320,31739,5,0
16,264,31920,2,0,B|72:212|164:240|188:332|132:388,1,260,4|8
220,384,32465,2,0,B|240:344|236:300|216:256,1,130
96,156,33010,1,8
184,28,33373,2,0,B|236:40|256:88|256:88|276:40|328:28,1,195,4|0
312,144,33918,2,0,B|256:176|256:176|200:144,1,130
88,352,34645,5,0
144,292,34826,2,0,B|184:348|256:364|328:348|368:292,1,260,4|8
312,240,35371,2,0,B|288:268|256:276|224:268|200:240,1,130
48,204,35916,1,8
64,48,36279,2,0,B|248:176,1,195,4|0
212,44,36824,2,0,B|324:128,1,130
436,320,37551,5,0
496,264,37733,2,0,B|440:212|348:240|324:332|380:388,1,260,4|8
292,384,38278,2,0,B|272:344|276:300|296:256,1,130
120,208,38823,1,8
184,40,39186,2,0,B|236:52|256:100|256:100|276:52|328:40,1,195,4|0
312,156,39731,2,0,B|256:188|256:188|200:156,1,130
128,360,40618,6,0,B|256:340|256:340|384:360,1,260,0|8
424,292,41162,2,0,B|292:268,1,130
216,268,41526,2,0,B|89:291,1,130,0|8
148,148,42071,5,8
256,104,42343,1,8
364,148,42616,1,8
308,212,42797,2,0,B|296:180|256:172|216:180|204:212,1,130
256,272,43160,1,8
308,332,43342,2,0,B|296:364|256:372|216:364|204:332,1,130,0|4
129,307,43726,6,0,B|128:275|143:242|172:219|202:212,1,130,0|8
308,212,44089,2,0,B|339:219|368:242|383:275|383:307,1,130
256,260,44634,1,8
256,164,44816,1,0
332,104,44998,2,0,B|312:52|256:40|200:52|180:104,2,195
332,104,45724,1,0
184,192,46087,6,0,B|188:260|256:292|256:292|324:260|328:192,1,260,8|4
460,276,46814,1,8
412,340,46996,1,0
336,328,47177,1,0
176,328,47541,1,8
100,340,47723,1,0
52,276,47904,1,4
84,144,48176,5,0
196,180,48449,2,0,B|220:200|256:208|292:200|316:180,1,130
428,144,48994,1,8
432,68,49175,1,0
364,100,49372,2,0,B|336:44|256:12|176:44|148:100,1,260,4|8
208,148,49916,2,0,B|216:112|256:100|296:112|304:148,1,130
364,292,50461,2,0,B|336:348|256:380|176:348|148:292,1,260,8|0
256,244,51097,5,0
304,136,51370,2,0,B|296:100|256:88|216:100|208:136,1,130
216,304,51914,1,8
292,304,52096,1,0
372,304,52278,2,0,B|364:208|284:232|256:156|256:156|228:232|148:208|140:304,1,390,4|0
64,316,53004,1,0
44,160,53368,1,8
172,68,53731,6,0,B|192:40|244:40|256:64|280:96|320:96|352:72,2,195,4|0|0
208,136,54457,1,0
316,248,54821,5,8
372,300,55002,1,0
436,256,55184,2,0,B|376:200|360:188|360:188|376:176|392:164|408:152|408:152|392:140|332:88,2,260,4|8|0
296,324,56274,1,8
332,172,56614,2,0,B|312:120|256:100|200:120|180:172,1,195
124,68,57158,2,0,B|135:111|103:155|55:159,1,130
196,248,57703,5,8
140,300,57885,1,0
76,256,58088,2,0,B|136:200|152:188|152:188|136:176|120:164|104:152|104:152|120:140|180:88,2,260,4|8|4
216,324,59177,1,8
196,248,59359,1,0
180,172,59541,2,0,B|200:120|256:100|312:120|332:172,1,195,4|0
388,68,60086,2,0,B|376:111|408:155|456:159,1,130,0|4
296,184,60630,5,8
216,184,60812,1,0
136,184,60994,2,0,B|144:284|360:320|256:364|256:364|152:320|368:284|376:184,1,520,4|0
256,36,62265,5,0
164,40,62447,2,0,B|196:108|256:128|256:128|316:108|348:40,2,260,0|8|0
256,36,63355,2,0,B|256:296,1,260
256,296,63900,1,4
84,336,71892,6,0,B|44:276,7,65,2|0|2|0|2|0|2|0
80,256,72619,6,0,B|40:196,7,65,2|0|2|0|2|0|2|0
76,176,73345,6,0,B|36:116,8,65,0|0|2|0|0|0|2|0|0
124,36,74254,6,0,B|256:36|388:36,1,260,2|0
452,116,74799,1,0
380,192,74980,6,0,B|312:236|256:192|200:148|132:192,1,260,2|0
60,268,75502,1,4
124,348,75683,6,0,B|256:348|388:348,1,260,0|0
452,268,76228,1,0
256,256,76591,5,8
168,136,76955,2,0,B|172:60|256:28|340:60|344:136,1,260,0|8
256,176,77500,1,0
256,176,77590,1,0
256,176,77681,1,0
256,256,77863,1,0
332,272,78044,6,0,B|336:324|300:368|256:380|212:368|176:324|180:272,2,260,8|4|8
256,256,78953,2,0,B|256:120,1,130
256,126,79498,1,8
172,248,79861,6,0,B|204:272|240:260|240:260|256:252|256:252|256:268|256:268|272:260|272:260|308:272|340:248,1,195
356,212,80224,2,0,B|296:96,1,130,8|0
215,96,80587,2,0,B|156:212,1,130
256,216,80951,1,0
312,272,81132,6,0,B|292:300|256:308|220:300|200:272,1,130,0|4
88,164,81691,1,8
36,107,81872,2,0,B|8:128|0:164|8:200|36:220,1,130,0|4
144,308,82417,5,8
200,256,82599,2,0,B|220:228|256:220|292:228|312:256,1,130,0|4
256,308,82962,1,0
200,360,83144,2,0,B|220:388|256:396|292:388|312:360,1,130,8|4
368,308,83507,1,4
424,164,83870,5,8
475,107,84052,2,0,B|504:128|512:164|504:200|476:220,1,130,0|4
324,192,84597,5,8
264,140,84779,1,0
272,64,84960,1,4
188,192,85324,1,8
248,244,85505,1,0
240,320,85687,1,4
372,36,86413,6,0,B|276:-76|256:160|236:-76|140:36,2,260,0|8|4
368,192,87503,2,0,B|328:248|256:264|180:248|144:192,1,260,8|0
368,192,88230,1,8
384,344,88593,6,0,B|256:368|256:368|128:344,1,260,0|8
128,344,89138,2,0,B|144:276|208:248,1,130
303,247,89501,2,0,B|368:276|384:344,1,130,0|8
448,240,89865,1,0
364,176,90046,6,0,B|352:128|248:128|256:176|264:224|164:224|148:176,2,260,4|8|0
332,356,91136,1,8
180,356,91499,1,0
256,264,91772,1,0
336,196,92044,2,0,B|348:244|384:264|436:256,2,130
296,132,92589,1,8
216,132,92771,1,0
176,196,92953,2,0,B|164:244|128:264|76:256,2,130,0|0|8
256,200,93498,6,0,B|256:328,1,130
176,196,94042,2,0,B|192:128|256:100|256:100|320:128|336:196,1,260,8|4
388,52,94769,5,8
372,128,94951,1,0
336,196,95132,1,0
176,196,95496,1,8
140,128,95677,1,0
124,52,95859,1,0
256,36,96131,1,0
308,140,96404,2,0,B|256:180|256:180|204:140,1,130
92,248,96949,1,8
108,328,97130,5,0
184,352,97312,2,0,B|184:300|256:249|256:249|328:300|328:352,1,260,0|8
404,340,97857,2,0,B|396:272|344:228,1,130
328,32,98402,2,0,B|328:84|256:135|256:135|184:84|184:32,1,260,8|4
48,100,99038,1,0
108,44,99310,2,0,B|116:112|168:156,1,130,0|0
216,304,99855,5,8
296,304,100037,1,0
352,244,100236,2,0,B|320:204|232:196|212:152|256:116|256:116|300:152|280:196|192:204|160:244,1,390
160,244,100962,1,0
256,40,101325,1,8
180,196,101689,6,0,B|160:224|108:224|96:200|72:168|32:168|0:192,2,195
179,196,102415,1,0
256,60,102778,1,8
332,196,103142,6,0,B|352:224|404:224|416:200|440:168|480:168|512:202,2,195
332,196,103837,1,0
256,332,104200,1,8
180,196,104543,6,0,B|180:148|200:104|256:84|312:104|332:148|332:196,1,260,4|8
320,272,105087,2,0,B|256:300|192:272,2,130,0|0|0
296,196,105632,5,8
216,196,105814,1,0
140,220,105996,2,0,B|88:178|84:62|180:64|192:18|192:18|196:-8,1,260,0|8
256,52,106541,1,0
317,0,106722,2,0,B|320:18|320:18|332:64|428:62|424:178|372:220,1,260,0|8
256,192,107495,12,8,110037
48,152,110401,5,0
100,92,110582,1,0
176,108,110764,1,0
228,164,110946,1,0
284,220,111127,1,0
336,276,111309,1,0
412,292,111491,1,0
464,232,111672,1,0
464,152,111854,5,0
412,92,112036,1,0
336,108,112217,1,0
284,164,112399,1,0
228,220,112580,1,0
176,276,112762,1,0
100,292,112944,1,0
48,232,113125,1,0
72,156,113276,5,4
108,44,113548,1,0
196,120,113820,2,0,B|220:140|256:148|292:140|316:120,1,130
404,44,114275,1,0
432,156,114547,2,0,B|424:220|424:220|364:252,1,130,0|4
256,212,115001,1,0
145,250,115274,2,0,B|88:220|88:220|80:156,1,130
196,136,115728,1,0
316,136,116000,1,0
384,176,116182,5,4
384,252,116363,1,0
360,324,116545,1,0
296,368,116727,1,0
216,368,116908,1,0
152,324,117090,1,0
128,252,117272,1,0
128,176,117453,1,0
164,104,117635,5,0
212,40,117817,1,0
256,104,117998,1,0
300,40,118180,1,0
348,104,118361,1,0
300,168,118543,1,0
256,232,118725,1,0
212,168,118906,1,0
184,256,119088,5,4
56,256,119361,1,0
120,344,119633,1,0
120,344,119815,1,0
256,344,120087,1,0
392,344,120360,1,0
392,344,120541,1,0
328,256,120814,1,0
456,256,121086,1,0
456,256,121268,1,0
392,160,121540,1,0
296,88,121813,1,0
216,88,122014,5,4
120,160,122286,1,0
216,232,122558,1,0
216,232,122740,1,8
256,344,123013,1,0
296,232,123285,1,0
296,232,123467,1,4
392,160,123739,1,0
320,64,124012,5,0
320,64,124193,1,8
192,64,124466,1,0
296,144,124738,1,0
296,144,124920,1,0
256,16,125192,1,0
216,144,125465,1,0
216,144,125646,1,8
328,216,125919,5,0
184,216,126191,1,0
184,216,126373,1,4
296,144,126645,1,0
256,272,126918,1,0
256,272,127099,1,8
216,144,127372,1,0
296,32,127644,5,0
296,32,127826,1,0
416,32,128099,1,0
416,152,128371,1,0
416,152,128553,1,8
296,152,128825,1,0
216,232,129098,1,0
216,232,129279,1,4
96,232,129552,1,0
96,352,129824,5,0
96,352,130006,1,8
216,352,130278,1,0
256,240,130551,1,0
256,240,130732,1,0
296,352,131005,5,0
416,352,131277,1,0
416,352,131459,1,8
360,240,131731,1,0
320,128,132004,1,0
320,128,132185,1,4
192,128,132458,1,0
152,240,132730,1,0
152,240,132912,1,8
360,240,133275,6,2,B|344:296|240:288|256:240|272:192|168:184|152:240,1,260
24,140,145237,6,0,B|112:40|256:8|400:40|488:140,1,520
256,160,146326,5,8
412,176,146690,2,0,B|468:196|474:262|427:309|370:288,1,195,0|0
212,348,147235,2,0,B|212:300|144:296|140:236,1,130
296,72,147779,1,8
216,72,147961,1,0
156,124,148143,6,0,B|184:196|256:216|328:196|356:124,1,260,0|8
424,164,148688,2,0,B|400:232|336:256,1,130
212,348,149233,1,8
412,176,149596,6,0,B|469:196|475:262|428:309|371:288,1,195
212,348,150141,2,0,B|212:300|144:296|140:236,1,130
296,72,150686,1,8
216,72,150867,1,0
156,124,151049,6,0,B|184:196|256:216|328:196|356:124,1,260,4|8
424,164,151594,2,0,B|400:232|336:256,1,130,0|4
212,348,152139,1,8
168,200,152502,6,0,B|188:172|240:172|256:200|276:228|316:228|348:204,2,195
212,264,153229,1,4
216,108,153592,5,8
296,108,153774,1,0
376,108,153955,2,0,B|360:192|280:212|256:260|256:260|232:212|152:192|136:108,1,390,4|0
136,112,154682,1,0
256,156,155045,1,8
172,48,155408,6,0,B|192:20|244:20|256:44|280:76|320:76|352:52,2,195
156,140,156135,2,0,B|172:224|316:244|256:280|256:280|196:244|340:224|356:140,1,390
256,192,159405,5,8
52,280,159768,6,0,B|52:212,3,65
120,280,160131,6,0,B|120:345,3,65,2|0|0|0
188,280,160494,6,0,B|188:215,3,65
256,284,160858,6,0,B|256:349,3,65,2|0|0|0
324,280,161221,6,0,B|324:215,3,65
392,280,161584,6,0,B|392:345,3,65,2|0|0|0
460,280,161948,6,0,B|460:215,3,65
460,144,162311,6,0,B|460:79,3,65,2|0|0|0
392,148,162674,6,0,B|392:213,3,65
324,144,163037,6,0,B|324:79,3,65,2|0|0|0
256,148,163401,6,0,B|256:213,3,65
188,144,163764,6,0,B|188:79,3,65,2|0|0|0
120,148,164127,6,0,B|120:213,3,65
52,144,164491,6,0,B|52:79,8,65,2|0|0|0|0|0|0|0|2
484,352,165580,5,4
24,28,167034,1,4
488,28,168487,1,4
52,352,169940,6,0,B|112:352|112:352|144:352|180:344|192:312,1,156.00000371933,4|0
319,311,170303,2,0,B|332:344|368:352|400:352|400:352|460:352,1,156.00000371933,8|0
380,256,170666,2,0,B|320:212|256:260|256:260|256:236,1,156.00000371933,0|0
132,256,171030,2,0,B|192:212|256:260|256:260|256:236,1,156.00000371933,8|0
256,144,171393,1,4
