osu file format v9

[General]
AudioFilename: DT.mp3
AudioLeadIn: 0
PreviewTime: 74040
Countdown: 0
SampleSet: Normal
StackLeniency: 0.6
Mode: 0
LetterboxInBreaks: 1

[Editor]
Bookmarks: 7349
DistanceSpacing: 1
BeatDivisor: 2
GridSize: 4

[Metadata]
Title:Brianstorm
Artist:Arctic Monkeys
Creator:Gonzvlo
Version:Relaxing
Source:
Tags:RandomJibberish Favourite Worst Nightmare Brainstorm

[Difficulty]
HPDrainRate:1
CircleSize:3
OverallDifficulty:2
ApproachRate:2
SliderMultiplier:1.1
SliderTickRate:2

[Events]
//Background and Video events
0,0,"BG.jpg"
Video,0,"Arctic Monkeys - Brianstorm (HD)_OriginalFLV.avi"
//Break Periods
2,63900,70332
2,133843,143677
//Storyboard Layer 0 (Background)
//Storyboard Layer 1 (Fail)
//Storyboard Layer 2 (Pass)
//Storyboard Layer 3 (Foreground)
//Storyboard Sound Samples
//Background Colour Transformations
3,100,163,162,255

[TimingPoints]
2858,363.284088156939,4,1,0,70,1,0
27358,-100,4,2,1,70,0,0
28448,-100,4,1,1,70,0,0
40618,363.284088156939,4,1,0,70,1,0
43545,363.284088156939,4,1,0,70,1,0
49372,363.284088156939,4,1,0,70,1,0
56614,363.284088156939,4,1,0,70,1,0
58088,363.284088156939,4,1,0,70,1,0
60871,-100,4,1,1,41,0,0
64050,-100,4,1,1,70,0,0
75502,363.284088156939,4,1,0,70,1,0
81328,363.284088156939,4,1,0,70,1,0
100236,363.284088156939,4,1,0,70,1,0
103837,363.284088156939,4,1,0,70,1,0
104543,363.284088156939,4,1,0,70,1,0
107495,363.284088156939,4,1,0,70,1,0
113276,363.284088156939,4,1,0,70,1,0
122014,363.284088156939,4,1,0,70,1,0
133643,363.284088156939,4,1,0,70,1,0
139425,361.44578313253,4,1,0,70,1,0
145237,363.284088156939,4,1,0,70,1,1
156680,-100,4,1,0,70,0,0

[Colours]
Combo1 : 143,228,16
Combo2 : 48,108,250
Combo3 : 245,5,23
SliderBorder : 30,30,30

[HitObjects]
256,340,26108,1,4
340,216,27561,2,0,B|356:160|328:92|256:68|184:92|156:160|172:216,1,330,0|8
72,248,29014,6,0,B|96:304|140:336|200:340,2,165,4|0|8
156,180,30467,1,0
104,116,30740,2,0,B|132:80|200:84|220:128,1,137.5,0|0
440,136,31920,6,0,B|416:80|372:48|312:44,2,165,0|0|8
356,204,33373,1,0
408,268,33646,2,0,B|380:304|312:300|292:256,1,137.5
184,64,34826,6,0,B|196:92|264:92|256:64|248:36|312:36|328:64,2,165,0|0|8
152,168,36280,2,0,B|256:204|256:204|359:168,1,220
176,288,37733,6,0,B|256:308|256:308|336:288,2,165,0|0|8
256,212,39186,1,0
196,156,39458,2,0,B|224:124|256:120|288:124|316:156,1,137.5
156,304,40618,6,0,B|196:340|256:360|316:340|356:304,1,220,0|0
164,192,42071,2,0,B|176:152|268:152|256:192|244:232|336:232|348:192,1,220,8|8
156,84,43545,2,0,B|196:47|256:27|316:47|356:83,1,220,4|0
292,292,44998,6,0,B|335:323|405:308|456:259|454:205,1,220,0|0
224,208,46451,2,0,B|416:100,1,220,4|0
220,92,47904,6,0,B|176:60|106:75|55:124|57:178,1,220,4|0
288,176,49372,2,0,B|96:284,2,220,4|0|0
148,56,52278,6,0,B|256:39|256:39|364:56,2,220,4|0|0
320,192,54457,1,0
148,328,55184,2,0,B|256:345|256:345|364:328,2,220,4|0|0
192,192,57340,1,0
364,52,58088,5,4
148,52,58814,1,4
256,244,59541,2,0,B|256:124,2,110,4|0|4
256,192,60994,12,4,62447
88,116,71892,6,0,B|56:272|136:360|256:388|376:360|456:272|424:116,1,660
340,199,75502,6,0,B|320:256|256:284|192:256|172:200,1,220,4|0
377,117,76955,2,0,B|360:72|308:72|292:100|292:100|296:132|256:156|216:132|220:100|220:100|204:72|152:72|136:116,1,330
160,223,78408,6,0,B|255:277|255:277|352:224,1,220,4|0
153,127,79861,2,0,B|289:78|314:183|257:235|199:184|223:78|360:128,1,330
468,112,81328,5,4
368,308,82054,1,4
144,308,82781,1,4
44,112,83507,1,4
256,192,84234,5,4
256,192,84960,1,4
256,192,85687,1,0
60,112,87140,6,0,B|128:24|256:4|384:24|452:112,1,440,4|0
60,272,90046,6,0,B|128:360|256:380|384:360|452:272,1,440,4|0
60,76,92953,5,4
144,276,93679,1,0
368,276,94406,1,0
452,76,95132,1,4
256,56,95859,6,0,B|140:24|140:272|256:192|372:104|372:352|256:320,2,440,4|0|4
364,72,99128,6,0,B|404:176,1,110,8|0
312,236,99855,1,0
200,236,100218,1,8
108,174,100599,2,0,B|148:72,1,110
256,44,101325,1,8
256,44,101689,1,0
256,152,102052,6,0,B|256:220,2,55,8|0|0
308,364,103142,2,0,B|292:380|256:384|220:380|204:364,2,110,0|8|0
256,280,104200,1,8
256,192,104543,12,0,109674
328,72,110401,6,0,B|428:120|436:224|420:296|348:368|256:396|164:368|92:296|76:224|84:120|184:72,1,770,4|0
216,176,113276,6,0,B|100:176,1,110,4|8
92,284,114002,2,0,B|200:260,1,110,0|8
312,260,114729,2,0,B|420:284,1,110,0|8
406,176,115455,2,0,B|296:176,1,110,0|8
328,72,116182,6,0,B|428:120|436:224|420:296|348:368|256:396|164:368|92:296|76:224|84:120|184:72,1,770,4|0
216,176,119088,6,0,B|100:176,1,110,4|8
92,284,119815,2,0,B|200:260,1,110,0|8
312,260,120541,2,0,B|420:284,1,110,0|8
406,176,121268,2,0,B|296:176,1,110,0|8
208,112,122014,6,0,B|120:48,3,110,0|8|0|8
108,156,123467,2,0,B|200:216,3,110,4|8|0|8
104,268,124920,2,0,B|200:324,3,110,4|8|0|8
312,323,126373,6,0,B|408:268,3,110,4|8|0|8
311,216,127826,2,0,B|404:156,3,110,4|8|0|8
392,47,129279,2,0,B|304:112,3,110,4|8|0|8
256,192,130732,12,4,133643
356,192,145237,6,0,B|264:192|264:192|256:176|256:176|248:192|248:192|156:192,1,220,4|0
352,288,146690,2,0,B|312:344|256:332|200:344|160:288,1,220
356,192,148143,6,0,B|264:192|264:192|256:208|256:208|248:192|248:192|156:192,1,220
352,96,149596,2,0,B|312:40|256:52|200:40|160:96,1,220
64,296,151049,5,4
136,212,151412,1,0
172,316,151776,1,4
376,216,152502,1,4
448,296,152865,1,0
340,316,153229,1,4
256,244,153592,2,0,B|256:12,1,220
326,346,155408,6,0,B|207:307|165:234|256:143|346:234|305:307|186:346,1,385
256,272,159405,5,8
168,340,159768,6,0,B|92:300|100:204|144:136|232:140|256:16|256:16|280:140|368:136|412:204|420:300|344:340,2,770,0|8|0
63,149,165580,5,4
448,149,167034,1,4
132,368,168487,1,4
256,0,169940,1,4
379,368,171393,1,4
