osu file format v9

[General]
AudioFilename: DT.mp3
AudioLeadIn: 0
PreviewTime: 74040
Countdown: 0
SampleSet: Normal
StackLeniency: 0.6
Mode: 0
LetterboxInBreaks: 1

[Editor]
Bookmarks: 7349,111854,112580
DistanceSpacing: 0.8
BeatDivisor: 4
GridSize: 4

[Metadata]
Title:Brianstorm
Artist:Arctic Monkeys
Creator:Gonzvlo
Version:Average
Source:
Tags:RandomJibberish Favourite Worst Nightmare Brainstorm

[Difficulty]
HPDrainRate:4
CircleSize:4
OverallDifficulty:5
ApproachRate:5
SliderMultiplier:1.2
SliderTickRate:2

[Events]
//Background and Video events
0,0,"BG.jpg"
Video,0,"Arctic Monkeys - Brianstorm (HD)_OriginalFLV.avi"
//Break Periods
2,63918,70692
2,133843,144037
//Storyboard Layer 0 (Background)
//Storyboard Layer 1 (Fail)
//Storyboard Layer 2 (Pass)
//Storyboard Layer 3 (Foreground)
//Storyboard Sound Samples
//Background Colour Transformations
3,100,163,162,255

[TimingPoints]
2858,363.284088156939,4,1,0,70,1,0
27358,-100,4,2,1,70,0,0
28448,-100,4,1,1,70,0,0
40618,363.284088156939,4,1,0,70,1,0
43545,363.284088156939,4,1,0,70,1,0
49372,363.284088156939,4,1,0,70,1,0
56614,363.284088156939,4,1,0,70,1,0
58088,363.284088156939,4,1,0,70,1,0
75502,363.284088156939,4,1,0,70,1,0
81328,363.284088156939,4,1,0,70,1,0
100236,363.284088156939,4,1,0,70,1,0
103837,363.284088156939,4,1,0,70,1,0
104543,363.284088156939,4,1,0,70,1,0
107495,363.284088156939,4,1,0,70,1,0
113276,363.284088156939,4,1,0,70,1,0
122014,363.284088156939,4,1,0,70,1,0
133643,363.284088156939,4,1,0,70,1,0
139425,361.44578313253,4,1,0,70,1,0
145237,363.284088156939,4,1,0,70,1,1
156680,-100,4,1,0,70,0,0

[Colours]
Combo1 : 143,228,16
Combo2 : 48,108,250
Combo3 : 245,5,23
SliderBorder : 30,30,30

[HitObjects]
256,80,26108,1,4
392,336,27561,2,0,B|292:360|256:251|256:251|220:360|120:336,1,360,0|8
32,292,29014,6,0,B|36:252|84:224|124:240,1,120,4|8
123,240,29741,1,0
256,100,30467,2,0,B|256:10,2,90
256,148,31194,1,0
389,239,31920,2,0,B|428:224|476:252|480:292,1,120,0|8
480,292,32647,1,0
296,348,33373,6,0,B|224:304|212:264|256:222|300:264|288:304|216:348,1,240
208,156,34826,2,0,B|228:136|256:120|256:120|284:136|304:156,2,120,0|8|0
372,56,36280,2,0,B|256:24|256:24|140:56,1,240
256,140,37369,1,8
184,232,37733,6,0,B|204:276|256:292|308:276|328:232,2,180,0|0|8
184,144,39186,2,0,B|232:96|256:199|256:199|280:96|328:144,1,240
144,72,40618,6,0,B|192:36|256:24|320:36|368:72,1,240,0|8
256,228,42071,2,0,B|256:328,2,90,8|8|8
256,228,42797,1,0
164,60,43545,6,0,B|176:112|272:112|255:61|240:8|336:8|348:60,2,240,4|0|0
176,168,45361,2,0,B|208:204|256:216|304:204|336:168,1,180,8|0
388,296,46451,5,0
300,328,46814,1,8
256,348,46996,1,0
212,328,47177,1,0
124,296,47541,1,8
92,180,47904,1,0
164,144,48176,2,0,B|256:144,1,90
253,144,48630,1,0
256,240,48994,5,8
164,272,49372,2,0,B|256:348|256:348|348:272,2,240
164,176,51188,2,0,B|256:100|256:100|348:176,1,240,8|8
312,264,52278,6,0,B|444:328|384:396|324:328|456:264,1,240,4|0
384,88,53731,2,0,B|456:36,2,90
384,88,54457,1,0
200,120,55184,6,0,B|68:56|128:-12|188:56|56:120,1,240,4|0
128,296,56614,2,0,B|56:348,2,90
128,296,57340,1,0
208,240,57703,5,8
256,252,57885,1,0
304,240,58088,1,4
304,144,58451,1,8
256,132,58632,1,0
208,144,58814,1,4
124,192,59177,1,8
256,252,59541,1,0
388,192,59904,1,8
256,132,60267,1,4
168,168,60630,6,0,B|144:92|192:32|256:12|320:32|368:92|344:168,1,360,8|0
360,312,62265,2,0,B|332:348|300:368|256:372|212:368|180:348|152:312,2,240
472,192,71892,6,0,B|512:0|100:4|256:192|408:380|0:384|40:192,1,720
372,336,75502,6,0,B|352:336|352:336|340:340|340:340|328:344|328:344|316:340|316:340|304:336|304:336|292:340|292:340|280:344|280:344|268:340|268:340|256:336|256:336|244:340|244:340|232:344|232:344|220:340|220:340|208:336|208:336|196:340|196:340|184:344|184:344|172:340|172:340|160:336|160:336|140:336,1,240,4|0
312,152,76955,2,0,B|244:184|208:224|255:291|312:224|264:184|200:152,2,240,0|0|4
256,76,78771,5,8
256,76,78953,1,0
256,76,79134,1,0
256,188,79498,1,8
168,248,79861,2,0,B|176:292|216:320|256:328|296:320|336:292|344:248,2,240,0|0|4
256,212,81691,6,0,B|256:92,1,120,8|4
348,60,82417,1,8
424,120,82781,2,0,B|412:188|344:204,1,120,0|8
256,212,83507,1,4
256,212,83870,2,0,B|256:92,1,120,8|0
256,92,84597,1,8
164,60,84960,1,4
88,120,85324,2,0,B|100:188|168:204,1,120,8|4
324,316,86413,5,0
280,336,86595,1,0
232,336,86777,1,8
188,316,86958,1,0
188,316,87140,2,0,B|188:216|316:216|316:124,1,240,4|0
132,64,88593,2,0,B|92:112|120:176,1,120,0|8
188,316,89320,5,0
232,336,89501,1,0
280,336,89683,1,8
324,316,89865,1,0
324,316,90046,2,0,B|324:216|196:216|196:124,1,240,4|0
380,64,91499,2,0,B|420:112|392:176,1,120,0|8
312,124,92226,1,0
136,192,92953,5,4
212,252,93316,1,8
256,272,93498,1,0
300,252,93679,1,4
372,188,94042,1,8
304,120,94406,1,0
208,120,94769,1,8
256,36,95132,1,4
256,192,95496,12,0,98765
316,232,99128,6,0,B|256:224|256:224|196:232,2,120,8|0|8
296,316,100236,2,0,B|272:340|240:340|216:316,2,90,0|8|0
296,316,100962,1,0
304,220,101325,1,8
208,220,101689,1,0
156,140,102052,6,0,B|108:96,2,60,8|0|0
256,304,103142,2,0,B|256:216,2,90,4|0|0
256,304,103837,1,0
352,304,104200,1,8
160,304,104543,6,0,B|96:192|160:72,1,240,4|0
256,144,105632,1,8
353,74,105996,2,0,B|416:192|352:304,1,240,4|0
256,192,107085,12,8,110037
388,245,110401,6,0,B|383:279|366:302|343:319|309:324,1,120,0|8
202,324,111127,2,0,B|168:319|145:302|128:279|123:245,1,120,0|8
123,138,111854,2,0,B|128:104|145:81|168:64|202:59,1,120,0|8
309,59,112580,2,0,B|343:64|366:81|383:104|388:138,1,120,0|8
256,192,113276,12,0,114365
256,192,114456,12,8,115818
123,138,116182,6,0,B|128:104|145:81|168:64|202:59,1,120,0|8
309,59,116908,2,0,B|343:64|366:81|383:104|388:138,1,120,0|8
388,245,117635,2,0,B|383:279|366:302|343:319|309:324,1,120,0|8
202,324,118361,2,0,B|168:319|145:302|128:279|123:245,1,120,0|8
176,100,119088,6,0,B|80:28,2,120,4|8|0
256,44,120178,1,8
336,100,120541,2,0,B|432:28,2,120,0|8|0
368,192,121631,1,8
336,284,122014,6,0,B|432:356,2,120,0|8|0
256,340,123103,1,8
176,284,123467,2,0,B|80:356,2,120,4|8|0
144,192,124556,1,8
176,100,124920,6,0,B|80:28,2,120,0|8|0
208,192,126010,1,8
256,276,126373,2,0,B|244:312|244:312|272:352|272:352|256:380,2,120,4|8|0
304,192,127463,1,8
336,100,127826,6,0,B|432:28,2,120,0|8|0
364,192,128916,1,8
372,288,129279,2,0,B|352:288|352:288|340:292|340:292|328:296|328:296|316:292|316:292|304:288|304:288|292:292|292:292|280:296|280:296|268:292|268:292|256:288|256:288|244:292|244:292|232:296|232:296|220:292|220:292|208:288|208:288|196:292|196:292|184:296|184:296|172:292|172:292|160:288|160:288|140:288,1,240,4|0
148,192,130369,1,8
140,96,130732,6,0,B|160:96|160:96|172:92|172:92|184:88|184:88|196:92|196:92|208:96|208:96|220:92|220:92|232:88|232:88|244:92|244:92|256:96|256:96|268:92|268:92|280:88|280:88|292:92|292:92|304:96|304:96|316:92|316:92|328:88|328:88|340:92|340:92|352:96|352:96|372:96,1,240,4|0
364,192,131822,1,8
372,288,132185,2,0,B|296:324|256:184|256:184|216:324|140:288,1,360,4|8
256,348,133643,1,4
308,104,145237,6,0,B|316:44|240:32|256:4|256:4|272:32|196:44|204:104,1,240,4|0
256,184,146326,1,8
256,288,146690,2,0,B|256:396,2,90
256,288,147416,1,0
84,180,148143,6,0,B|84:240|84:240|84:280|108:316|156:316|156:316|220:316,1,240,4|0
280,240,149233,1,8
224,164,149596,2,0,B|224:132|224:132|224:64,2,90
224,164,150322,1,0
428,180,151049,6,0,B|428:240|428:240|428:280|404:316|356:316|356:316|292:316,1,240,4|0
232,240,152139,1,8
288,164,152502,2,0,B|288:132|288:132|288:64,2,90
288,164,153228,1,0
360,228,153592,2,0,B|332:308|256:328|256:328|180:308|152:228,2,300,8|0|4
256,208,155772,5,8
204,116,156135,2,0,B|212:76|256:44|256:44|300:76|308:116,1,180
364,328,159405,5,8
448,328,159768,2,0,B|468:208|352:160|256:204|256:204|256:276,1,360,4|8
256,277,161221,2,0,B|256:204|256:204|160:160|44:208|64:328,1,360,4|8
172,272,162674,6,0,B|152:284|152:284|140:320|184:356|184:356|256:368|256:368|328:356|328:356|372:320|360:284|360:284|340:272,1,360,4|8
256,224,164127,2,0,B|200:184|200:184|200:128|200:128|312:104|312:104|312:52|312:52|256:12,1,360,4|8
164,44,165580,6,0,B|100:44,6,60,4|0|8|0|0|0|8
256,72,167034,6,0,B|256:136,6,60,4|0|8|0|0|0|8
348,44,168487,6,0,B|412:44,6,60,4|0|8|0|0|0|8
256,128,169940,6,0,B|256:168,16,30,0|0|0|0|0|0|0|0|0|0|0|0|0|0|0|0|4
