osu file format v14

[General]
AudioFilename: Arctic+Monkeys+-+Balaclava.mp3
AudioLeadIn: 700
PreviewTime: 42803
Countdown: 0
SampleSet: Soft
StackLeniency: 0.3
Mode: 0
LetterboxInBreaks: 0
WidescreenStoryboard: 0

[Editor]
Bookmarks: 1751,15765,28694,44830,56273,70232,82450,94997,107839
DistanceSpacing: 1
BeatDivisor: 4
GridSize: 4
TimelineZoom: 1

[Metadata]
Title:Balaclava
TitleUnicode:Balaclava
Artist:Arctic Monkeys
ArtistUnicode:Arctic Monkeys
Creator:Priti
Version:Insane
Source:
Tags:Favourite Worst Nightmare Indie Rock
BeatmapID:685733
BeatmapSetID:298913

[Difficulty]
HPDrainRate:5.5
CircleSize:4
OverallDifficulty:8
ApproachRate:8.7
SliderMultiplier:1.7
SliderTickRate:1

[Events]
//Background and Video events
0,0,"Arctic_Monkeys_Favourite_Worst_Nightmare_1.jpg",0,0
//Break Periods
2,42803,44178
2,56473,69586
//Storyboard Layer 0 (Background)
//Storyboard Layer 1 (Fail)
//Storyboard Layer 2 (Pass)
//Storyboard Layer 3 (Foreground)
//Storyboard Sound Samples

[TimingPoints]
1751,437.956204379562,4,2,2,40,1,0
15765,404.040404040404,4,3,1,50,1,0
28684,448.232842020335,4,3,1,60,1,0
44823,406.779661016949,4,3,1,50,1,0
49701,406.2288422478,4,3,1,50,1,0
54991,422.535211267606,4,3,1,50,1,0
55836,437.956204379562,4,3,1,50,1,0
56273,433.212996389892,4,2,1,60,1,0
58005,435.57168784029,4,2,1,60,1,0
59747,439.56043956044,4,2,1,60,1,0
61505,436.363636363636,4,2,2,40,1,0
63250,436.363636363636,4,2,2,40,1,0
70231,-142.857142857143,4,2,2,40,0,0
82013,-100,4,2,1,60,0,0
82450,448.125714200357,4,3,1,50,1,0
94989,401.33779264214,4,3,1,50,1,0
107831,-100,4,3,1,50,0,1
131912,-100,4,3,1,40,0,1
133525,436.363636363636,4,2,1,40,1,0

[Colours]
Combo1 : 216,209,171
Combo2 : 148,172,190
Combo3 : 202,162,142
Combo4 : 154,172,134

[HitObjects]
212,128,1751,6,0,L|199:299,1,170,0|0,3:0|3:0,0:0:0:0:
126,341,2407,1,0,0:0:0:0:
84,219,2626,2,0,L|170:210,1,85,0|0,3:0|0:0,0:0:0:0:
296,140,3064,2,0,L|206:127,1,85,0|0,3:0|0:0,0:0:0:0:
191,133,3393,1,0,0:0:0:0:
170,138,3502,6,0,P|154:88|170:44,1,85,0|0,3:0|0:0,0:0:0:0:
296,140,3940,2,0,P|303:181|287:220,1,85,0|0,3:0|0:0,0:0:0:0:
271,35,4378,2,0,L|456:25,1,170,0|0,3:0|3:0,0:0:0:0:
363,170,5145,1,0,0:0:0:0:
348,155,5254,6,0,L|357:70,1,85,0|0,3:0|0:0,0:0:0:0:
246,133,5692,2,0,B|239:175|239:175|261:217,1,85,0|0,3:0|0:0,0:0:0:0:
384,233,6130,1,0,3:0:0:0:
361,315,6349,1,0,0:0:0:0:
348,155,6568,2,0,P|381:147|435:164,1,85,0|0,3:0|0:0,0:0:0:0:
361,315,7006,6,0,B|328:325|307:328|263:318|293:311|248:301|227:304|195:315,1,170,0|0,3:0|3:0,0:0:0:0:
116,348,7663,1,0,0:0:0:0:
240,180,7882,2,0,L|256:276,1,85,0|0,3:0|0:0,0:0:0:0:
109,223,8320,2,0,L|124:139,1,85,0|0,3:0|0:0,0:0:0:0:
200,35,8758,6,0,P|156:14|59:29,1,127.5,0|0,3:0|0:0,0:0:0:0:
61,31,9196,1,0,3:0:0:0:
43,114,9415,1,0,0:0:0:0:
211,194,9634,2,0,B|234:156|234:156|224:99,1,85,0|0,3:0|0:0,0:0:0:0:
126,170,10072,2,0,B|118:209|118:209|141:247,1,85,0|0,3:0|0:0,0:0:0:0:
299,69,10510,6,0,P|252:73|124:53,1,170,0|0,3:0|3:0,0:0:0:0:
51,23,11167,1,0,0:0:0:0:
126,170,11386,2,0,P|174:164|207:140,1,85,0|0,3:0|0:0,0:0:0:0:
19,140,11823,2,0,L|26:230,1,85,0|0,3:0|0:0,0:0:0:0:
40,239,12152,1,0,0:0:0:0:
54,253,12261,5,0,3:0:0:0:
187,307,12480,1,0,0:0:0:0:
136,240,12699,1,0,3:0:0:0:
21,330,12918,1,0,0:0:0:0:
85,174,13137,1,0,3:0:0:0:
105,319,13356,1,0,0:0:0:0:
169,162,13575,1,0,3:0:0:0:
1,185,13794,1,0,0:0:0:0:
218,227,14013,6,0,P|249:178|230:107,1,127.5,0|0,3:0|0:0,0:0:0:0:
221,96,14451,2,0,L|325:87,1,85,0|0,3:0|0:0,0:0:0:0:
492,180,14889,2,0,L|388:163,1,85,0|0,3:0|0:0,0:0:0:0:
476,20,15327,1,4,3:0:0:0:
476,20,15765,6,0,P|507:97|492:179,1,170,4|8,1:0|1:0,0:0:0:0:
371,224,16371,1,0,0:0:0:0:
295,120,16573,2,0,L|380:112,1,85,0|0,1:0|0:0,0:0:0:0:
399,120,16876,1,0,0:0:0:0:
418,127,16977,1,8,1:0:0:0:
243,238,17179,1,0,0:0:0:0:
182,51,17381,6,0,P|167:90|166:133,1,85,0|0,1:0|0:0,0:0:0:0:
243,238,17785,2,0,L|144:248,1,85,8|0,1:0|0:0,0:0:0:0:
138,238,18088,1,0,0:0:0:0:
118,230,18189,2,0,L|107:323,1,85,0|0,1:0|0:0,0:0:0:0:
29,347,18593,1,8,1:0:0:0:
25,315,18694,1,0,0:0:0:0:
22,283,18795,1,0,0:0:0:0:
18,251,18896,1,8,1:0:0:0:
15,220,18997,6,0,L|25:136,1,85,0|0,1:0|0:0,0:0:0:0:
169,154,19401,2,0,P|165:80|139:51,1,85,8|0,1:0|0:0,0:0:0:0:
146,54,19704,1,0,0:0:0:0:
129,40,19805,2,0,L|241:25,1,85,0|0,1:0|0:0,0:0:0:0:
397,108,20209,2,0,B|353:116|353:116|316:99,1,85,8|0,1:0|0:0,0:0:0:0:
448,39,20613,6,0,P|479:86|459:165,1,127.5,0|0,1:0|0:0,0:0:0:0:
455,170,21017,1,8,1:0:0:0:
397,108,21219,1,0,0:0:0:0:
345,255,21421,2,0,L|291:245,1,42.5,0|0,1:0|0:0,0:0:0:0:
175,293,21623,1,0,0:0:0:0:
182,314,21724,1,0,0:0:0:0:
189,335,21825,2,0,B|256:355|256:355|307:329,1,127.5,8|8,1:0|1:0,0:0:0:0:
322,343,22229,6,0,L|416:350,1,85,0|0,1:0|0:0,0:0:0:0:
496,170,22633,2,0,P|441:162|406:181,1,85,8|0,1:0|0:0,0:0:0:0:
401,189,22936,1,0,0:0:0:0:
386,204,23037,2,0,L|301:197,1,85,0|0,1:0|0:0,0:0:0:0:
176,80,23441,1,8,1:0:0:0:
207,86,23542,1,0,0:0:0:0:
238,82,23643,1,0,0:0:0:0:
267,68,23744,1,0,0:0:0:0:
290,46,23845,6,0,L|396:53,1,85,0|0,1:0|0:0,0:0:0:0:
390,66,24148,1,0,0:0:0:0:
405,81,24249,1,8,1:0:0:0:
347,260,24451,2,0,P|329:225|328:180,1,85,0|0,0:0|1:0,0:0:0:0:
409,204,24855,1,0,0:0:0:0:
384,356,25057,2,0,L|229:341,1,127.5,8|8,1:0|1:0,0:0:0:0:
208,276,25461,6,0,L|250:269,1,42.5,0|0,1:0|0:0,0:0:0:0:
219,239,25663,1,0,0:0:0:0:
80,284,25866,2,0,L|64:323,1,42.5,8|0,1:0|0:0,0:0:0:0:
105,312,26068,1,0,0:0:0:0:
137,169,26270,2,0,L|110:135,1,42.5,0|0,1:0|0:0,0:0:0:0:
100,176,26472,1,0,0:0:0:0:
208,276,26674,2,0,L|292:262,1,85,8|0,1:0|0:0,0:0:0:0:
416,143,27078,5,0,1:0:0:0:
387,156,27179,1,0,0:0:0:0:
355,156,27280,1,0,0:0:0:0:
327,143,27381,1,0,0:0:0:0:
307,118,27482,2,0,B|266:108|266:108|225:130,1,85,8|0,1:0|0:0,0:0:0:0:
267,282,27886,2,0,L|276:198,1,85,0|0,1:0|0:0,0:0:0:0:
408,101,28290,2,0,L|420:164,1,42.5,8|0,1:0|0:0,0:0:0:0:
453,251,28492,1,8,1:0:0:0:
410,246,28593,1,8,1:0:0:0:
368,242,28684,6,0,L|500:225,1,127.5,4|0,1:0|0:0,0:0:0:0:
511,186,29132,1,8,1:0:0:0:
416,16,29356,2,0,L|408:101,1,85
408,101,30028,1,8,1:0:0:0:
325,79,30476,6,0,P|275:78|187:96,1,127.5
166,120,30925,2,0,P|108:111|75:82,1,85,8|0,1:0|0:0,0:0:0:0:
4,225,31373,2,0,P|44:211|86:210,1,85
237,318,31821,1,8,1:0:0:0:
152,309,32045,1,0,0:0:0:0:
225,107,32269,5,0,0:0:0:0:
230,138,32381,1,0,0:0:0:0:
235,170,32493,1,0,0:0:0:0:
240,201,32606,1,0,0:0:0:0:
246,233,32718,1,8,1:0:0:0:
152,309,32942,1,0,0:0:0:0:
322,327,33166,1,0,0:0:0:0:
141,104,33614,1,4,1:2:0:0:
246,233,34062,5,4,0:2:0:0:
226,242,34174,1,8,1:0:0:0:
66,330,34398,1,4,0:2:0:0:
80,345,34511,1,8,1:0:0:0:
256,316,34735,2,0,P|256:273|246:233,1,85,4|4,0:2|0:2,0:0:0:0:
246,233,35407,1,6,0:2:0:0:
285,157,35855,6,0,B|361:169|361:169|417:153,1,127.5,4|0,1:0|0:0,0:0:0:0:
439,185,36303,2,0,L|450:282,1,85,8|0,1:0|0:0,0:0:0:0:
265,325,36752,2,0,L|285:157,1,170,0|10,0:0|1:0,0:0:0:0:
249,79,37648,6,0,P|196:63|118:78,1,127.5,4|0,1:2|0:0,1:0:0:0:
91,99,38096,1,8,1:0:0:0:
160,282,38321,2,0,P|179:244|182:202,1,85
99,220,38769,1,8,1:0:0:0:
274,275,38993,2,0,L|382:263,1,85,4|4,0:0|0:0,0:0:0:0:
478,169,39441,5,0,0:0:0:0:
448,179,39553,1,0,0:0:0:0:
416,179,39665,1,0,0:0:0:0:
387,166,39777,1,0,0:0:0:0:
364,144,39889,1,8,1:0:0:0:
424,11,40113,2,0,L|433:96,1,85
433,96,40786,2,0,P|429:142|408:194,1,85,6|0,1:2|2:0,0:0:0:0:
280,124,41234,5,4,0:2:0:0:
300,118,41346,1,8,1:0:0:0:
179,160,41570,1,4,0:2:0:0:
159,154,41682,1,8,1:0:0:0:
198,54,41906,1,4,0:2:0:0:
261,230,42130,1,4,1:2:0:0:
261,230,44823,6,0,P|156:221|85:222,1,170,4|8,1:0|1:0,0:0:0:0:
11,251,45433,1,0,0:0:0:0:
96,115,45636,2,0,P|134:97|176:89,1,85,0|0,1:0|0:0,0:0:0:0:
388,64,46043,2,0,P|333:80|277:14,1,127.5,8|8,1:0|1:0,0:0:0:0:
266,54,46450,5,0,1:0:0:0:
348,208,46653,1,0,0:0:0:0:
352,187,46755,1,0,0:0:0:0:
356,166,46856,1,8,1:0:0:0:
224,140,47060,1,0,0:0:0:0:
316,279,47263,2,0,B|356:291|356:291|404:267,1,85,0|0,1:0|0:0,0:0:0:0:
217,240,47670,2,0,L|113:249,1,85,8|0,1:0|0:0,0:0:0:0:
105,124,48077,5,0,1:0:0:0:
134,114,48178,1,0,0:0:0:0:
166,113,48280,1,0,0:0:0:0:
197,122,48382,1,0,0:0:0:0:
223,139,48484,1,8,1:0:0:0:
362,179,48687,1,0,0:0:0:0:
419,45,48890,1,0,1:0:0:0:
388,34,48992,1,0,0:0:0:0:
357,32,49094,1,0,0:0:0:0:
326,39,49195,1,0,0:0:0:0:
297,53,49297,2,0,B|253:60|253:60|211:38,1,85,8|0,1:0|0:0,0:0:0:0:
136,15,49602,1,8,1:0:0:0:
118,32,49701,6,0,L|124:128,1,85,0|0,1:0|0:0,0:0:0:0:
138,131,50005,1,0,0:0:0:0:
153,146,50107,2,0,P|146:193|122:231,1,85,8|0,1:0|0:0,0:0:0:0:
104,343,50513,1,0,1:0:0:0:
134,351,50615,1,0,0:0:0:0:
165,347,50716,1,0,0:0:0:0:
193,331,50818,1,0,0:0:0:0:
211,306,50919,1,8,1:0:0:0:
294,339,51122,2,0,L|342:334,1,42.5
412,371,51325,6,0,B|421:327|421:327|399:278,1,85,0|0,1:0|0:0,0:0:0:0:
349,168,51732,2,0,L|460:157,1,85,8|0,1:0|0:0,0:0:0:0:
453,166,52036,1,0,0:0:0:0:
472,172,52138,1,0,1:0:0:0:
459,256,52341,1,0,0:0:0:0:
272,126,52544,2,0,P|320:86|382:88,1,127.5,8|8,1:0|1:0,0:0:0:0:
355,224,52950,6,0,L|362:182,1,42.5,0|0,1:0|0:0,0:0:0:0:
348,168,53153,1,0,0:0:0:0:
266,84,53357,2,0,L|272:126,1,42.5,8|0,1:0|0:0,0:0:0:0:
260,144,53560,1,0,0:0:0:0:
203,250,53763,2,0,L|210:208,1,42.5,0|0,1:0|0:0,0:0:0:0:
196,194,53966,1,0,0:0:0:0:
114,110,54169,2,0,L|21:123,1,85,8|0,1:0|0:0,0:0:0:0:
183,278,54575,6,0,L|196:194,1,85,0|0,1:0|0:0,0:0:0:0:
273,62,54981,1,8,1:0:0:0:
354,173,55202,1,8,1:0:0:0:
224,131,55413,1,4,0:0:0:0:
354,88,55624,1,4,0:0:0:0:
274,200,55836,1,4,0:0:0:0:
274,200,56273,5,4,0:0:0:0:
274,200,70231,6,0,L|148:194,1,118.999996368408,0|0,0:0|1:0,0:0:0:0:
102,146,70886,1,0,0:0:0:0:
153,307,71104,2,0,L|223:299,1,59.4999981842042
360,336,71540,2,0,L|288:332,1,59.4999981842042,0|0,1:0|0:0,0:0:0:0:
270,226,71977,6,0,P|302:274|300:332,1,118.999996368408,0|0,0:0|1:0,0:0:0:0:
212,300,72631,1,0,0:0:0:0:
368,224,72849,2,0,L|452:231,1,59.4999981842042
448,141,73286,2,0,L|389:137,1,59.4999981842042,0|0,1:0|0:0,0:0:0:0:
492,319,73722,6,0,P|510:262|512:203,1,118.999996368408,0|0,0:0|1:0,0:0:0:0:
448,141,74377,1,0,0:0:0:0:
368,224,74595,2,0,B|394:238|394:238|422:230,1,59.4999981842042
362,88,75031,2,0,L|302:94,1,59.4999981842042,0|0,1:0|0:0,0:0:0:0:
250,225,75468,6,0,B|325:210|296:235|373:223,1,118.999996368408,0|0,0:0|1:0,0:0:0:0:
437,168,76122,1,0,0:0:0:0:
466,343,76340,2,0,P|424:340|401:324,1,59.4999981842042
252,303,76777,2,0,P|286:298|319:271,1,59.4999981842042,0|0,1:0|0:0,0:0:0:0:
264,109,77213,6,0,P|246:165|249:224,1,118.999996368408,0|0,0:0|1:0,0:0:0:0:
374,186,77868,1,0,0:0:0:0:
302,24,78086,2,0,B|258:15|258:15|202:39,1,89.2499972763062
227,42,78522,1,0,1:0:0:0:
408,67,78740,1,0,0:0:0:0:
366,126,78959,6,0,P|371:173|436:227,1,118.999996368408,0|0,0:0|1:0,0:0:0:0:
490,211,79613,1,0,0:0:0:0:
326,322,79831,2,0,P|365:332|435:332,1,89.2499972763062
427,328,80268,1,0,1:0:0:0:
388,198,80486,1,0,0:0:0:0:
446,101,80704,6,0,B|405:79|405:79|355:89,1,89.2499972763062,2|2,0:1|0:1,0:0:0:0:
352,97,81140,2,0,L|270:88,1,59.4999981842042,2|2,0:1|0:1,0:0:0:0:
299,204,81577,2,0,L|416:195,1,89.2499972763062,2|0,0:1|0:0,0:0:0:0:
398,207,82013,1,8,1:0:0:0:
398,207,82450,6,0,P|408:264|400:352,1,127.5,4|0,1:0|0:0,0:0:0:0:
396,352,82898,1,8,1:0:0:0:
208,284,83122,2,0,L|325:275,2,85
105,327,83794,2,0,B|85:288|85:288|96:249,1,85,8|0,1:0|0:0,0:0:0:0:
228,160,84242,5,0,0:0:0:0:
230,192,84354,1,0,0:0:0:0:
227,223,84466,1,0,0:0:0:0:
220,254,84578,1,0,0:0:0:0:
208,284,84690,2,0,L|220:375,1,85,8|0,1:0|0:0,0:0:0:0:
365,369,85138,2,0,L|348:242,1,127.5
364,228,85586,1,4,1:2:0:0:
338,146,85810,1,0,0:0:0:0:
414,64,86035,5,4,0:2:0:0:
429,79,86147,2,0,L|422:164,1,85,8|4,1:0|0:2,0:0:0:0:
437,179,86483,1,8,1:0:0:0:
364,228,86707,1,4,1:2:0:0:
488,304,86931,2,0,L|307:317,1,170,4|6,0:2|0:2,0:0:0:0:
318,316,87827,6,0,P|253:277|203:300,1,127.5,4|0,1:0|0:0,0:0:0:0:
194,278,88275,2,0,L|102:272,1,85,8|0,1:0|0:0,0:0:0:0:
36,166,88723,2,0,L|126:158,1,85,0|8,0:0|1:0,0:0:0:0:
135,143,89059,1,0,0:0:0:0:
150,127,89171,1,0,0:0:0:0:
56,60,89395,1,0,0:0:0:0:
224,16,89620,5,4,1:2:0:0:
239,31,89732,2,0,L|230:118,1,85
245,130,90068,1,8,1:0:0:0:
398,168,90292,1,0,0:0:0:0:
328,115,90516,2,0,P|286:119|245:129,1,85
153,217,90964,2,0,P|195:220|236:230,1,85,8|0,1:0|0:0,0:0:0:0:
308,336,91412,5,0,0:0:0:0:
327,310,91524,1,0,0:0:0:0:
338,280,91636,1,0,0:0:0:0:
341,249,91748,1,0,0:0:0:0:
336,218,91860,2,0,L|432:208,1,85,8|0,1:0|0:0,0:0:0:0:
240,260,92308,2,0,B|226:175|226:175|289:115,1,170,0|4,0:0|1:2,0:0:0:0:
286,117,93205,5,4,0:2:0:0:
291,96,93317,1,8,1:0:0:0:
153,37,93541,1,4,0:2:0:0:
162,56,93653,1,8,1:0:0:0:
286,117,93877,2,0,L|383:110,1,85,4|4,0:2|0:2,0:0:0:0:
382,142,94549,1,4,1:2:0:0:
393,173,94989,6,0,B|348:216|348:216|235:201,1,170,4|8,1:0|1:0,0:0:0:0:
184,87,95591,1,0,0:0:0:0:
303,42,95791,2,0,P|314:83|318:126,1,85,0|0,1:0|0:0,0:0:0:0:
418,226,96193,2,0,P|420:184|441:147,1,85,8|0,1:0|0:0,0:0:0:0:
497,311,96594,5,0,1:0:0:0:
466,308,96694,1,0,0:0:0:0:
434,310,96795,1,0,0:0:0:0:
403,318,96895,1,0,0:0:0:0:
374,332,96995,2,0,L|279:325,1,85,8|0,1:0|0:0,0:0:0:0:
169,215,97397,2,0,B|207:195|207:195|247:207,1,85,0|0,1:0|0:0,0:0:0:0:
93,286,97798,2,0,P|67:231|79:162,1,127.5,8|8,1:0|1:0,0:0:0:0:
98,66,98199,6,0,L|91:151,1,85,0|0,1:0|0:0,0:0:0:0:
244,207,98601,2,0,P|245:150|222:118,1,85,8|0,1:0|0:0,0:0:0:0:
179,316,99002,1,0,1:0:0:0:
210,313,99102,1,0,0:0:0:0:
242,316,99203,1,0,0:0:0:0:
272,326,99303,1,0,0:0:0:0:
300,342,99403,2,0,L|401:332,1,85,8|0,1:0|0:0,0:0:0:0:
468,208,99805,6,0,L|372:200,1,85,0|0,1:0|0:0,0:0:0:0:
258,138,100206,2,0,P|248:181|248:223,1,85,8|0,1:0|0:0,0:0:0:0:
148,341,100607,1,0,1:0:0:0:
153,309,100708,1,0,0:0:0:0:
150,278,100808,1,0,0:0:0:0:
140,248,100908,1,0,0:0:0:0:
122,221,101009,2,0,B|112:178|112:178|130:127,1,85,8|0,1:0|0:0,0:0:0:0:
152,36,101310,1,8,1:0:0:0:
160,56,101410,6,0,L|76:65,1,85,0|0,1:0|0:0,0:0:0:0:
264,44,101811,2,0,L|352:56,1,85,8|0,1:0|0:0,0:0:0:0:
368,49,102112,1,0,0:0:0:0:
387,41,102213,1,0,1:0:0:0:
360,204,102413,1,0,0:0:0:0:
501,127,102614,1,8,1:0:0:0:
479,128,102714,1,0,0:0:0:0:
458,130,102815,1,0,0:0:0:0:
471,304,103015,6,0,P|492:267|495:225,1,85,0|0,1:0|0:0,0:0:0:0:
344,127,103417,2,0,B|337:169|337:169|360:204,1,85,8|0,1:0|0:0,0:0:0:0:
428,24,103818,1,0,1:0:0:0:
399,38,103918,1,0,0:0:0:0:
367,45,104019,1,0,0:0:0:0:
336,47,104119,1,0,0:0:0:0:
304,40,104219,2,0,P|250:32|180:75,1,127.5,8|8,1:0|1:0,0:0:0:0:
229,203,104621,6,0,P|257:170|262:129,1,85,0|0,1:0|0:0,0:0:0:0:
91,29,105022,1,8,1:0:0:0:
182,139,105223,1,0,0:0:0:0:
33,191,105423,2,0,L|41:107,1,85,0|0,1:0|0:0,0:0:0:0:
184,13,105825,2,0,B|194:93|169:55|182:139,1,127.5,8|8,1:0|1:0,0:0:0:0:
234,205,106226,6,0,L|222:255,1,42.5,0|0,1:0|0:0,0:0:0:0:
165,307,106427,1,0,0:0:0:0:
133,305,106527,1,0,0:0:0:0:
101,303,106627,2,0,B|37:315|37:315|16:252,1,127.5,8|8,1:0|1:0,0:0:0:0:
38,155,107029,2,0,L|32:240,1,85,0|0,1:0|0:0,0:0:0:0:
160,179,107430,2,0,L|151:74,1,85,8|8,1:0|1:0,1:0:0:0:
167,78,107731,1,8,1:0:0:0:
185,68,107831,6,0,P|228:63|270:67,1,85,4|0,1:0|0:0,0:0:0:0:
346,196,108233,2,0,P|283:196|258:176,1,85,8|0,1:0|0:0,0:0:0:0:
430,75,108634,1,0,1:0:0:0:
419,105,108734,1,0,0:0:0:0:
418,136,108835,1,0,0:0:0:0:
427,167,108935,1,0,0:0:0:0:
444,193,109035,2,0,L|436:244,2,42.5,8|0|0,1:0|0:0|0:0,0:0:0:0:
430,75,109437,6,0,L|339:80,1,85,0|0,1:0|0:0,0:0:0:0:
240,152,109838,1,8,1:0:0:0:
281,159,109938,1,0,0:0:0:0:
323,167,110039,1,0,0:0:0:0:
176,204,110239,2,0,P|158:165|161:123,1,85,0|0,1:0|0:0,0:0:0:0:
367,142,110641,2,0,L|239:151,1,127.5,8|8,1:0|1:0,0:0:0:0:
308,54,111042,6,0,L|295:109,2,42.5,0|0|0,1:0|0:0|0:0,0:0:0:0:
149,110,111443,2,0,L|133:63,2,42.5,8|0|0,1:0|0:0|0:0,0:0:0:0:
176,204,111845,2,0,L|90:197,1,85,0|0,1:0|0:0,0:0:0:0:
157,299,112246,2,0,P|206:298|241:270,1,85,8|0,1:0|0:0,0:0:0:0:
338,156,112647,5,0,1:0:0:0:
306,154,112748,1,0,0:0:0:0:
275,147,112848,1,0,0:0:0:0:
246,133,112948,1,0,0:0:0:0:
221,113,113049,1,8,1:0:0:0:
217,81,113149,1,0,0:0:0:0:
213,49,113249,1,0,0:0:0:0:
350,72,113450,2,0,L|336:170,1,85,0|0,1:0|0:0,0:0:0:0:
249,298,113851,2,0,B|227:260|227:260|241:208,1,85,8|8,1:0|1:0,0:0:0:0:
257,212,114152,1,8,1:0:0:0:
276,203,114253,6,0,L|99:192,1,170,4|8,1:0|1:0,0:0:0:0:
44,136,114855,1,0,0:0:0:0:
164,24,115055,2,0,B|186:62|186:62|172:114,1,85,0|0,1:0|0:0,0:0:0:0:
125,272,115457,2,0,P|107:234|108:190,1,85,8|0,1:0|0:0,0:0:0:0:
356,216,115858,6,0,B|238:232|300:201|188:217,1,170,0|8,1:0|1:0,0:0:0:0:
125,272,116460,1,0,0:0:0:0:
246,333,116661,2,0,P|268:297|267:255,1,85,0|0,1:0|0:0,0:0:0:0:
103,149,117062,1,8,1:0:0:0:
105,180,117162,1,0,0:0:0:0:
108,212,117263,1,0,0:0:0:0:
111,244,117363,1,8,1:0:0:0:
114,277,117463,6,0,L|29:270,1,85,0|0,1:0|0:0,0:0:0:0:
208,183,117865,2,0,L|292:176,1,85,8|0,1:0|0:0,0:0:0:0:
84,29,118266,1,0,1:0:0:0:
99,56,118366,1,0,0:0:0:0:
108,87,118467,1,0,0:0:0:0:
110,118,118567,1,0,0:0:0:0:
104,150,118667,2,0,B|61:163|61:163|22:136,1,85,8|0,1:0|0:0,0:0:0:0:
0,25,119069,6,0,L|185:33,1,170,0|8,1:0|1:0,0:0:0:0:
264,104,119671,1,0,0:0:0:0:
210,209,119871,1,0,1:0:0:0:
241,201,119972,1,0,0:0:0:0:
272,201,120072,1,0,0:0:0:0:
303,211,120172,1,0,0:0:0:0:
329,230,120273,2,0,L|343:147,1,85,8|8,1:0|1:0,0:0:0:0:
338,125,120574,1,8,1:0:0:0:
334,104,120674,5,4,1:0:0:0:
456,72,120875,1,0,0:0:0:0:
422,193,121075,2,0,P|424:240|436:276,1,85,8|0,1:0|0:0,0:0:0:0:
501,330,121477,2,0,B|394:308|439:348|333:329,1,170,0|8,1:0|1:0,0:0:0:0:
276,265,122079,1,0,0:0:0:0:
415,179,122279,6,0,P|391:213|354:233,1,85,0|0,1:0|0:0,0:0:0:0:
396,71,122681,2,0,L|488:63,1,85,8|0,1:0|0:0,0:0:0:0:
337,153,123082,1,0,1:0:0:0:
305,150,123182,1,0,0:0:0:0:
273,147,123283,1,0,0:0:0:0:
241,144,123383,1,0,0:0:0:0:
209,142,123483,2,0,B|211:195|211:195|224:211|224:211|227:265,1,127.5,8|8,1:0|1:0,0:0:0:0:
152,336,123885,6,0,L|147:251,1,85,0|0,1:0|0:0,0:0:0:0:
106,134,124286,2,0,B|68:154|68:154|27:145,1,85,8|0,1:0|0:0,0:0:0:0:
57,28,124687,1,0,1:0:0:0:
87,20,124788,1,0,0:0:0:0:
119,20,124888,1,0,0:0:0:0:
150,26,124988,1,0,0:0:0:0:
179,39,125089,2,0,L|229:34,2,42.5,8|0|0,1:0|0:0|0:0,0:0:0:0:
106,134,125490,5,0,1:0:0:0:
174,184,125691,2,0,L|274:174,1,85,2|10,0:1|1:0,0:0:0:0:
356,76,126092,1,2,0:1:0:0:
373,275,126293,2,0,P|357:235|354:193,1,85,2|0,1:0|0:0,0:0:0:0:
364,174,126594,1,2,0:1:0:0:
381,162,126694,2,0,L|481:165,1,85,8|2,1:0|0:1,0:0:0:0:
499,243,126995,1,8,1:0:0:0:
492,264,127096,6,0,B|499:306|499:306|471:358,1,85,6|0,1:0|0:0,0:0:0:0:
261,311,127497,1,10,1:0:0:0:
292,282,127597,1,0,0:0:0:0:
331,268,127698,1,2,0:1:0:0:
374,270,127798,1,8,1:0:0:0:
412,289,127898,2,0,L|428:144,1,127.5,2|2,1:0|0:1,0:0:0:0:
399,62,128300,2,0,L|410:147,1,85,8|2,1:0|0:1,0:0:0:0:
349,207,128601,1,8,1:1:0:0:
334,221,128701,6,0,B|291:238|291:238|242:224,1,85,6|0,1:0|0:0,0:0:0:0:
212,86,129102,1,10,1:0:0:0:
250,68,129203,1,0,0:0:0:0:
292,69,129303,1,0,0:0:0:0:
329,88,129403,1,8,1:0:0:0:
355,122,129504,2,0,L|347:222,1,85,6|0,1:0|0:0,0:0:0:0:
382,349,129905,1,10,1:0:0:0:
423,342,130005,1,0,0:0:0:0:
460,321,130106,1,2,0:1:0:0:
488,289,130206,1,8,1:0:0:0:
503,249,130306,5,4,1:0:0:0:
503,207,130407,1,0,0:0:0:0:
489,167,130507,1,0,0:0:0:0:
431,29,130708,2,0,L|286:38,1,127.5,8|8,1:0|1:0,0:0:0:0:
212,33,131109,2,0,P|246:57|288:50,1,85,4|0,1:0|0:0,0:0:0:0:
431,29,131510,1,8,1:0:0:0:
391,14,131611,1,0,1:0:0:0:
330,137,131811,1,8,1:0:0:0:
373,128,131912,6,0,L|367:220,1,85,4|4,1:2|1:2,0:0:0:0:
298,262,132313,1,8,1:0:0:0:
129,178,132514,6,0,L|135:270,1,85,4|4,1:2|1:2,0:0:0:0:
204,312,132915,1,4,1:2:0:0:
373,228,133116,6,0,L|367:320,1,85,8|4,1:0|1:2,0:0:0:0:
298,362,133517,5,4,1:0:0:0:
256,192,133634,12,0,135270,0:0:0:0:
