osu file format v14

[General]
AudioFilename: Arctic+Monkeys+-+Balaclava.mp3
AudioLeadIn: 700
PreviewTime: 42803
Countdown: 0
SampleSet: None
StackLeniency: 0.3
Mode: 0
LetterboxInBreaks: 0
WidescreenStoryboard: 1

[Editor]
DistanceSpacing: 1.2
BeatDivisor: 4
GridSize: 4
TimelineZoom: 1

[Metadata]
Title:Balaclava
TitleUnicode:Balaclava
Artist:Arctic Monkeys
ArtistUnicode:Arctic Monkeys
Creator:Priti
Version:Extreme
Source:
Tags:Favourite Worst Nightmare Indie Rock
BeatmapID:729619
BeatmapSetID:298913

[Difficulty]
HPDrainRate:5.2
CircleSize:4.5
OverallDifficulty:9
ApproachRate:9.6
SliderMultiplier:2.1
SliderTickRate:1

[Events]
//Background and Video events
0,0,"Arctic_Monkeys_Favourite_Worst_Nightmare_1.jpg",0,0
//Break Periods
2,42803,44314
2,56473,69722
//Storyboard Layer 0 (Background)
//Storyboard Layer 1 (Fail)
//Storyboard Layer 2 (Pass)
//Storyboard Layer 3 (Foreground)
//Storyboard Sound Samples

[TimingPoints]
1751,437.956204379562,4,2,2,40,1,0
15765,404.040404040404,4,3,1,50,1,0
15765,-80,4,3,1,50,0,0
28684,448.232842020335,4,3,1,60,1,0
32269,-100,4,3,1,30,0,0
32718,-100,4,3,1,60,0,0
33390,-100,4,3,1,20,0,0
33614,-100,4,3,1,60,0,0
34062,-100,4,3,1,40,0,0
35407,-100,4,3,1,60,0,0
35631,-100,4,3,1,20,0,0
35855,-100,4,3,1,60,0,0
39441,-100,4,3,1,30,0,0
39889,-100,4,3,1,60,0,0
40674,-100,4,3,1,20,0,0
40786,-100,4,3,1,60,0,0
41010,-100,4,3,1,20,0,0
41234,-100,4,3,1,40,0,0
44823,406.779661016949,4,3,1,50,1,0
44823,-80,4,3,1,50,0,0
49701,406.2288422478,4,3,1,50,1,0
49701,-80,4,3,1,50,0,0
54991,422.535211267606,4,3,1,50,1,0
55836,437.956204379562,4,3,1,50,1,0
56273,433.212996389892,4,2,1,60,1,0
58005,435.57168784029,4,2,1,60,1,0
59747,439.56043956044,4,2,1,60,1,0
61505,436.363636363636,4,2,2,40,1,0
63250,436.363636363636,4,2,2,40,1,0
70231,-133.333333333333,4,2,2,40,0,0
80704,-100,4,2,2,40,0,0
80922,-100,4,2,2,20,0,0
81031,-100,4,2,2,40,0,0
81249,-100,4,2,2,20,0,0
81359,-100,4,2,2,40,0,0
81468,-100,4,2,2,20,0,0
81577,-100,4,2,2,40,0,0
81904,-100,4,2,2,20,0,0
82013,-100,4,2,1,60,0,0
82450,448.125714200357,4,3,1,50,1,0
84242,-100,4,3,1,25,0,0
84690,-100,4,3,1,50,0,0
84914,-100,4,3,1,25,0,0
85138,-100,4,3,1,50,0,0
85922,-100,4,3,1,20,0,0
86035,-100,4,3,1,50,0,0
91412,-100,4,3,1,25,0,0
91860,-100,4,3,1,50,0,0
94549,-100,4,3,1,30,0,0
94989,401.33779264214,4,3,1,50,1,0
94989,-80,4,3,1,50,0,0
107831,-66.6666666666667,4,3,1,50,0,1
131912,-66.6666666666667,4,3,1,40,0,1
133525,436.363636363636,4,2,1,40,1,0

[Colours]
Combo1 : 216,209,171
Combo2 : 148,172,190
Combo3 : 202,162,142
Combo4 : 154,172,134

[HitObjects]
80,228,1751,6,0,L|208:232,1,105,0|0,3:3|0:0,0:0:0:0:
210,225,2079,1,0,0:0:0:0:
235,218,2188,2,0,P|256:154|245:98,1,105,0|0,3:3|0:0,0:0:0:0:
168,53,2626,2,0,P|147:117|158:173,1,105,0|0,3:0|0:0,0:0:0:0:
298,173,3064,2,0,L|402:166,1,105,0|0,3:0|0:0,0:0:0:0:
427,173,3393,1,0,0:0:0:0:
451,179,3502,6,0,P|463:128|465:70,1,105,0|0,3:0|0:0,0:0:0:0:
366,55,3831,1,0,0:0:0:0:
348,77,3940,2,0,P|282:78|229:62,1,105,0|0,3:0|0:0,0:0:0:0:
144,37,4378,2,0,B|165:91|149:159|126:120|119:189|146:240,1,210,0|0,3:0|3:0,0:0:0:0:
274,344,5254,6,0,P|297:290|301:230,1,105,0|0,3:0|0:0,0:0:0:0:
295,218,5583,1,0,0:0:0:0:
277,198,5692,2,0,L|392:209,1,105,0|0,3:0|0:0,0:0:0:0:
469,75,6130,2,0,L|239:97,1,210,0|0,3:0|3:0,0:0:0:0:
179,163,6787,1,0,0:0:0:0:
16,137,7006,6,0,P|24:202|39:244,1,105,0|0,3:0|0:0,0:0:0:0:
57,255,7334,1,0,0:0:0:0:
79,268,7444,2,0,L|190:276,1,105,0|0,3:0|0:0,0:0:0:0:
396,244,7882,2,0,P|320:228|280:336,1,210,0|0,3:0|3:0,0:0:0:0:
436,340,8648,1,0,0:0:0:0:
436,340,8758,6,0,P|485:297|498:247,1,105,0|0,3:0|0:0,0:0:0:0:
490,235,9086,1,0,0:0:0:0:
472,215,9196,2,0,L|462:103,1,105,0|0,3:0|0:0,0:0:0:0:
330,22,9634,2,0,L|310:133,1,105,0|0,3:0|0:0,0:0:0:0:
154,210,10072,2,0,P|170:143|196:110,1,105,0|0,3:0|0:0,0:0:0:0:
198,122,10400,1,0,0:0:0:0:
204,128,10510,6,0,L|64:132,1,105,0|0,3:0|0:0,0:0:0:0:
80,112,10838,2,0,L|71:178,1,52.5,0|0,0:0|3:0,0:0:0:0:
10,279,11057,2,0,L|1:213,1,52.5
35,28,11386,2,0,L|244:22,1,210,0|0,3:0|3:0,0:0:0:0:
388,88,12042,1,0,0:0:0:0:
388,88,12152,1,0,0:0:0:0:
388,88,12261,6,0,P|385:151|372:203,1,105,0|0,3:0|0:0,0:0:0:0:
236,291,12699,2,0,P|219:213|230:168,1,105,0|0,3:0|0:0,0:0:0:0:
403,286,13137,2,0,L|533:292,1,105,0|0,3:0|0:0,0:0:0:0:
238,200,13575,2,0,L|103:218,1,105,0|0,3:0|0:0,0:0:0:0:
215,39,14013,5,0,3:0:0:0:
215,39,14123,2,0,P|274:43|325:58,1,105
375,110,14451,2,0,P|442:116|481:83,1,105,0|0,3:0|0:0,0:0:0:0:
463,88,14780,1,0,0:0:0:0:
455,80,14889,2,0,L|476:304,1,210,0|4,3:0|3:0,0:0:0:0:
280,348,15765,6,0,L|294:189,1,131.25,4|0,1:0|0:0,0:0:0:0:
253,148,16068,1,0,0:0:0:0:
258,69,16169,2,0,P|275:32|298:6,1,65.625,8|0,1:0|0:0,0:0:0:0:
357,91,16371,2,0,P|379:68|406:50,1,65.625
441,146,16573,6,0,P|450:211|428:272,1,131.25,0|0,1:0|0:0,0:0:0:0:
386,338,16876,1,0,0:0:0:0:
307,345,16977,2,0,L|176:335,1,131.25,8|0,1:0|0:0,0:0:0:0:
11,265,17280,1,0,0:0:0:0:
11,265,17381,6,0,P|53:295|70:314,1,65.625,0|0,1:0|0:0,0:0:0:0:
117,180,17583,2,0,P|138:226|143:251,1,65.625
251,159,17785,1,8,1:0:0:0:
246,207,17886,1,0,0:0:0:0:
232,254,17987,1,0,0:0:0:0:
209,298,18088,1,0,0:0:0:0:
177,335,18189,6,0,L|33:326,1,131.25,0|0,1:0|0:0,0:0:0:0:
71,201,18492,1,0,0:0:0:0:
141,240,18593,2,0,L|285:231,1,131.25,8|0,1:0|0:0,0:0:0:0:
369,223,18896,1,8,1:0:0:0:
369,223,18997,6,0,P|368:268|375:301,1,65.625,0|0,1:0|0:0,0:0:0:0:
282,49,19199,2,0,P|242:71|217:94,1,65.625
463,255,19401,2,0,P|477:284|498:309,1,65.625,8|0,1:0|0:0,0:0:0:0:
301,147,19603,2,0,P|284:174|271:204,1,65.625
495,277,19805,5,0,1:0:0:0:
498,196,19906,1,0,0:0:0:0:
461,124,20007,1,0,0:0:0:0:
394,79,20108,1,0,0:0:0:0:
314,71,20209,2,0,L|227:85,1,65.625,8|0,1:0|0:0,0:0:0:0:
0,124,20411,2,0,L|85:149,1,65.625
159,208,20613,5,0,1:0:0:0:
150,159,20714,1,0,0:0:0:0:
142,110,20815,1,0,0:0:0:0:
134,62,20916,1,0,0:0:0:0:
126,13,21017,2,0,P|81:4|61:6,1,65.625,8|0,1:0|0:0,0:0:0:0:
8,216,21219,2,0,P|43:206|74:183,1,65.625
197,133,21421,5,0,1:0:0:0:
244,122,21522,1,0,0:0:0:0:
292,133,21623,1,0,0:0:0:0:
331,162,21724,1,0,0:0:0:0:
355,205,21825,1,8,1:0:0:0:
401,217,21926,1,0,0:0:0:0:
442,193,22027,1,0,0:0:0:0:
452,146,22128,1,8,1:0:0:0:
425,107,22229,6,0,P|419:58|482:-3,1,131.25,0|0,1:0|0:0,0:0:0:0:
496,74,22532,1,0,0:0:0:0:
489,152,22633,2,0,L|333:160,1,131.25,8|0,1:0|0:0,0:0:0:0:
216,162,22936,1,0,0:0:0:0:
222,83,23037,6,0,P|248:69|293:66,1,65.625,0|0,1:0|0:0,0:0:0:0:
402,283,23239,2,0,P|369:279|340:264,1,65.625
216,162,23441,1,8,1:0:0:0:
260,142,23542,1,0,0:0:0:0:
309,139,23643,1,0,0:0:0:0:
356,152,23744,1,0,0:0:0:0:
396,182,23845,5,0,1:0:0:0:
431,149,23946,1,0,0:0:0:0:
436,101,24047,1,0,0:0:0:0:
408,61,24148,1,0,0:0:0:0:
361,50,24249,1,8,1:0:0:0:
313,60,24350,1,0,0:0:0:0:
264,57,24451,1,0,0:0:0:0:
218,41,24552,1,0,0:0:0:0:
178,12,24653,6,0,L|174:88,1,65.625,0|0,1:0|0:0,0:0:0:0:
72,276,24855,2,0,L|68:211,1,65.625
84,97,25057,1,8,1:0:0:0:
106,140,25158,1,0,0:0:0:0:
147,165,25259,1,0,0:0:0:0:
196,167,25360,1,8,1:0:0:0:
238,143,25461,6,0,L|313:153,1,65.625,0|0,1:0|0:0,0:0:0:0:
322,238,25663,2,0,L|257:231,1,65.625
410,41,25866,6,0,L|364:100,1,65.625,8|0,1:0|0:0,0:0:0:0:
284,65,26068,2,0,L|325:14,1,65.625
413,241,26270,6,0,L|384:171,1,65.625,0|0,1:0|0:0,0:0:0:0:
453,120,26472,2,0,L|479:181,1,65.625
238,143,26674,5,8,1:0:0:0:
215,99,26775,1,0,0:0:0:0:
174,74,26876,1,0,0:0:0:0:
125,72,26977,1,0,0:0:0:0:
83,96,27078,6,0,L|8:86,1,65.625,0|0,1:0|0:0,0:0:0:0:
269,184,27280,2,0,L|343:193,1,65.625
176,44,27482,2,0,B|192:97|192:145|159:135|159:182|176:236,1,196.875,8|0,1:0|0:0,0:0:0:0:
283,354,27886,5,0,1:0:0:0:
240,329,27987,1,0,0:0:0:0:
192,317,28088,1,0,0:0:0:0:
143,318,28189,1,0,0:0:0:0:
96,332,28290,2,0,L|26:321,1,65.625,8|0,1:0|0:0,0:0:0:0:
8,192,28492,2,0,L|76:183,1,65.625,8|8,1:0|1:0,0:0:0:0:
309,88,28684,6,0,P|235:63|158:75,1,157.5,4|0,1:0|0:0,0:0:0:0:
327,107,29132,2,0,L|444:97,1,105,8|0,1:0|0:0,0:0:0:0:
475,193,29580,2,0,L|265:210,1,210,0|8,0:0|1:0,0:0:0:0:
265,209,30476,5,0,0:0:0:0:
259,234,30588,1,0,0:0:0:0:
164,284,30813,1,0,0:0:0:0:
158,259,30925,1,8,1:0:0:0:
84,184,31149,1,0,0:0:0:0:
116,84,31373,2,0,P|172:76|236:72,1,105
392,158,31821,2,0,P|359:121|309:127,1,105,8|0,1:0|0:0,0:0:0:0:
261,282,32269,5,0,1:0:0:0:
313,279,32381,1,0,1:0:0:0:
365,277,32493,1,0,1:0:0:0:
418,275,32606,1,0,1:0:0:0:
470,273,32718,2,0,L|457:380,1,105,8|0,1:0|0:0,0:0:0:0:
261,282,33166,2,0,P|247:210|254:168,1,105
293,83,33614,1,4,1:2:0:0:
141,98,34062,5,4,0:2:0:0:
147,123,34174,1,8,1:0:0:0:
199,213,34398,1,4,0:2:0:0:
193,238,34511,1,8,1:0:0:0:
110,303,34735,1,4,0:2:0:0:
263,336,34959,1,4,0:2:0:0:
263,336,35407,2,0,P|315:337|376:319,1,105,6|0,1:2|2:0,0:0:0:0:
434,244,35855,6,0,P|375:249|295:175,1,157.5,4|0,1:0|0:0,0:0:0:0:
288,167,36303,1,8,1:0:0:0:
323,66,36528,1,0,0:0:0:0:
220,43,36752,1,0,0:0:0:0:
393,156,37200,2,2,L|288:167,1,105,8|0,1:0|2:0,0:0:0:0:
220,43,37648,5,4,0:2:0:0:
216,69,37760,1,0,0:0:0:0:
125,122,37984,1,0,0:0:0:0:
116,97,38096,2,0,P|55:87|11:87,1,105,8|0,1:0|0:0,0:0:0:0:
74,256,38545,1,0,0:0:0:0:
174,226,38769,1,8,1:0:0:0:
12,87,38993,1,4,0:0:0:0:
213,17,39217,1,4,0:0:0:0:
74,256,39441,5,0,1:0:0:0:
126,260,39553,1,0,1:0:0:0:
178,265,39665,1,0,1:0:0:0:
230,269,39777,1,0,1:0:0:0:
283,274,39889,2,0,P|328:280|401:246,1,105,8|0,1:0|0:0,0:0:0:0:
336,17,40338,2,0,L|321:174,1,157.5,0|0,0:0|2:0,0:0:0:0:
302,155,40786,2,0,P|257:149|184:183,1,105,4|0,0:2|2:0,0:0:0:0:
120,232,41234,5,4,0:2:0:0:
124,256,41346,1,8,1:0:0:0:
28,216,41570,1,4,1:2:0:0:
36,193,41682,1,8,1:0:0:0:
196,92,41906,1,4,0:2:0:0:
8,32,42130,1,4,0:2:0:0:
8,32,44823,6,0,P|51:24|141:60,1,131.25,4|0,1:0|0:0,0:0:0:0:
178,116,45128,1,0,0:0:0:0:
247,152,45229,2,0,P|289:143|318:131,1,65.625,8|0,1:0|0:0,0:0:0:0:
504,111,45433,2,0,P|475:103|443:78,1,65.625
347,28,45636,5,0,1:0:0:0:
364,73,45738,1,0,0:0:0:0:
378,121,45839,1,0,0:0:0:0:
388,169,45941,1,0,0:0:0:0:
395,218,46043,2,0,P|387:266|377:290,1,65.625,8|0,1:0|0:0,0:0:0:0:
231,354,46246,2,0,P|218:315|215:277,1,65.625,0|8,0:0|1:0,1:0:0:0:
257,176,46450,5,0,1:0:0:0:
214,151,46551,1,0,0:0:0:0:
167,137,46653,1,0,0:0:0:0:
118,135,46755,1,0,0:0:0:0:
70,146,46856,1,8,1:0:0:0:
40,109,46958,1,0,0:0:0:0:
47,61,47060,1,0,0:0:0:0:
86,34,47161,1,0,0:0:0:0:
133,44,47263,6,0,L|209:39,1,65.625,0|0,1:0|0:0,0:0:0:0:
379,44,47467,2,0,L|305:29,1,65.625
150,130,47670,2,0,L|226:125,1,65.625,8|0,1:0|0:0,0:0:0:0:
396,130,47873,2,0,L|322:115,1,65.625
167,216,48077,5,0,1:0:0:0:
214,202,48178,1,0,0:0:0:0:
263,204,48280,1,0,0:0:0:0:
309,221,48382,1,0,0:0:0:0:
347,252,48484,2,0,P|389:250|426:239,1,65.625,8|0,1:0|0:0,0:0:0:0:
480,357,48687,2,0,P|435:345|402:343,1,65.625
286,363,48890,5,0,1:0:0:0:
208,372,48992,1,0,0:0:0:0:
131,355,49094,1,0,0:0:0:0:
64,315,49195,1,0,0:0:0:0:
13,255,49297,2,0,P|13:202|21:175,1,65.625,8|0,1:0|0:0,0:0:0:0:
124,116,49500,2,0,P|137:146|143:178,1,65.625,0|8,0:0|1:0,0:0:0:0:
265,230,49701,5,0,1:0:0:0:
267,180,49802,1,0,0:0:0:0:
278,133,49904,1,0,0:0:0:0:
299,88,50005,1,0,0:0:0:0:
328,48,50107,2,0,L|413:56,1,65.625,8|0,1:0|0:0,0:0:0:0:
466,164,50310,2,0,L|380:178,1,65.625
288,306,50513,5,0,1:0:0:0:
331,328,50615,1,0,0:0:0:0:
378,341,50716,1,0,0:0:0:0:
428,342,50818,1,0,0:0:0:0:
476,332,50919,2,0,P|489:293|486:261,1,65.625,8|0,1:0|0:0,0:0:0:0:
386,111,51122,2,0,P|393:150|406:184,1,65.625
202,278,51325,5,0,1:0:0:0:
225,235,51427,1,0,0:0:0:0:
226,186,51529,1,0,0:0:0:0:
206,141,51630,1,0,0:0:0:0:
169,109,51732,1,8,1:0:0:0:
148,66,51833,1,0,0:0:0:0:
171,24,51935,1,0,0:0:0:0:
218,19,52036,1,0,0:0:0:0:
250,54,52138,6,0,P|281:55|334:44,1,65.625,0|0,1:0|0:0,0:0:0:0:
295,170,52341,2,0,P|323:159|369:131,1,65.625
376,263,52544,2,0,P|399:243|433:201,1,65.625,8|0,1:0|0:0,0:0:0:0:
483,322,52747,2,0,P|498:295|515:244,1,65.625,0|8,0:0|1:0,0:0:0:0:
295,170,52950,5,0,1:0:0:0:
256,200,53051,1,0,0:0:0:0:
226,239,53153,1,0,0:0:0:0:
206,284,53254,1,0,0:0:0:0:
197,332,53357,5,8,1:0:0:0:
222,291,53458,1,0,0:0:0:0:
214,243,53560,1,0,0:0:0:0:
178,211,53661,1,8,1:0:0:0:
130,209,53763,5,0,1:0:0:0:
138,161,53864,1,0,0:0:0:0:
175,131,53965,1,0,0:0:0:0:
223,132,54067,1,0,0:0:0:0:
260,164,54169,6,0,P|325:179|389:152,1,131.25,8|0,1:0|0:0,0:0:0:0:
456,125,54474,1,0,0:0:0:0:
505,185,54575,6,0,P|505:225|497:255,1,65.625,0|0,1:0|0:0,0:0:0:0:
262,379,54778,2,0,P|247:344|239:310,1,65.625
431,327,54991,6,0,L|316:330,1,105,8|8,1:0|1:0,0:0:0:0:
94,292,55414,1,4,0:0:0:0:
141,141,55625,1,4,0:0:0:0:
248,256,55836,1,4,0:0:0:0:
161,229,56273,5,4,0:0:0:0:
161,229,70231,6,0,P|162:183|152:132,1,78.7500030040742
112,67,70668,2,0,P|196:71|300:39,1,157.500006008148,0|0,1:1|0:0,0:0:0:0:
356,23,71322,1,0,0:0:0:0:
442,61,71540,2,0,P|451:110|451:148,1,78.7500030040742,0|0,1:0|0:0,0:0:0:0:
412,224,71977,6,0,L|515:230,1,78.7500030040742
500,322,72413,2,0,L|342:312,1,157.500006008148,0|0,1:0|0:0,0:0:0:0:
261,264,73068,1,0,0:0:0:0:
169,285,73286,2,0,L|156:178,1,78.7500030040742,0|0,1:0|0:0,0:0:0:0:
65,193,73722,6,0,L|84:349,1,157.500006008148,0|0,0:0|1:0,0:0:0:0:
170,383,74377,1,0,0:0:0:0:
254,336,74595,2,0,P|291:340|344:362,1,78.7500030040742
350,261,75031,2,0,P|383:277|425:316,1,78.7500030040742,0|0,1:0|0:0,0:0:0:0:
465,223,75468,6,0,P|490:249|517:300,1,78.7500030040742
416,304,75904,2,0,P|383:247|401:143,1,157.500006008148,0|0,1:0|0:0,0:0:0:0:
436,74,76559,1,0,0:0:0:0:
352,31,76777,1,0,1:0:0:0:
274,84,76995,1,0,0:0:0:0:
189,40,77213,6,0,L|26:34,1,157.500006008148,0|0,0:0|1:0,0:0:0:0:
10,126,77868,1,0,0:0:0:0:
51,210,78086,2,0,P|101:215|166:194,1,118.125004506111
178,185,78522,2,0,L|256:187,1,78.7500030040742,0|0,1:0|0:0,0:0:0:0:
360,256,78959,6,0,B|292:253|292:253|271:260|271:260|199:258,1,157.500006008148,0|0,0:0|1:0,0:0:0:0:
128,315,79613,1,0,0:0:0:0:
40,279,79831,2,0,P|31:212|29:133,1,118.125004506111
17,150,80268,2,0,P|25:103|24:64,1,78.7500030040742,0|0,1:0|0:0,0:0:0:0:
100,15,80704,6,2,L|222:9,1,105,2|0,3:1|0:1,0:1:0:0:
297,61,81031,1,2,3:1:0:0:
305,80,81140,2,0,P|306:119|301:139,1,52.5,2|0,3:1|0:0,0:0:0:0:
215,189,81359,2,0,P|195:154|193:133,1,52.5,2|0,3:1|0:0,0:0:0:0:
359,266,81577,2,0,L|187:273,1,157.5,2|0,3:1|0:0,0:0:0:0:
324,172,82013,2,0,P|371:180|431:183,1,105,10|0,1:0|0:0,0:0:0:0:
389,32,82450,6,0,P|269:18|211:31,1,157.5,4|0,0:1|1:0,0:0:0:0:
164,60,82898,2,0,L|16:44,1,105,8|0,1:0|0:0,0:0:0:0:
7,140,83346,1,0,0:0:0:0:
265,210,83570,1,0,0:0:0:0:
126,333,83794,2,0,P|115:278|124:221,1,105,8|0,1:0|0:0,0:0:0:0:
223,8,84242,5,0,1:0:0:0:
246,55,84354,1,0,1:0:0:0:
261,105,84466,1,0,1:0:0:0:
267,157,84578,1,0,1:0:0:0:
265,210,84690,2,0,L|405:218,1,105,8|0,1:0|1:0,0:0:0:0:
463,169,85138,2,0,P|462:108|455:53,1,105
321,47,85586,2,0,P|321:125|330:203,1,157.5,4|0,0:2|2:0,0:0:0:0:
357,278,86035,5,4,0:2:0:0:
338,296,86147,2,0,L|217:290,1,105,8|4,1:0|0:2,0:0:0:0:
160,264,86483,2,8,P|154:311|165:372,1,105,4|4,1:2|1:2,1:0:0:0:
421,360,86931,2,0,L|441:135,1,210,4|6,1:2|0:2,0:0:0:0:
439,151,87827,6,0,P|365:114|280:138,1,157.5,4|0,0:1|0:0,0:0:0:0:
302,206,88275,2,0,L|180:199,1,105,8|0,1:0|0:0,0:0:0:0:
79,95,88723,2,0,L|191:87,1,105,0|8,0:0|1:0,0:0:0:0:
202,68,89059,1,8,1:0:0:0:
220,49,89171,2,0,P|278:54|346:70,1,105
420,104,89620,5,4,1:2:0:0:
429,79,89732,1,0,0:0:0:0:
503,153,89956,1,0,0:0:0:0:
494,178,90068,1,8,1:0:0:0:
321,148,90292,1,0,0:0:0:0:
402,302,90516,2,0,L|397:190,1,105
243,232,90964,2,0,L|229:341,1,105,8|0,1:0|0:0,0:0:0:0:
90,362,91412,5,0,1:0:0:0:
85,309,91524,1,0,1:0:0:0:
81,257,91636,1,0,1:0:0:0:
77,204,91748,1,0,1:0:0:0:
73,152,91860,2,0,P|70:103|102:46,1,105,8|0,1:0|0:0,0:0:0:0:
173,122,92308,1,0,0:0:0:0:
173,122,92756,2,0,L|163:226,1,105,4|0,1:2|0:0,0:0:0:0:
323,380,93205,5,4,1:2:0:0:
334,328,93317,1,8,1:0:0:0:
490,285,93541,1,8,1:0:0:0:
501,337,93653,1,4,1:2:0:0:
374,171,93877,1,4,1:2:0:0:
334,328,94101,1,4,0:2:0:0:
313,332,94549,1,4,1:2:0:0:
292,336,94989,5,4,1:0:0:0:
246,318,95089,1,0,0:0:0:0:
197,318,95189,1,0,0:0:0:0:
151,336,95290,1,0,0:0:0:0:
116,369,95390,1,8,1:0:0:0:
137,324,95490,1,0,0:0:0:0:
149,277,95591,1,0,0:0:0:0:
151,228,95691,1,0,0:0:0:0:
143,179,95791,5,0,1:0:0:0:
125,133,95892,1,0,0:0:0:0:
98,92,95992,1,0,0:0:0:0:
63,58,96092,1,0,0:0:0:0:
22,31,96193,2,0,L|94:24,1,65.625,8|0,1:0|0:0,0:0:0:0:
373,120,96393,2,0,L|303:110,1,65.625
204,12,96594,5,0,1:0:0:0:
209,60,96694,1,0,0:0:0:0:
207,110,96795,1,0,0:0:0:0:
198,158,96895,1,0,0:0:0:0:
182,204,96995,1,8,1:0:0:0:
187,253,97096,1,0,0:0:0:0:
220,289,97196,1,0,0:0:0:0:
267,298,97296,1,0,0:0:0:0:
311,278,97397,5,0,1:0:0:0:
359,268,97497,1,0,0:0:0:0:
407,275,97597,1,0,0:0:0:0:
449,300,97698,1,0,0:0:0:0:
479,339,97798,1,8,1:0:0:0:
468,261,97898,1,0,0:0:0:0:
466,182,97999,1,0,0:0:0:0:
475,104,98099,1,8,1:0:0:0:
494,28,98199,6,0,L|416:32,1,65.625,0|0,1:0|0:0,0:0:0:0:
220,80,98400,2,0,L|292:92,1,65.625
388,204,98601,2,0,L|312:224,1,65.625,8|0,1:0|0:0,0:0:0:0:
176,312,98801,2,0,L|236:352,1,65.625
484,311,99002,5,0,1:0:0:0:
436,322,99102,1,0,0:0:0:0:
389,310,99203,1,0,0:0:0:0:
352,278,99303,1,0,0:0:0:0:
334,232,99403,2,0,P|334:191|320:156,1,65.625,8|0,1:0|0:0,0:0:0:0:
177,183,99604,2,0,P|175:215|184:247,1,65.625
256,208,99805,5,0,1:0:0:0:
256,159,99905,1,0,0:0:0:0:
230,118,100005,1,0,0:0:0:0:
185,100,100106,1,0,0:0:0:0:
137,110,100206,1,8,1:0:0:0:
89,117,100306,1,0,0:0:0:0:
45,96,100407,1,0,0:0:0:0:
20,54,100507,1,0,0:0:0:0:
23,6,100607,5,0,1:0:0:0:
50,80,100708,1,0,0:0:0:0:
63,157,100808,1,0,0:0:0:0:
61,236,100908,1,0,0:0:0:0:
44,313,101009,1,8,1:0:0:0:
121,296,101109,1,0,0:0:0:0:
199,296,101209,1,0,0:0:0:0:
276,312,101310,1,8,1:0:0:0:
348,344,101410,5,0,1:0:0:0:
379,306,101510,1,0,0:0:0:0:
396,260,101611,1,0,0:0:0:0:
397,211,101711,1,0,0:0:0:0:
382,164,101811,2,0,L|391:91,1,65.625,8|0,1:0|0:0,0:0:0:0:
277,30,102012,2,0,L|269:95,1,65.625
170,182,102213,5,0,1:0:0:0:
184,136,102313,1,0,0:0:0:0:
176,87,102413,1,0,0:0:0:0:
150,46,102514,1,0,0:0:0:0:
108,21,102614,1,8,1:0:0:0:
186,13,102714,1,0,0:0:0:0:
265,18,102815,1,0,0:0:0:0:
342,34,102915,1,0,0:0:0:0:
415,62,103015,6,0,P|449:67|490:58,1,65.625,0|0,1:0|0:0,0:0:0:0:
304,207,103216,2,0,P|325:231|353:248,1,65.625
373,145,103417,2,0,P|401:160|433:167,1,65.625,8|0,1:0|0:0,0:0:0:0:
217,241,103617,2,0,P|229:272|257:303,1,65.625
479,61,103818,5,0,1:0:0:0:
432,46,103918,1,0,0:0:0:0:
384,37,104019,1,0,0:0:0:0:
335,35,104119,1,0,0:0:0:0:
286,40,104219,1,8,1:0:0:0:
241,61,104320,1,0,0:0:0:0:
193,63,104420,1,0,0:0:0:0:
146,48,104520,1,8,1:0:0:0:
109,17,104621,5,0,1:0:0:0:
61,10,104721,1,0,0:0:0:0:
20,35,104821,1,0,0:0:0:0:
6,81,104922,1,0,0:0:0:0:
26,125,105022,1,8,1:0:0:0:
41,172,105122,1,0,0:0:0:0:
42,221,105223,1,0,0:0:0:0:
30,269,105323,1,0,0:0:0:0:
4,310,105423,6,0,L|86:325,1,65.625,0|0,1:0|0:0,0:0:0:0:
284,265,105624,2,0,L|202:275,1,65.625
76,78,105825,2,0,L|157:92,1,65.625,8|0,1:0|0:0,0:0:0:0:
355,32,106025,2,0,L|273:42,1,65.625,0|8,0:0|1:0,0:0:0:0:
166,192,106226,5,0,0:0:0:0:
211,174,106326,1,0,0:0:0:0:
261,173,106427,1,0,0:0:0:0:
309,184,106527,1,0,0:0:0:0:
351,209,106627,1,8,1:0:0:0:
395,228,106728,1,0,0:0:0:0:
442,215,106828,1,0,0:0:0:0:
471,176,106928,1,8,1:0:0:0:
468,128,107029,5,0,0:0:0:0:
492,202,107129,1,0,0:0:0:0:
468,275,107229,1,0,0:0:0:0:
404,319,107330,1,0,0:0:0:0:
327,316,107430,1,8,1:0:0:0:
250,299,107530,1,0,0:0:0:0:
172,301,107631,1,8,1:0:0:0:
96,320,107731,1,8,1:0:0:0:
27,358,107831,6,0,P|16:315|29:278,1,78.7500030040742,4|0,1:0|0:0,1:0:0:0:
141,169,108032,1,0,0:0:0:0:
218,177,108132,1,0,0:0:0:0:
295,185,108233,2,0,L|384:176,1,78.7500030040742,8|0,1:0|0:0,0:0:0:0:
497,63,108433,2,0,L|412:51,1,78.7500030040742
227,8,108634,5,0,1:0:0:0:
244,64,108734,1,0,0:0:0:0:
241,123,108835,1,0,0:0:0:0:
218,177,108935,1,0,0:0:0:0:
178,220,109035,1,8,1:0:0:0:
159,274,109136,1,0,0:0:0:0:
183,327,109236,1,0,0:0:0:0:
235,351,109336,1,0,0:0:0:0:
290,334,109437,5,0,1:0:0:0:
232,320,109537,1,0,0:0:0:0:
173,318,109637,1,0,0:0:0:0:
115,328,109738,1,0,0:0:0:0:
60,350,109838,1,8,1:0:0:0:
6,332,109938,1,0,0:0:0:0:
0,277,110039,1,0,0:0:0:0:
35,239,110139,1,0,0:0:0:0:
89,254,110239,5,0,1:0:0:0:
141,229,110340,1,0,0:0:0:0:
164,176,110440,1,0,0:0:0:0:
148,121,110540,1,0,0:0:0:0:
100,89,110641,1,8,1:0:0:0:
178,97,110741,1,0,0:0:0:0:
256,91,110841,1,0,0:0:0:0:
332,70,110942,1,8,1:0:0:0:
402,34,111042,6,0,P|440:34|486:58,1,78.7500030040742,0|0,1:0|0:0,0:0:0:0:
407,187,111243,2,0,P|371:203|332:203,1,78.7500030040742
213,57,111443,2,0,P|251:57|297:81,1,78.7500030040742,8|0,1:0|0:0,0:0:0:0:
218,210,111644,2,0,P|182:226|143:226,1,78.7500030040742
24,80,111845,5,0,1:0:0:0:
51,131,111945,1,0,0:0:0:0:
58,189,112045,1,0,0:0:0:0:
43,246,112146,1,0,0:0:0:0:
8,293,112246,1,8,1:0:0:0:
16,350,112346,1,0,0:0:0:0:
66,377,112447,1,0,0:0:0:0:
118,354,112547,1,0,0:0:0:0:
131,299,112647,5,0,1:0:0:0:
167,253,112748,1,0,0:0:0:0:
224,246,112848,1,0,0:0:0:0:
269,282,112948,1,0,0:0:0:0:
275,339,113049,1,8,1:0:0:0:
247,288,113149,1,0,0:0:0:0:
251,230,113249,1,0,0:0:0:0:
287,183,113350,1,0,0:0:0:0:
341,164,113450,5,0,1:0:0:0:
337,125,113550,1,0,0:0:0:0:
334,85,113651,1,0,0:0:0:0:
330,46,113751,1,0,0:0:0:0:
242,13,113851,5,8,1:0:0:0:
238,52,113952,1,0,0:0:0:0:
234,91,114052,1,8,1:0:0:0:
230,130,114152,1,8,1:0:0:0:
156,190,114253,6,0,L|66:197,1,78.7500030040742,4|0,1:0|0:0,0:0:0:0:
12,48,114453,2,0,L|104:64,1,78.7500030040742
361,260,114654,1,8,1:0:0:0:
307,237,114754,1,0,0:0:0:0:
248,241,114855,1,0,0:0:0:0:
198,271,114955,1,0,0:0:0:0:
167,320,115055,5,0,1:0:0:0:
178,262,115156,1,0,0:0:0:0:
171,204,115256,1,0,0:0:0:0:
148,150,115356,1,0,0:0:0:0:
110,105,115457,1,8,1:0:0:0:
107,48,115557,1,0,0:0:0:0:
149,10,115657,1,0,0:0:0:0:
205,20,115758,1,0,0:0:0:0:
232,70,115858,5,0,1:0:0:0:
286,93,115958,1,0,0:0:0:0:
345,89,116059,1,0,0:0:0:0:
396,61,116159,1,0,0:0:0:0:
429,13,116259,1,8,1:0:0:0:
483,35,116360,1,0,0:0:0:0:
509,86,116460,1,0,0:0:0:0:
497,143,116560,1,0,0:0:0:0:
450,178,116661,5,0,1:0:0:0:
482,247,116761,1,0,0:0:0:0:
450,317,116861,1,0,0:0:0:0:
377,339,116962,1,0,0:0:0:0:
312,298,117062,1,8,1:0:0:0:
241,266,117162,1,0,0:0:0:0:
163,265,117263,1,0,0:0:0:0:
91,297,117363,1,8,1:0:0:0:
39,355,117463,5,0,1:0:0:0:
43,316,117564,1,0,0:0:0:0:
46,276,117664,1,0,0:0:0:0:
50,237,117764,1,0,0:0:0:0:
117,170,117865,5,8,1:0:0:0:
121,209,117965,1,0,0:0:0:0:
124,248,118065,1,0,0:0:0:0:
128,287,118166,1,0,0:0:0:0:
194,353,118266,5,0,1:0:0:0:
247,328,118366,1,0,0:0:0:0:
305,320,118467,1,0,0:0:0:0:
363,331,118567,1,0,0:0:0:0:
415,358,118667,1,8,1:0:0:0:
472,347,118768,1,0,0:0:0:0:
503,299,118868,1,0,0:0:0:0:
489,243,118968,1,0,0:0:0:0:
439,215,119069,5,0,1:0:0:0:
476,171,119169,1,0,0:0:0:0:
468,114,119269,1,0,0:0:0:0:
420,81,119370,1,0,0:0:0:0:
365,94,119470,1,8,1:0:0:0:
308,108,119570,1,0,0:0:0:0:
249,100,119671,1,0,0:0:0:0:
199,72,119771,1,0,0:0:0:0:
161,26,119871,6,0,L|74:33,1,78.7500030040742,0|0,1:0|0:0,0:0:0:0:
2,164,120072,2,0,L|92:181,1,78.7500030040742
335,276,120273,1,8,1:0:0:0:
266,242,120373,1,0,0:0:0:0:
188,244,120473,1,8,1:0:0:0:
120,282,120574,1,8,1:0:0:0:
78,348,120674,6,0,P|35:347|0:320,1,78.7500030040742,4|0,1:0|0:0,0:0:0:0:
74,106,120875,2,0,P|117:107|152:134,1,78.7500030040742
335,276,121075,1,8,1:0:0:0:
384,305,121176,1,0,0:0:0:0:
439,289,121276,1,0,0:0:0:0:
465,238,121376,1,0,0:0:0:0:
446,184,121477,5,0,1:0:0:0:
416,135,121577,1,0,0:0:0:0:
418,77,121677,1,0,0:0:0:0:
452,29,121778,1,0,0:0:0:0:
506,9,121878,1,8,1:0:0:0:
460,45,121978,1,0,0:0:0:0:
403,60,122079,1,0,0:0:0:0:
345,53,122179,1,0,0:0:0:0:
295,23,122279,5,0,1:0:0:0:
238,10,122380,1,0,0:0:0:0:
186,35,122480,1,0,0:0:0:0:
160,87,122580,1,0,0:0:0:0:
173,144,122681,1,8,1:0:0:0:
193,198,122781,1,0,0:0:0:0:
171,252,122881,1,0,0:0:0:0:
120,277,122982,1,0,0:0:0:0:
64,261,123082,5,0,1:0:0:0:
136,230,123182,1,0,0:0:0:0:
214,227,123283,1,0,0:0:0:0:
289,251,123383,1,0,0:0:0:0:
350,300,123483,1,8,1:0:0:0:
416,336,123584,1,0,0:0:0:0:
482,298,123684,1,0,0:0:0:0:
484,223,123784,1,8,1:0:0:0:
422,181,123885,6,0,L|432:104,1,78.7500030040742,0|0,1:0|0:0,0:0:0:0:
271,25,124085,2,0,L|292:124,1,78.7500030040742
336,253,124286,2,0,L|345:175,1,78.7500030040742,8|0,1:0|0:0,0:0:0:0:
184,96,124487,2,0,L|205:195,1,78.7500030040742
249,324,124687,5,0,1:0:0:0:
202,288,124788,1,0,0:0:0:0:
144,282,124888,1,0,0:0:0:0:
92,309,124988,1,0,0:0:0:0:
62,359,125089,1,8,1:0:0:0:
22,317,125189,1,0,0:0:0:0:
11,260,125290,1,0,0:0:0:0:
35,207,125390,1,0,0:0:0:0:
84,176,125490,5,0,1:0:0:0:
119,129,125591,1,0,0:0:0:0:
119,71,125691,1,2,0:1:0:0:
84,25,125791,1,0,0:0:0:0:
29,8,125892,1,10,1:0:0:0:
54,61,125992,1,0,0:0:0:0:
102,95,126092,1,2,0:1:0:0:
159,103,126193,1,0,0:0:0:0:
214,84,126293,5,2,1:0:0:0:
276,39,126393,1,0,0:0:0:0:
346,66,126494,1,0,0:0:0:0:
363,139,126594,1,2,0:1:0:0:
311,194,126694,1,8,1:0:0:0:
294,269,126795,1,0,0:0:0:0:
335,334,126895,1,2,0:1:0:0:
410,349,126995,1,8,1:0:0:0:
474,307,127096,6,0,L|488:213,1,78.7500030040742,6|0,1:0|0:0,0:0:0:0:
288,119,127296,2,0,L|320:224,1,78.7500030040742
335,334,127497,1,10,1:0:0:0:
278,319,127597,1,0,0:0:0:0:
219,317,127698,1,2,0:1:0:0:
161,329,127798,1,8,1:0:0:0:
108,353,127898,5,2,1:0:0:0:
51,347,127999,1,0,0:0:0:0:
18,300,128099,1,0,0:0:0:0:
33,244,128199,1,2,0:1:0:0:
84,219,128300,1,8,1:0:0:0:
112,168,128400,1,0,0:0:0:0:
110,110,128500,1,2,0:1:0:0:
78,61,128601,1,8,1:0:0:0:
25,37,128701,5,6,1:0:0:0:
102,23,128801,1,0,0:0:0:0:
180,32,128902,1,0,0:0:0:0:
251,65,129002,1,0,0:0:0:0:
310,117,129102,1,10,1:0:0:0:
365,169,129203,1,0,0:0:0:0:
438,151,129303,1,0,0:0:0:0:
463,80,129403,1,8,1:0:0:0:
417,20,129504,5,6,1:0:0:0:
387,92,129604,1,0,0:0:0:0:
380,170,129704,1,0,0:0:0:0:
399,247,129805,1,0,0:0:0:0:
440,313,129905,1,10,1:0:0:0:
401,378,130005,1,0,0:0:0:0:
324,384,130106,1,2,0:1:0:0:
276,326,130206,1,10,1:0:0:0:
294,252,130306,5,4,1:0:0:0:
299,193,130407,1,0,0:0:0:0:
287,136,130507,1,0,0:0:0:0:
257,85,130607,1,0,0:0:0:0:
213,46,130708,1,10,1:0:0:0:
233,99,130808,1,0,0:0:0:0:
288,112,130908,1,0,0:0:0:0:
330,74,131009,1,8,1:0:0:0:
322,18,131109,6,0,L|416:23,1,78.7500030040742,4|0,1:0|0:0,0:0:0:0:
509,200,131310,2,0,L|422:213,1,78.7500030040742
300,99,131510,2,0,L|393:103,1,78.7500030040742,8|0,1:0|0:0,0:0:0:0:
486,280,131711,2,0,L|399:293,1,78.7500030040742,0|8,0:0|1:0,0:0:0:0:
277,179,131912,5,4,1:2:0:0:
468,49,132112,1,4,1:2:0:0:
486,280,132313,1,8,1:0:0:0:
275,176,132514,5,4,1:2:0:0:
451,27,132714,1,4,1:2:0:0:
493,255,132915,1,4,1:2:0:0:
273,174,133116,5,8,1:0:0:0:
433,8,133316,1,4,1:2:0:0:
499,230,133525,5,4,1:0:0:0:
256,192,133634,12,0,135270,0:0:0:0:
