osu file format v14

[General]
AudioFilename: Arctic+Monkeys+-+Balaclava.mp3
AudioLeadIn: 700
PreviewTime: 42803
Countdown: 0
SampleSet: Soft
StackLeniency: 0.3
Mode: 0
LetterboxInBreaks: 0
WidescreenStoryboard: 0

[Editor]
DistanceSpacing: 0.8
BeatDivisor: 4
GridSize: 4
TimelineZoom: 1

[Metadata]
Title:Balaclava
TitleUnicode:Balaclava
Artist:Arctic Monkeys
ArtistUnicode:Arctic Monkeys
Creator:Priti
Version:Expert
Source:
Tags:Favourite Worst Nightmare Indie Rock
BeatmapID:708140
BeatmapSetID:298913

[Difficulty]
HPDrainRate:6.5
CircleSize:4.2
OverallDifficulty:8.5
ApproachRate:9.2
SliderMultiplier:1.9
SliderTickRate:1

[Events]
//Background and Video events
0,0,"Arctic_Monkeys_Favourite_Worst_Nightmare_1.jpg",0,0
//Break Periods
2,42803,44253
2,56473,69661
//Storyboard Layer 0 (Background)
//Storyboard Layer 1 (Fail)
//Storyboard Layer 2 (Pass)
//Storyboard Layer 3 (Foreground)
//Storyboard Sound Samples

[TimingPoints]
1751,437.956204379562,4,2,2,40,1,0
15765,404.040404040404,4,3,1,50,1,0
15765,-80,4,3,1,50,0,0
28684,448.232842020335,4,3,1,60,1,0
44823,406.779661016949,4,3,1,50,1,0
44823,-80,4,3,1,50,0,0
49701,406.2288422478,4,3,1,50,1,0
49701,-80,4,3,1,50,0,0
54991,422.535211267606,4,3,1,50,1,0
55836,437.956204379562,4,3,1,50,1,0
56273,433.212996389892,4,2,1,60,1,0
58005,435.57168784029,4,2,1,60,1,0
59747,439.56043956044,4,2,1,60,1,0
61505,436.363636363636,4,2,2,40,1,0
63250,436.363636363636,4,2,2,40,1,0
70231,-133.333333333333,4,2,2,40,0,0
80704,-100,4,2,2,40,0,0
80922,-100,4,2,2,20,0,0
81031,-100,4,2,2,40,0,0
81249,-100,4,2,2,20,0,0
81359,-100,4,2,2,40,0,0
81468,-100,4,2,2,20,0,0
81577,-100,4,2,2,40,0,0
81795,-100,4,2,2,20,0,0
82014,-100,4,2,1,60,0,0
82450,448.125714200357,4,3,1,50,1,0
94989,401.33779264214,4,3,1,50,1,0
94989,-80,4,3,1,50,0,0
107831,-71.4285714285714,4,3,1,50,0,1
131912,-71.4285714285714,4,3,1,40,0,1
133525,436.363636363636,4,2,1,40,1,0

[Colours]
Combo1 : 216,209,171
Combo2 : 148,172,190
Combo3 : 202,162,142
Combo4 : 154,172,134

[HitObjects]
92,101,1751,6,0,P|147:90|200:100,1,95,0|0,3:0|0:0,0:0:0:0:
264,147,2188,2,0,L|249:347,1,190,0|0,3:0|3:0,0:0:0:0:
171,281,2845,1,0,0:0:0:0:
341,202,3064,1,0,3:0:0:0:
185,95,3283,1,0,0:0:0:0:
161,98,3393,1,0,0:0:0:0:
138,101,3502,6,0,L|16:92,1,95,0|0,3:0|0:0,0:0:0:0:
10,181,3831,1,0,0:0:0:0:
28,198,3940,2,0,L|88:189,2,47.5,0|0|0,3:0|0:0|0:0,0:0:0:0:
2,306,4378,2,0,P|68:307|214:326,1,190,0|0,3:0|3:0,0:0:0:0:
297,185,5254,6,0,P|249:186|204:198,1,95,0|0,3:0|0:0,0:0:0:0:
70,259,5692,2,0,P|36:197|49:167,1,95,0|0,3:0|0:0,0:0:0:0:
194,64,6130,2,0,L|-7:50,1,190,0|0,3:0|3:0,0:0:0:0:
96,25,6787,1,0,0:0:0:0:
41,178,7006,6,0,B|34:221|34:221|65:264,1,95,0|0,3:0|0:0,0:0:0:0:
120,307,7334,2,0,P|170:295|213:312,1,95
269,349,7663,1,0,0:0:0:0:
126,197,7882,2,0,L|135:301,1,95,0|0,3:0|0:0,0:0:0:0:
269,349,8320,2,0,L|294:241,1,95,0|0,3:0|0:0,0:0:0:0:
232,134,8758,6,0,B|116:103|170:158|45:132,1,190,0|0,3:0|3:0,0:0:0:0:
35,110,9305,1,0,0:0:0:0:
136,16,9524,1,0,0:0:0:0:
152,32,9634,2,0,L|275:17,1,95,0|0,3:0|0:0,0:0:0:0:
469,73,10072,2,0,L|361:61,1,95,0|0,3:0|0:0,0:0:0:0:
275,116,10400,1,0,0:0:0:0:
268,140,10510,6,0,B|324:183|324:183|391:159,1,142.5,0|0,3:0|0:0,0:0:0:0:
340,48,10948,2,0,P|301:27|228:35,1,95,0|0,3:0|0:0,0:0:0:0:
78,126,11386,2,0,L|268:140,1,190,0|0,3:0|3:0,0:0:0:0:
406,241,12042,1,0,0:0:0:0:
408,264,12152,1,0,0:0:0:0:
401,286,12261,6,0,L|293:290,1,95,0|0,3:0|0:0,0:0:0:0:
97,176,12699,2,0,L|201:184,1,95,0|0,3:0|0:0,0:0:0:0:
301,55,13137,2,0,P|242:33|196:39,1,95,0|0,3:0|0:0,0:0:0:0:
160,264,13575,2,0,P|225:260|262:233,1,95,0|0,3:0|0:0,0:0:0:0:
357,138,14013,5,0,3:0:0:0:
363,160,14123,1,0,0:0:0:0:
468,200,14342,2,0,L|485:86,2,95
484,216,14889,2,0,P|496:259|486:322,1,95,0|0,3:0|0:0,0:0:0:0:
363,160,15327,1,4,3:0:0:0:
363,160,15765,6,0,L|242:152,1,118.75,4|0,1:0|0:0,0:0:0:0:
51,274,16169,2,0,P|116:289|169:244,1,118.75,8|0,1:0|0:0,0:0:0:0:
116,136,16472,1,0,0:0:0:0:
96,159,16573,6,0,L|100:219,1,59.375,0|0,1:0|0:0,0:0:0:0:
146,321,16775,2,0,L|157:263,1,59.375
205,89,16977,2,0,P|214:153|202:223,1,118.75,8|0,1:0|0:0,0:0:0:0:
20,41,17381,6,0,L|138:31,1,118.75,0|0,1:0|0:0,0:0:0:0:
176,56,17684,1,0,0:0:0:0:
205,89,17785,2,0,L|200:154,2,59.375,8|0|0,1:0|0:0|0:0,0:0:0:0:
343,32,18189,5,0,1:0:0:0:
350,75,18290,1,0,0:0:0:0:
357,119,18391,1,0,0:0:0:0:
505,49,18593,1,8,1:0:0:0:
357,119,18795,1,0,0:0:0:0:
364,162,18896,1,8,1:0:0:0:
371,206,18997,6,0,P|380:271|340:310,1,118.75,0|0,1:0|0:0,0:0:0:0:
117,224,19401,2,0,P|176:213|235:215,1,118.75,8|0,1:0|0:0,0:0:0:0:
276,231,19704,1,0,0:0:0:0:
317,247,19805,5,0,1:0:0:0:
228,335,20007,1,0,0:0:0:0:
59,275,20209,2,0,L|74:154,1,118.75,8|0,1:0|0:0,0:0:0:0:
240,77,20613,6,0,B|181:92|181:92|128:53,1,118.75,0|0,1:0|0:0,0:0:0:0:
298,26,20916,1,0,0:0:0:0:
313,51,21017,2,0,P|317:92|303:118,1,59.375,8|0,1:0|0:0,0:0:0:0:
246,243,21219,2,0,L|305:247,1,59.375
464,180,21421,5,0,1:0:0:0:
440,217,21522,1,0,0:0:0:0:
439,261,21623,1,0,0:0:0:0:
461,298,21724,1,0,0:0:0:0:
499,318,21825,2,0,B|421:322|421:322|401:336|401:336|326:340,1,178.125,8|8,1:0|1:0,0:0:0:0:
246,243,22229,6,0,P|307:223|366:253,1,118.75,0|0,1:0|0:0,0:0:0:0:
400,361,22532,1,0,0:0:0:0:
426,348,22633,2,0,L|436:277,1,59.375,8|0,1:0|0:0,0:0:0:0:
470,97,22835,2,0,L|488:171,1,59.375
347,252,23037,5,0,1:0:0:0:
332,209,23138,1,0,0:0:0:0:
334,165,23239,1,0,0:0:0:0:
351,124,23340,1,0,0:0:0:0:
381,92,23441,2,0,P|393:53|336:-1,1,118.75,8|0,1:0|0:0,0:0:0:0:
103,83,23845,6,0,L|163:88,1,59.375,0|0,1:0|0:0,0:0:0:0:
255,169,24047,1,0,0:0:0:0:
240,194,24148,1,0,0:0:0:0:
225,219,24249,2,0,L|152:225,2,59.375,8|0|0,1:0|0:0|0:0,0:0:0:0:
346,102,24653,5,0,1:0:0:0:
328,142,24754,1,0,0:0:0:0:
330,186,24855,1,0,0:0:0:0:
351,225,24956,1,0,0:0:0:0:
387,251,25057,2,0,L|506:256,1,118.75,8|0,1:0|0:0,0:0:0:0:
500,140,25360,1,0,0:0:0:0:
483,163,25461,6,0,L|423:160,1,59.375,0|0,1:0|0:0,0:0:0:0:
286,104,25663,2,0,L|346:102,1,59.375
334,198,25866,2,0,L|274:195,1,59.375,8|0,1:0|0:0,0:0:0:0:
137,139,26068,2,0,L|196:136,1,59.375
184,231,26270,6,0,L|58:226,1,118.75,0|0,1:0|0:0,0:0:0:0:
131,35,26674,2,0,P|186:19|247:27,1,118.75,8|0,1:0|0:0,0:0:0:0:
386,225,27078,5,0,1:0:0:0:
355,193,27179,1,0,0:0:0:0:
344,150,27280,1,0,0:0:0:0:
356,108,27381,1,0,0:0:0:0:
387,77,27482,2,0,L|456:82,2,59.375,8|0|0,1:0|0:0|0:0,0:0:0:0:
251,168,27886,5,0,1:0:0:0:
210,186,27987,1,0,0:0:0:0:
166,185,28088,1,0,0:0:0:0:
127,165,28189,1,0,0:0:0:0:
99,131,28290,2,0,L|25:141,1,59.375,8|0,1:0|0:0,0:0:0:0:
109,289,28492,1,8,1:0:0:0:
168,295,28593,1,8,1:0:0:0:
227,301,28684,6,0,B|312:316|279:284|375:305,1,142.5,4|0,1:0|0:0,0:0:0:0:
448,331,29132,2,0,L|462:223,1,95,0|0,1:0|0:0,0:0:0:0:
385,115,29580,1,0,0:0:0:0:
385,115,30028,1,8,1:0:0:0:
385,115,30476,5,0,0:0:0:0:
368,131,30588,2,0,P|322:136|276:106,1,95
298,95,30925,2,0,L|183:104,1,95,8|0,1:0|0:0,0:0:0:0:
119,207,31373,2,0,L|231:219,1,95
324,187,31821,1,8,1:0:0:0:
350,279,32045,1,0,0:0:0:0:
298,95,32269,5,0,0:0:0:0:
262,92,32381,1,0,0:0:0:0:
226,89,32493,1,0,0:0:0:0:
191,87,32606,1,0,0:0:0:0:
155,84,32718,1,8,1:0:0:0:
73,133,32942,1,0,0:0:0:0:
215,260,33166,1,0,0:0:0:0:
62,38,33614,1,4,1:2:0:0:
202,293,34062,5,4,0:2:0:0:
215,260,34174,1,8,1:0:0:0:
54,296,34398,1,4,0:2:0:0:
67,329,34511,1,8,1:0:0:0:
125,191,34735,1,4,0:2:0:0:
148,369,34959,1,4,0:2:0:0:
148,369,35407,1,6,0:2:0:0:
148,369,35855,6,0,L|296:355,1,142.5,4|0,1:0|0:0,0:0:0:0:
230,240,36303,2,0,L|216:334,1,95,8|0,1:0|0:0,0:0:0:0:
84,278,36752,2,0,P|72:223|70:173,1,95
140,60,37200,1,10,1:0:0:0:
140,60,37648,5,4,0:2:0:0:
173,71,37760,1,0,0:0:0:0:
115,180,37984,1,0,0:0:0:0:
82,191,38096,1,8,1:0:0:0:
46,71,38321,2,0,L|154:58,1,95
334,134,38769,1,8,1:0:0:0:
254,25,38993,1,4,0:0:0:0:
254,25,39217,1,4,0:0:0:0:
289,243,39441,5,0,0:0:0:0:
321,229,39553,1,0,0:0:0:0:
342,201,39665,1,0,0:0:0:0:
347,166,39777,1,0,0:0:0:0:
334,134,39889,2,0,L|217:143,1,95,8|0,1:0|0:0,0:0:0:0:
121,60,40338,1,0,0:0:0:0:
121,60,40786,1,4,1:2:0:0:
121,60,41234,5,4,0:2:0:0:
111,94,41346,1,8,1:0:0:0:
265,171,41570,1,4,0:2:0:0:
255,137,41682,1,8,1:0:0:0:
145,240,41906,1,4,0:2:0:0:
1,196,42130,1,4,0:2:0:0:
1,196,44823,6,0,L|123:203,1,118.75,4|0,1:0|0:0,0:0:0:0:
327,280,45229,2,0,P|277:310|220:301,1,118.75,8|0,1:0|0:0,0:0:0:0:
213,82,45636,5,0,1:0:0:0:
250,106,45738,1,0,0:0:0:0:
273,144,45839,1,0,0:0:0:0:
277,188,45941,1,0,0:0:0:0:
262,230,46043,2,0,B|254:317|254:317|333:367,1,178.125,8|8,1:0|1:0,0:0:0:0:
445,269,46450,6,0,L|327:280,1,118.75,0|0,1:0|0:0,0:0:0:0:
326,175,46755,1,0,0:0:0:0:
349,193,46856,2,0,L|408:187,1,59.375,8|0,1:0|0:0,0:0:0:0:
481,84,47060,2,0,L|411:77,1,59.375
288,88,47263,5,0,1:0:0:0:
244,99,47365,1,0,0:0:0:0:
200,92,47467,1,0,0:0:0:0:
163,70,47568,1,0,0:0:0:0:
139,32,47670,2,0,P|124:92|126:164,1,118.75,8|0,1:0|0:0,0:0:0:0:
313,187,48077,6,0,B|329:130|329:130|286:87,1,118.75,0|0,1:0|0:0,0:0:0:0:
253,240,48382,1,0,0:0:0:0:
272,262,48484,2,0,L|330:269,1,59.375,8|0,1:0|0:0,0:0:0:0:
415,240,48687,1,0,0:0:0:0:
296,350,48890,5,0,1:0:0:0:
251,353,48992,1,0,0:0:0:0:
207,356,49094,1,0,0:0:0:0:
77,226,49297,1,8,1:0:0:0:
121,220,49399,1,0,0:0:0:0:
166,220,49500,1,0,0:0:0:0:
210,227,49602,1,8,1:0:0:0:
253,240,49701,6,0,L|392:233,1,118.75,0|0,1:0|0:0,0:0:0:0:
338,105,50005,1,0,0:0:0:0:
318,127,50107,2,0,L|308:204,2,59.375,8|0|0,1:0|0:0|0:0,0:0:0:0:
434,0,50513,5,0,1:0:0:0:
449,41,50615,1,0,0:0:0:0:
450,85,50716,1,0,0:0:0:0:
438,128,50818,1,0,0:0:0:0:
412,164,50919,1,8,1:0:0:0:
390,201,51021,1,0,0:0:0:0:
400,244,51122,1,0,0:0:0:0:
437,266,51224,1,0,0:0:0:0:
479,257,51325,6,0,L|465:381,1,118.75,0|0,1:0|0:0,0:0:0:0:
301,299,51732,2,0,P|286:228|289:167,1,118.75,8|0,1:0|0:0,0:0:0:0:
289,41,52036,1,0,0:0:0:0:
270,18,52138,6,0,L|192:25,1,59.375,0|0,1:0|0:0,0:0:0:0:
74,102,52341,2,0,L|157:109,1,59.375
231,174,52544,1,8,1:0:0:0:
236,218,52646,1,0,0:0:0:0:
227,261,52747,1,0,0:0:0:0:
206,300,52849,1,8,1:0:0:0:
175,331,52950,6,0,L|105:324,1,59.375,0|0,1:0|0:0,0:0:0:0:
84,233,53153,2,0,L|143:238,1,59.375
185,337,53357,2,0,L|114:334,1,59.375,8|0,1:0|0:0,0:0:0:0:
88,246,53560,2,0,L|147:247,1,59.375,0|8,0:0|1:0,0:0:0:0:
197,343,53763,6,0,L|56:348,1,118.75,0|0,1:0|0:0,0:0:0:0:
15,181,54169,1,8,1:0:0:0:
53,159,54271,1,0,0:0:0:0:
96,148,54372,1,0,0:0:0:0:
141,147,54474,1,0,0:0:0:0:
184,156,54575,2,0,L|195:88,2,59.375,0|0|0,1:0|0:0|0:0,0:0:0:0:
379,213,54981,5,8,1:0:0:0:
340,27,55202,1,8,1:0:0:0:
452,100,55413,1,4,0:0:0:0:
266,139,55624,1,4,0:0:0:0:
340,27,55836,1,4,0:0:0:0:
379,213,56273,5,4,0:0:0:0:
392,208,70231,6,0,B|306:227|334:193|250:210,1,142.500005435944,0|0,0:0|1:0,0:0:0:0:
185,236,70886,1,0,0:0:0:0:
263,138,71104,2,0,P|295:151|317:179,1,71.2500027179719
185,236,71540,2,0,P|180:200|193:167,1,71.2500027179719,0|0,1:0|0:0,0:0:0:0:
309,255,71977,6,0,L|472:246,1,142.500005435944,0|0,0:0|1:0,0:0:0:0:
505,293,72631,1,0,0:0:0:0:
415,351,72849,2,0,L|331:343,1,71.2500027179719
239,267,73286,2,0,P|273:257|309:255,1,71.2500027179719,0|0,1:0|0:0,0:0:0:0:
416,268,73722,6,0,P|420:212|416:112,1,142.500005435944,0|0,0:0|1:0,0:0:0:0:
384,64,74377,1,0,0:0:0:0:
312,76,74595,2,0,L|216:64,1,71.2500027179719
109,114,75031,2,0,L|180:108,1,71.2500027179719,0|0,1:0|0:0,0:0:0:0:
360,183,75468,6,0,B|296:179|296:179|284:167|284:167|216:163,1,142.500005435944,0|0,0:0|1:0,0:0:0:0:
149,235,76122,1,0,0:0:0:0:
220,306,76340,2,0,P|241:277|247:242,1,71.2500027179719
123,171,76777,2,0,P|128:205|149:234,1,71.2500027179719,0|0,1:0|0:0,0:0:0:0:
200,132,77213,6,0,L|41:119,1,142.500005435944,0|0,0:0|1:0,0:0:0:0:
31,54,77868,1,0,0:0:0:0:
139,13,78086,2,0,L|147:95,1,71.2500027179719
293,202,78522,2,0,L|307:132,1,71.2500027179719,0|0,1:0|0:0,0:0:0:0:
359,83,78959,6,0,P|413:77|502:82,1,142.500005435944,0|0,0:0|1:0,0:0:0:0:
492,268,79613,1,0,0:0:0:0:
429,233,79831,2,0,P|412:201|412:166,1,71.2500027179719
466,348,80268,2,0,L|369:343,1,71.2500027179719,0|0,1:0|0:0,0:0:0:0:
204,214,80704,6,0,P|260:196|317:214,1,95,2|0,3:1|0:0,0:0:0:0:
286,356,81031,1,2,3:1:0:0:
268,340,81140,2,0,L|261:280,1,47.5,2|0,3:1|0:0,0:0:0:0:
300,155,81359,2,0,L|293:215,1,47.5,2|0,3:1|0:0,0:0:0:0:
109,223,81577,2,0,L|218:213,1,95,2|0,3:1|0:0,0:0:0:0:
289,21,82013,2,0,L|180:8,1,95,10|0,1:0|0:0,0:0:0:0:
14,151,82450,6,0,P|70:155|166:131,1,142.5,4|0,1:0|0:0,0:0:0:0:
226,90,82898,1,8,1:0:0:0:
109,223,83122,2,0,L|117:326,1,95
223,356,83570,1,0,0:0:0:0:
215,148,83794,2,0,L|203:243,1,95,8|0,1:0|0:0,0:0:0:0:
222,356,84242,5,0,0:0:0:0:
248,331,84354,1,0,0:0:0:0:
281,317,84466,1,0,0:0:0:0:
316,313,84578,1,0,0:0:0:0:
350,322,84690,2,0,L|463:311,1,95,8|0,1:0|0:0,0:0:0:0:
502,159,85138,1,0,0:0:0:0:
502,159,85586,2,0,P|446:156|406:142,1,95,4|0,1:2|0:0,0:0:0:0:
299,52,86035,5,8,1:0:0:0:
322,46,86147,1,4,0:2:0:0:
262,175,86371,1,4,0:2:0:0:
240,165,86483,1,8,1:0:0:0:
86,83,86707,2,0,L|210:74,1,95,4|4,0:2|0:2,0:0:0:0:
180,76,87379,1,6,0:2:0:0:
180,76,87827,6,0,P|192:149|194:226,1,142.5,4|0,1:0|0:0,0:0:0:0:
154,293,88275,2,0,B|148:339|148:339|187:372,1,95,8|0,1:0|0:0,0:0:0:0:
372,278,88723,2,0,L|268:274,1,95,0|8,0:0|1:0,0:0:0:0:
259,290,89059,1,0,0:0:0:0:
241,305,89171,1,0,0:0:0:0:
433,353,89395,1,0,0:0:0:0:
386,168,89620,5,4,1:2:0:0:
368,183,89732,2,0,P|367:230|372:278,1,95
443,325,90068,1,8,1:0:0:0:
301,348,90292,1,0,0:0:0:0:
274,174,90516,2,0,P|321:175|368:183,1,95
391,337,90964,2,0,P|338:356|300:348,1,95,8|0,1:0|0:0,0:0:0:0:
227,195,91412,5,0,0:0:0:0:
262,192,91524,1,0,0:0:0:0:
297,189,91636,1,0,0:0:0:0:
333,186,91748,1,0,0:0:0:0:
368,183,91860,2,0,B|381:133|381:133|354:83,1,95,8|0,1:0|0:0,0:0:0:0:
213,6,92308,2,0,L|228:209,1,190,0|4,0:0|1:2,0:0:0:0:
85,299,93205,5,4,0:2:0:0:
79,275,93317,1,8,1:0:0:0:
227,195,93541,1,4,0:2:0:0:
221,219,93653,1,8,1:0:0:0:
70,144,93877,1,4,0:2:0:0:
192,33,94101,1,4,0:2:0:0:
85,299,94549,1,4,1:2:0:0:
70,144,94989,6,0,L|141:140,1,59.375,4|0,1:0|0:0,0:0:0:0:
380,111,95189,2,0,L|306:98,1,59.375
214,27,95390,1,8,1:0:0:0:
218,71,95490,1,0,0:0:0:0:
222,115,95591,1,0,0:0:0:0:
227,159,95691,1,0,0:0:0:0:
231,204,95791,6,0,L|217:265,2,59.375,0|0|0,1:0|0:0|0:0,0:0:0:0:
380,111,96193,2,0,L|398:254,1,118.75,8|0,1:0|0:0,0:0:0:0:
415,249,96494,1,0,0:0:0:0:
435,269,96594,6,0,P|431:306|416:335,1,59.375,0|0,1:0|0:0,0:0:0:0:
307,360,96795,2,0,P|296:332|294:303,1,59.375
321,187,96995,1,8,1:0:0:0:
277,179,97096,1,0,0:0:0:0:
232,174,97196,1,0,0:0:0:0:
188,171,97296,1,0,0:0:0:0:
143,172,97397,6,0,P|76:168|42:121,1,118.75,0|0,1:0|0:0,0:0:0:0:
173,14,97798,1,8,1:0:0:0:
217,10,97898,1,0,0:0:0:0:
261,7,97999,1,0,0:0:0:0:
285,62,98099,1,8,1:0:0:0:
252,111,98199,6,0,P|259:154|277:189,1,59.375,0|0,1:0|0:0,0:0:0:0:
386,215,98400,2,0,P|395:180|398:140,1,59.375
312,298,98601,1,8,1:0:0:0:
356,300,98701,1,0,0:0:0:0:
400,302,98801,1,0,0:0:0:0:
445,304,98902,1,0,0:0:0:0:
489,306,99002,6,0,P|501:231|496:176,1,118.75,0|0,1:0|0:0,0:0:0:0:
347,114,99403,2,0,P|351:180|412:224,1,118.75,8|0,1:0|0:0,0:0:0:0:
493,164,99704,1,0,0:0:0:0:
482,137,99805,6,0,L|422:141,1,59.375,0|0,1:0|0:0,0:0:0:0:
192,106,100005,1,0,0:0:0:0:
203,79,100106,1,0,0:0:0:0:
214,52,100206,2,0,L|274:56,1,59.375,8|0,1:0|0:0,0:0:0:0:
361,272,100407,1,0,0:0:0:0:
350,245,100507,1,0,0:0:0:0:
339,218,100607,6,0,L|217:226,1,118.75,0|0,1:0|0:0,0:0:0:0:
83,91,101009,2,0,B|117:110|154:89|154:89|174:107|174:107|211:86|247:107,1,178.125,8|8,1:0|1:0,0:0:0:0:
220,225,101410,6,0,P|211:193|211:166,1,59.375,0|0,1:0|0:0,0:0:0:0:
350,109,101611,2,0,P|346:138|335:165,1,59.375
254,14,101811,1,8,1:0:0:0:
298,12,101912,1,0,0:0:0:0:
342,10,102012,1,0,0:0:0:0:
387,8,102112,1,0,0:0:0:0:
431,6,102213,6,0,B|424:133,1,118.75,0|0,1:0|0:0,0:0:0:0:
345,263,102614,1,8,1:0:0:0:
338,219,102714,1,0,0:0:0:0:
331,174,102815,1,0,0:0:0:0:
394,328,103015,6,0,P|331:343|281:312,1,118.75,0|0,1:0|0:0,0:0:0:0:
233,270,103316,1,0,0:0:0:0:
162,281,103417,2,0,L|94:275,1,59.375,8|0,1:0|0:0,0:0:0:0:
36,175,103617,2,0,L|104:166,1,59.375
233,44,103818,5,0,1:0:0:0:
189,34,103918,1,0,0:0:0:0:
145,28,104019,1,0,0:0:0:0:
100,26,104119,1,0,0:0:0:0:
56,27,104219,2,0,P|47:58|50:99,1,59.375,8|0,1:0|0:0,0:0:0:0:
132,225,104420,1,0,0:0:0:0:
162,174,104520,1,8,1:0:0:0:
159,114,104621,6,0,P|213:114|290:121,1,118.75,0|0,1:0|0:0,0:0:0:0:
343,147,104922,1,0,0:0:0:0:
389,200,105022,2,0,P|427:192|450:172,1,59.375,8|0,1:0|0:0,0:0:0:0:
495,38,105223,2,0,P|451:25|426:25,1,59.375
326,67,105423,5,0,1:0:0:0:
284,82,105524,1,0,0:0:0:0:
240,79,105624,1,0,0:0:0:0:
201,59,105724,1,0,0:0:0:0:
173,24,105825,2,0,L|51:33,1,118.75,8|0,1:0|0:0,0:0:0:0:
13,137,106126,1,8,1:0:0:0:
25,163,106226,6,0,L|86:169,2,59.375,0|0|0,1:0|0:0|0:0,0:0:0:0:
240,79,106627,2,0,B|260:181|219:149|244:263,1,178.125,8|8,1:0|1:0,0:0:0:0:
290,330,107029,6,0,L|349:324,1,59.375,0|0,1:0|0:0,0:0:0:0:
475,238,107229,2,0,L|387:228,1,59.375
351,105,107430,2,0,P|376:98|416:104,1,59.375,8|0,1:0|0:0,0:0:0:0:
261,177,107631,1,8,1:0:0:0:
246,119,107731,1,8,1:0:0:0:
252,61,107831,6,0,P|195:46|93:66,1,132.999995941162,4|0,1:0|0:0,0:0:0:0:
53,239,108233,2,0,P|106:273|177:261,1,132.999995941162,8|0,1:0|0:0,0:0:0:0:
246,233,108534,1,0,0:0:0:0:
321,258,108634,6,0,L|313:336,1,66.4999979705811,0|0,1:0|0:0,0:0:0:0:
428,358,108835,2,0,L|416:278,1,66.4999979705811
375,139,109035,2,0,P|438:141|522:153,1,132.999995941162,8|0,1:0|0:0,0:0:0:0:
246,233,109437,5,0,1:0:0:0:
224,188,109537,1,0,0:0:0:0:
217,139,109637,1,0,0:0:0:0:
225,90,109738,1,0,0:0:0:0:
249,46,109838,2,0,P|185:48|102:60,1,132.999995941162,8|0,1:0|0:0,0:0:0:0:
185,218,110239,6,0,P|213:235|245:233,1,66.4999979705811,0|0,1:0|0:0,0:0:0:0:
380,189,110440,2,0,P|386:216|386:259,1,66.4999979705811
228,349,110641,2,0,B|291:340|330:360|330:360|329:339|329:339|359:360|400:355,1,199.499993911743,8|8,1:0|1:0,0:0:0:0:
509,233,111042,6,0,P|447:223|389:252,1,132.999995941162,0|0,1:0|0:0,0:0:0:0:
309,273,111343,1,0,0:0:0:0:
240,232,111443,2,0,P|239:176|250:146,2,66.4999979705811,8|0|0,1:0|0:0|0:0,0:0:0:0:
378,353,111845,5,0,1:0:0:0:
387,304,111945,1,0,0:0:0:0:
386,254,112045,1,0,0:0:0:0:
375,205,112146,1,0,0:0:0:0:
355,160,112246,2,0,P|352:107|424:49,1,132.999995941162,8|0,1:0|0:0,0:0:0:0:
454,311,112647,6,0,L|321:297,1,132.999995941162,0|0,1:0|0:0,0:0:0:0:
144,210,112948,1,0,0:0:0:0:
172,228,113049,2,0,L|244:219,1,66.4999979705811,8|0,1:0|0:0,0:0:0:0:
313,99,113249,2,0,P|275:85|238:84,1,66.4999979705811
71,159,113450,5,0,1:0:0:0:
77,126,113550,1,0,0:0:0:0:
75,93,113651,1,0,0:0:0:0:
65,61,113751,1,0,0:0:0:0:
47,34,113851,5,8,1:0:0:0:
22,95,113952,1,0,0:0:0:0:
20,161,114052,1,8,1:0:0:0:
42,223,114152,1,8,1:0:0:0:
85,273,114253,6,0,L|249:265,1,132.999995941162,4|0,1:0|0:0,0:0:0:0:
310,128,114654,2,0,L|174:110,1,132.999995941162,8|0,1:0|0:0,0:0:0:0:
43,69,114955,1,0,0:0:0:0:
22,95,115055,6,0,P|21:133|38:176,1,66.4999979705811,0|0,1:0|0:0,0:0:0:0:
154,253,115256,2,0,P|175:225|184:192,1,66.4999979705811
148,51,115457,1,8,1:0:0:0:
195,37,115557,1,0,0:0:0:0:
245,31,115657,1,0,0:0:0:0:
295,32,115758,1,0,0:0:0:0:
344,41,115858,6,0,P|387:38|425:23,2,66.4999979705811,0|0|0,1:0|0:0|0:0,0:0:0:0:
276,154,116259,2,0,P|362:161|430:181,1,132.999995941162,8|0,1:0|0:0,0:0:0:0:
455,236,116560,1,0,0:0:0:0:
449,316,116661,6,0,P|405:327|380:324,1,66.4999979705811,0|0,1:0|0:0,0:0:0:0:
256,261,116861,1,0,0:0:0:0:
258,227,116962,1,0,0:0:0:0:
261,194,117062,1,8,1:0:0:0:
263,161,117162,1,0,0:0:0:0:
266,128,117263,2,0,L|253:50,1,66.4999979705811,0|8,0:0|1:0,0:0:0:0:
140,20,117463,6,0,L|128:158,1,132.999995941162,0|0,1:0|0:0,0:0:0:0:
146,230,117764,1,0,0:0:0:0:
164,308,117865,2,0,P|200:321|233:321,1,66.4999979705811,8|0,1:0|0:0,0:0:0:0:
324,180,118065,2,0,P|290:181|260:193,1,66.4999979705811
417,332,118266,5,0,1:0:0:0:
410,282,118366,1,0,0:0:0:0:
413,232,118467,1,0,0:0:0:0:
424,184,118567,1,0,0:0:0:0:
443,138,118667,1,8,1:0:0:0:
458,91,118768,1,0,0:0:0:0:
439,46,118868,1,0,0:0:0:0:
396,25,118968,1,0,0:0:0:0:
348,38,119069,6,0,L|268:32,2,66.4999979705811,0|0|0,1:0|0:0|0:0,0:0:0:0:
443,138,119470,2,0,L|270:148,1,132.999995941162,8|0,1:0|0:0,0:0:0:0:
200,80,119771,1,0,0:0:0:0:
180,106,119871,6,0,P|171:138|178:174,1,66.4999979705811,0|0,1:0|0:0,0:0:0:0:
287,314,120072,2,0,L|298:227,1,66.4999979705811
200,80,120273,1,8,1:0:0:0:
254,117,120373,1,0,0:0:0:0:
319,124,120473,1,8,1:0:0:0:
380,99,120574,1,8,1:0:0:0:
420,47,120674,6,0,P|451:50|503:72,3,66.4999979705811,4|0|0|0,1:0|0:0|0:0|0:0,0:0:0:0:
503,171,121075,2,0,L|349:162,1,132.999995941162,8|0,1:0|0:0,0:0:0:0:
383,242,121376,1,0,0:0:0:0:
397,321,121477,6,0,L|477:315,1,66.4999979705811,0|0,1:0|0:0,0:0:0:0:
503,171,121677,2,0,P|503:135|490:105,1,66.4999979705811
336,157,121878,1,8,1:0:0:0:
288,172,121978,1,0,0:0:0:0:
239,169,122079,1,0,0:0:0:0:
195,146,122179,1,0,0:0:0:0:
163,108,122279,6,0,L|170:261,1,132.999995941162,0|0,1:0|0:0,0:0:0:0:
355,25,122681,2,0,L|336:157,1,132.999995941162,8|0,1:0|0:0,0:0:0:0:
355,234,122982,1,0,0:0:0:0:
375,310,123082,6,0,L|462:303,1,66.4999979705811,0|0,1:0|0:0,0:0:0:0:
509,168,123283,2,0,P|471:158|434:155,1,66.4999979705811
266,29,123483,2,0,B|258:61|271:88|271:88|253:103|253:103|279:129|292:172|267:224,1,199.499993911743,8|8,1:0|1:0,0:0:0:0:
181,171,123885,5,0,1:0:0:0:
173,220,123985,1,0,0:0:0:0:
191,267,124085,1,0,0:0:0:0:
228,299,124186,1,0,0:0:0:0:
277,309,124286,2,0,L|358:302,1,66.4999979705811,8|0,1:0|0:0,0:0:0:0:
509,168,124487,2,0,L|427:153,1,66.4999979705811
331,19,124687,6,0,P|319:84|321:150,1,132.999995941162,0|0,1:0|0:0,0:0:0:0:
353,224,124988,1,0,0:0:0:0:
414,275,125089,1,8,1:0:0:0:
229,352,125290,1,0,0:0:0:0:
305,98,125490,6,0,L|298:183,1,66.4999979705811,0|0,1:0|0:0,0:0:0:0:
141,224,125691,2,0,L|133:155,1,66.4999979705811,2|0,0:1|0:0,0:0:0:0:
75,32,125892,2,0,P|150:22|210:40,1,132.999995941162,10|2,1:0|0:1,0:0:0:0:
330,179,126293,5,2,1:0:0:0:
285,200,126393,1,0,0:0:0:0:
235,201,126494,1,0,0:0:0:0:
190,181,126594,1,2,0:1:0:0:
156,145,126694,2,0,L|72:153,1,66.4999979705811,8|0,1:0|0:0,0:0:0:0:
0,341,126895,2,0,L|80:357,1,66.4999979705811,2|8,0:1|1:0,0:0:0:0:
196,227,127096,6,0,L|57:240,1,132.999995941162,6|0,1:0|0:0,0:0:0:0:
281,265,127497,2,0,P|289:232|284:200,1,66.4999979705811,10|0,1:0|0:0,0:0:0:0:
125,125,127698,2,0,P|119:157|124:190,1,66.4999979705811,2|8,0:1|1:0,0:0:0:0:
219,342,127898,5,2,1:0:0:0:
254,307,127999,1,0,0:0:0:0:
301,290,128099,1,0,0:0:0:0:
350,291,128199,1,2,0:1:0:0:
395,312,128300,2,0,L|407:245,1,66.4999979705811,8|0,1:0|0:0,0:0:0:0:
248,138,128500,2,0,L|236:73,1,66.4999979705811,2|8,0:1|1:0,0:0:0:0:
360,50,128701,6,0,P|356:116|343:181,1,132.999995941162,6|0,1:0|0:0,0:0:0:0:
226,222,129002,1,0,0:0:0:0:
251,244,129102,2,0,B|311:290|311:290|434:269,1,199.499993911743,10|8,1:0|1:0,0:0:0:0:
444,138,129504,5,6,1:0:0:0:
406,107,129604,1,0,0:0:0:0:
358,113,129704,1,0,0:0:0:0:
328,151,129805,1,0,0:0:0:0:
334,200,129905,2,0,L|189:183,1,132.999995941162,10|10,1:0|1:0,0:0:0:0:
177,107,130206,1,8,1:0:0:0:
152,29,130306,6,0,L|66:41,1,66.4999979705811,4|0,1:0|0:0,0:0:0:0:
13,168,130507,2,0,L|98:177,1,66.4999979705811
260,80,130708,1,10,1:0:0:0:
271,128,130808,1,0,0:0:0:0:
272,178,130908,1,0,0:0:0:0:
263,227,131009,1,8,1:0:0:0:
245,273,131109,5,4,1:0:0:0:
251,337,131209,1,0,0:0:0:0:
304,373,131310,1,0,0:0:0:0:
366,356,131410,1,0,0:0:0:0:
392,297,131510,1,8,1:0:0:0:
369,237,131611,1,0,0:0:0:0:
405,185,131711,1,0,0:0:0:0:
468,184,131811,1,8,1:0:0:0:
505,236,131912,6,0,L|496:81,1,132.999995941162,4|4,1:2|1:2,0:0:0:0:
395,18,132313,1,8,1:0:0:0:
174,279,132514,6,0,L|183:123,1,132.999995941162,4|4,1:2|1:2,0:0:0:0:
284,60,132915,1,4,1:2:0:0:
505,321,133116,6,0,L|495:165,1,132.999995941162,8|4,1:0|1:2,0:0:0:0:
395,102,133517,5,4,1:0:0:0:
256,192,133634,12,0,135270,0:0:0:0:
