osu file format v14

[General]
AudioFilename: Arctic+Monkeys+-+Balaclava.mp3
AudioLeadIn: 700
PreviewTime: 42803
Countdown: 0
SampleSet: None
StackLeniency: 0.5
Mode: 0
LetterboxInBreaks: 0
WidescreenStoryboard: 0

[Editor]
DistanceSpacing: 1
BeatDivisor: 2
GridSize: 4
TimelineZoom: 1

[Metadata]
Title:Balaclava
TitleUnicode:Balaclava
Artist:Arctic Monkeys
ArtistUnicode:Arctic Monkeys
Creator:Priti
Version:Easy
Source:
Tags:Favourite Worst Nightmare Indie Rock
BeatmapID:705661
BeatmapSetID:298913

[Difficulty]
HPDrainRate:2
CircleSize:3
OverallDifficulty:2
ApproachRate:3
SliderMultiplier:0.9
SliderTickRate:1

[Events]
//Background and Video events
0,0,"Arctic_Monkeys_Favourite_Worst_Nightmare_1.jpg",0,0
//Break Periods
2,42330,43383
2,56473,68791
//Storyboard Layer 0 (Background)
//Storyboard Layer 1 (Fail)
//Storyboard Layer 2 (Pass)
//Storyboard Layer 3 (Foreground)
//Storyboard Sound Samples

[TimingPoints]
1751,437.956204379562,4,2,2,40,1,0
15765,404.040404040404,4,3,1,50,1,0
28684,448.232842020335,4,3,1,60,1,0
41234,-100,4,3,1,55,0,0
44823,406.779661016949,4,3,1,50,1,0
49701,406.2288422478,4,3,1,50,1,0
54991,422.535211267606,4,3,1,50,1,0
55836,437.956204379562,4,3,1,50,1,0
56273,433.212996389892,4,2,1,60,1,0
58005,435.57168784029,4,2,1,60,1,0
59747,439.56043956044,4,2,1,60,1,0
61505,436.363636363636,4,2,2,40,1,0
63250,436.363636363636,4,2,2,40,1,0
82013,-100,4,2,1,60,0,0
82450,448.125714200357,4,3,1,50,1,0
94989,401.33779264214,4,3,1,50,1,0
107831,-100,4,3,1,50,0,1
131912,-100,4,3,1,40,0,1
133525,436.363636363636,4,2,1,40,1,0

[Colours]
Combo1 : 216,209,171
Combo2 : 148,172,190
Combo3 : 202,162,142
Combo4 : 154,172,134

[HitObjects]
74,180,1751,6,0,P|118:174|256:179,1,180,0|0,3:0|3:0,0:0:0:0:
414,258,3502,2,0,B|437:170|437:170|386:87,1,180,0|0,3:0|3:0,0:0:0:0:
231,9,5254,1,0,3:0:0:0:
208,96,5692,1,0,3:0:0:0:
254,172,6130,1,0,3:0:0:0:
115,287,7006,2,0,L|20:281,2,90,0|0|0,3:0|3:0|3:0,0:0:0:0:
284,348,8758,6,0,B|384:376|358:326|460:349,1,180,0|0,3:0|3:0,0:0:0:0:
368,189,10510,2,0,P|342:225|336:269,1,90,0|0,3:0|3:0,0:0:0:0:
254,305,11386,2,0,L|153:301,1,90,0|0,3:0|3:0,0:0:0:0:
77,325,12261,2,0,P|70:265|83:139,1,180,0|0,3:0|3:0,0:0:0:0:
245,221,14013,2,0,P|252:161|239:35,1,180,0|0,3:0|3:0,0:0:0:0:
151,27,15327,1,4,3:0:0:0:
66,75,15765,6,0,P|65:115|76:179,2,90,4|8|0,1:0|1:0|1:0,0:0:0:0:
243,104,17381,2,0,L|434:88,1,180,0|0,1:0|1:0,0:0:0:0:
482,155,18593,1,8,1:0:0:0:
455,240,18997,2,0,P|403:249|366:231,1,90,0|8,1:0|1:0,0:0:0:0:
303,173,19805,1,0,1:0:0:0:
222,333,20613,2,0,L|320:342,2,90,0|8|0,1:0|1:0|1:0,0:0:0:0:
76,228,22229,6,0,L|60:32,1,180,0|0,1:0|1:0,0:0:0:0:
228,112,23845,2,0,B|273:120|273:120|320:96,1,90,0|8,1:0|1:0,0:0:0:0:
387,49,24653,2,0,P|424:44|483:73,1,90,0|8,1:0|1:0,0:0:0:0:
437,146,25461,2,0,B|414:258|454:202|437:324,1,180,0|0,1:0|1:0,0:0:0:0:
259,354,27078,2,0,P|265:297|281:265,1,90,0|8,1:0|1:0,0:0:0:0:
337,199,27886,2,0,P|331:142|315:110,1,90,0|8,1:0|1:0,0:0:0:0:
249,67,28684,6,0,L|62:77,1,180,4|0,1:0|0:0,0:0:0:0:
87,255,30476,2,0,L|182:263,1,90,0|8,0:0|1:0,0:0:0:0:
260,295,31373,2,0,L|359:279,1,90,0|8,0:0|1:0,0:0:0:0:
431,244,32269,2,0,P|434:307|399:353,2,90,0|8|0,0:0|1:0|0:0,0:0:0:0:
359,189,33614,1,4,1:2:0:0:
291,129,34062,2,0,P|372:101|441:154,1,180,4|4,1:2|1:2,0:0:0:0:
354,311,35855,6,0,P|291:315|159:281,1,180,4|0,1:0|0:0,0:0:0:0:
107,233,37200,1,10,1:0:0:0:
85,145,37648,2,0,L|94:42,2,90,4|8|0,1:2|1:0|0:0,0:0:0:0:
192,289,39441,2,0,P|258:280|379:284,1,180
450,324,40786,1,4,1:2:0:0:
502,251,41234,2,0,P|504:194|491:155,1,90,4|4,1:2|1:2,0:0:0:0:
446,87,42130,1,4,1:2:0:0:
446,87,44823,6,0,L|246:98,1,180,4|0,1:0|1:0,0:0:0:0:
108,180,46450,2,0,P|100:228|104:276,1,90,0|8,1:0|1:0,0:0:0:0:
172,328,47263,1,0,1:0:0:0:
346,283,48077,2,0,B|365:169|331:218|345:103,1,180,0|0,1:0|1:0,0:0:0:0:
174,51,49701,6,0,B|178:93|178:93|204:133,1,90,0|8,1:0|1:0,0:0:0:0:
266,197,50513,1,0,1:0:0:0:
155,338,51325,2,0,P|107:341|69:320,1,90,0|8,1:0|1:0,0:0:0:0:
35,239,52138,2,0,L|43:135,1,90,0|8,1:0|1:0,0:0:0:0:
104,84,52950,2,0,B|179:80|179:80|208:90|208:90|284:86,1,180,0|0,1:0|1:0,0:0:0:0:
343,256,54575,2,0,P|275:272|242:260,1,90,0|8,1:0|1:0,0:0:0:0:
181,218,55413,1,0,0:0:0:0:
96,236,55836,1,0,0:0:0:0:
37,166,56273,5,4,0:0:0:0:
37,166,70231,6,0,P|82:157|241:151,1,180
283,316,71977,2,0,P|234:323|191:299,1,90,0|0,0:0|1:0,0:0:0:0:
251,232,72849,2,0,L|352:224,1,90,0|0,0:0|1:0,0:0:0:0:
400,157,73722,1,0,0:0:0:0:
269,32,74595,6,0,L|179:39,1,90,0|0,0:0|1:0,0:0:0:0:
90,53,75468,1,0,0:0:0:0:
112,140,75904,2,0,P|119:190|121:329,1,180,0|0,1:0|1:0,0:0:0:0:
34,342,77213,5,0,0:0:0:0:
169,223,78086,2,0,P|214:219|269:245,1,90,0|0,0:0|1:0,0:0:0:0:
327,288,78959,2,0,P|372:292|427:266,1,90,0|0,0:0|1:0,0:0:0:0:
454,196,79831,1,0,0:0:0:0:
311,86,80704,2,0,L|183:98,2,90,2|2|2,0:1|0:1|0:1,0:0:0:0:
355,164,82013,1,10,1:0:0:0:
300,232,82450,6,0,P|313:294|349:325,1,90,4|8,1:0|1:0,0:0:0:0:
387,246,83346,1,0,0:0:0:0:
264,114,84242,2,0,L|70:126,1,180
39,203,85586,1,4,0:2:0:0:
95,273,86035,2,0,P|184:271|272:289,1,180,4|4,0:2|0:2,0:0:0:0:
441,352,87827,6,0,L|451:248,1,90,4|8,1:0|1:0,0:0:0:0:
400,186,88723,1,0,0:0:0:0:
492,31,89620,2,0,B|380:16|426:48|313:31,1,180,4|0,0:2|0:0,0:0:0:0:
224,17,90964,1,8,1:0:0:0:
142,55,91412,2,0,P|139:106|146:151,2,90,0|8|0,0:0|1:0|0:0,0:0:0:0:
315,104,93205,2,0,P|320:162|315:299,1,180,4|4,0:2|0:2,0:0:0:0:
248,342,94549,1,4,1:2:0:0:
158,296,94989,6,0,B|111:293|111:293|61:311,2,90,4|8|0,1:0|1:0|1:0,0:0:0:0:
335,323,96594,2,0,P|342:249|320:139,1,180,0|0,1:0|1:0,0:0:0:0:
265,75,97798,1,8,1:0:0:0:
177,97,98199,2,0,P|130:98|85:85,2,90,0|8|0,1:0|1:0|1:0,0:0:0:0:
341,22,99805,2,0,L|365:240,1,180,0|0,1:0|1:0,0:0:0:0:
401,281,101009,1,8,1:0:0:0:
328,334,101410,6,0,P|284:319|136:324,1,180,0|0,1:0|1:0,0:0:0:0:
56,166,103015,2,0,P|97:149|147:156,1,90,0|8,1:0|1:0,0:0:0:0:
223,190,103818,2,0,L|320:178,1,90,0|8,1:0|1:0,0:0:0:0:
370,110,104621,2,0,P|362:196|427:253,1,180,0|0,1:0|1:0,0:0:0:0:
453,75,106226,2,0,P|420:35|383:19,1,90,0|8,1:0|1:0,0:0:0:0:
302,53,107029,1,0,1:0:0:0:
388,212,107831,6,0,L|379:301,1,90,4|8,1:0|1:0,0:0:0:0:
305,354,108634,2,0,L|278:254,1,90,0|8,1:0|1:0,0:0:0:0:
209,212,109437,2,0,P|141:192|11:201,1,180,0|0,1:0|1:0,0:0:0:0:
171,309,111042,2,0,P|216:315|259:300,1,90,0|8,1:0|1:0,0:0:0:0:
332,250,111845,2,0,P|377:244|420:259,1,90,0|8,1:0|1:0,0:0:0:0:
475,329,112647,2,0,L|461:130,1,180,0|0,1:0|1:0,0:0:0:0:
292,87,114253,6,0,B|271:126|271:126|281:169,2,90,4|8|0,1:0|1:0|1:0,0:0:0:0:
463,33,115858,2,0,P|471:98|473:229,1,180,0|0,1:0|1:0,0:0:0:0:
436,294,117062,1,8,1:0:0:0:
351,324,117463,2,0,P|306:321|262:331,1,90,0|8,1:0|1:0,0:0:0:0:
179,366,118266,1,0,1:0:0:0:
100,204,119069,2,0,L|203:210,1,90,0|8,1:0|1:0,0:0:0:0:
268,251,119871,2,0,L|360:237,1,90,0|8,1:0|1:0,0:0:0:0:
398,157,120674,6,0,B|380:268|418:221|396:335,1,180,4|0,1:0|1:0,0:0:0:0:
309,355,121878,1,8,1:0:0:0:
223,328,122279,2,0,P|157:332|128:344,2,90,0|8|0,1:0|1:0|1:0,0:0:0:0:
392,265,123885,2,0,L|387:155,1,90,0|8,1:0|1:0,0:0:0:0:
446,106,124687,1,0,1:0:0:0:
278,39,125490,2,0,P|188:39|99:53,1,180,0|0,1:0|1:0,0:0:0:0:
40,121,126694,1,8,1:0:0:0:
77,203,127096,5,4,1:0:0:0:
236,116,127898,2,0,P|289:115|333:132,1,90,0|8,1:0|1:0,0:0:0:0:
384,192,128701,1,4,1:0:0:0:
256,316,129504,1,4,1:0:0:0:
128,192,130306,1,4,1:0:0:0:
256,68,131109,1,4,1:0:0:0:
384,192,131912,6,0,L|392:288,1,90,4|8,1:2|1:0,0:0:0:0:
324,344,132714,2,0,L|220:336,1,90,4|8,1:2|1:0,0:0:0:0:
160,284,133517,5,4,1:0:0:0:
256,192,133743,12,0,135270,0:0:0:0:
