osu file format v13

[General]
AudioFilename: Archie_V_-_Christmas_In_Equestria__AVICII_STYLE_OZWh8FY2KaU_hi.mp3
AudioLeadIn: 0
PreviewTime: 183978
Countdown: 1
SampleSet: Soft
StackLeniency: 0.7
Mode: 0
LetterboxInBreaks: 1
WidescreenStoryboard: 0

[Editor]
Bookmarks: 123980
DistanceSpacing: 0.6
BeatDivisor: 4
GridSize: 8
TimelineZoom: 1

[Metadata]
Title:Christmas In Equestria (Avicii Style)
TitleUnicode:Christmas In Equestria (Avicii Style)
Artist:Archie
ArtistUnicode:Archie
Creator:Mercusheigan
Version:Hard
Source:
Tags:
BeatmapID:338554
BeatmapSetID:87929

[Difficulty]
HPDrainRate:5
CircleSize:4
OverallDifficulty:6
ApproachRate:7
SliderMultiplier:1
SliderTickRate:1

[Events]
//Background and Video events
0,0,"Archie.jpg",0,0
//Break Periods
2,124180,138079
//Storyboard Layer 0 (Background)
//Storyboard Layer 1 (Fail)
//Storyboard Layer 2 (Pass)
//Storyboard Layer 3 (Foreground)
//Storyboard Sound Samples
//Background Colour Transformations
3,100,163,162,255

[TimingPoints]
2109,468.734878048779,4,1,0,100,1,0
2109,-100,4,2,0,10,0,0
3984,-100,4,1,0,30,0,0
6327,-66.6666666666667,4,1,0,80,0,0
6533,-66.6666666666667,4,1,0,40,0,0
7734,-66.6666666666667,4,1,0,40,0,0
11718,-52.6315789473684,4,1,0,30,0,0
12991,-66.6666666666667,4,1,0,30,0,0
33396,-52.6315789473684,4,1,0,80,0,0
34100,-66.6666666666667,4,1,0,80,0,0
36849,-52.6315789473684,4,1,0,80,0,0
45232,-50,4,1,0,80,0,0
48513,-200,4,1,0,80,0,0
48982,-55.5555555555556,4,1,0,100,0,1
63044,-100,4,1,0,100,0,0
63982,-52.6315789473684,4,1,0,80,0,1
77106,-52.6315789473684,4,1,0,80,0,0
81559,-57.1428571428571,4,1,0,30,0,0
93981,-66.6666666666667,4,1,0,60,0,0
95035,-55.5555555555556,4,1,0,60,0,0
108511,-100,4,1,0,60,0,0
108980,-50,4,1,0,85,0,0
138862,-66.6666666666667,4,1,0,30,0,0
152229,-66.6666666666667,4,1,0,20,0,0
152573,-66.6666666666667,4,1,0,40,0,0
152807,-66.6666666666667,4,1,0,60,0,0
153041,-66.6666666666667,4,1,0,80,0,0
153276,-66.6666666666667,4,1,0,100,0,0
153672,-52.6315789473684,4,1,0,45,0,0
183392,-133.333333333333,4,1,0,60,0,0
183978,-55.5555555555556,4,1,0,100,0,1
193704,-52.6315789473684,4,1,0,100,0,1
194876,-50,4,1,0,100,0,1
197102,-100,4,1,0,100,0,0
198977,-50,4,1,0,100,0,1
211867,-50,4,1,0,60,0,0
217492,-100,4,1,0,50,0,0
220422,-66.6666666666667,4,1,0,60,0,0
222306,-71.4285714285714,4,1,0,60,0,0
224193,-52.6315789473684,4,1,0,60,0,0
228976,-66.6666666666667,4,1,0,5,0,0
239646,-52.6315789473684,4,1,0,100,0,0

[Colours]
Combo1 : 255,128,255
Combo2 : 107,0,215
Combo3 : 0,204,0
Combo4 : 240,5,5
Combo5 : 255,255,62

[HitObjects]
256,192,2109,12,0,3515,0:0:0:0:
96,104,3983,6,0,L|160:136,1,50
264,168,4452,1,0,0:0:0:0:
376,152,4921,1,0,0:0:0:0:
376,304,5858,1,0,0:0:0:0:
192,304,6327,2,0,P|144:296|112:256,1,75.0000028610231
104,256,6679,1,0,0:0:0:0:
96,232,6796,2,0,P|120:168|144:160,1,75.0000028610231
136,72,7265,2,0,L|80:72,2,37.5000014305115
240,72,7733,1,0,0:0:0:0:
152,200,8202,6,0,B|152:240|152:240|200:288|200:288,1,75.0000028610231
264,272,8671,2,0,B|264:240|264:240|232:200,1,75.0000028610231
224,112,9140,1,0,0:0:0:0:
392,144,9608,1,0,0:0:0:0:
118,146,10077,1,0,0:0:0:0:
391,146,10546,1,8,0:0:0:0:
384,200,10780,1,8,0:0:0:0:
360,248,11015,1,8,0:0:0:0:
328,296,11249,1,8,0:0:0:0:
288,336,11483,1,8,0:0:0:0:
80,224,11952,6,0,B|80:168|80:168|112:128,1,94.9999974632264
160,216,12421,2,0,B|160:280|160:280|120:312|128:312,1,94.9999974632264
256,192,13358,1,4,0:0:0:0:
336,128,14296,2,0,P|368:192|336:264,1,150.000005722046
256,192,14999,1,0,0:0:0:0:
144,128,15233,6,0,L|96:176,1,37.5000014305115
56,208,15467,2,0,L|104:248,1,37.5000014305115
144,288,15702,2,0,L|112:328,1,37.5000014305115
312,312,16171,1,0,0:0:0:0:
416,224,16405,1,0,0:0:0:0:
352,88,16639,2,0,P|328:128|296:128,1,75.0000028610231
288,56,17108,2,0,P|240:72|232:112,1,75.0000028610231
144,160,17577,1,0,0:0:0:0:
96,264,18046,5,0,0:0:0:0:
192,328,18280,1,0,0:0:0:0:
312,328,18514,1,0,0:0:0:0:
416,256,18749,1,0,0:0:0:0:
376,120,18983,2,0,L|216:120,2,150.000005722046
376,120,20858,1,0,0:0:0:0:
120,120,21795,5,8,0:0:0:0:
136,160,22030,1,8,0:0:0:0:
152,200,22264,1,8,0:0:0:0:
184,232,22499,1,8,0:0:0:0:
224,256,22733,1,8,0:0:0:0:
440,272,23202,6,0,B|440:320|440:320|400:352,1,75.0000028610231
360,280,23670,2,0,B|360:240|360:240|400:208|400:208,1,75.0000028610231
472,152,24139,1,0,0:0:0:0:
320,64,24608,2,0,P|256:32|184:72,1,150.000005722046
194,236,25545,5,0,0:0:0:0:
293,307,25780,1,0,0:0:0:0:
256,192,26014,1,0,0:0:0:0:
217,306,26248,1,0,0:0:0:0:
315,235,26483,1,0,0:0:0:0:
440,176,26952,2,0,L|376:112,1,75.0000028610231
296,40,27420,1,0,0:0:0:0:
256,192,28358,5,0,0:0:0:0:
112,192,28592,6,0,P|128:256|232:280,1,150.000005722046
344,288,29295,2,0,L|432:288,3,75.0000028610231
504,192,30233,1,0,0:0:0:0:
432,88,30467,1,0,0:0:0:0:
304,88,30701,1,0,0:0:0:0:
304,336,31170,1,0,0:0:0:0:
176,320,31639,6,0,P|88:304|56:256,1,150.000005722046
144,240,32342,1,0,0:0:0:0:
120,160,32576,2,0,P|216:184|232:248,1,150.000005722046
288,312,33279,1,0,0:0:0:0:
408,312,33514,2,0,B|440:272|440:272|400:232|408:232,2,94.9999974632264
336,224,34217,5,0,0:0:0:0:
288,168,34451,2,0,P|288:120|328:88,1,75.0000028610231
336,208,34920,2,0,P|384:208|416:248,1,75.0000028610231
288,256,35389,2,0,P|288:304|248:336,1,75.0000028610231
240,208,35857,2,0,P|192:208|160:168,1,75.0000028610231
112,112,36326,6,0,P|64:112|32:72,1,75.0000028610231
200,64,36795,2,0,P|248:64|280:104,2,75.0000028610231
200,168,37498,1,0,0:0:0:0:
120,264,37732,2,0,P|72:264|40:232,1,94.9999974632264
168,304,38201,2,0,P|168:352|136:384,1,94.9999974632264
208,256,38670,2,0,P|256:256|288:288,1,94.9999974632264
168,216,39139,2,0,L|168:184|168:136,2,47.4999987316132
280,144,39607,6,0,P|328:144|360:176,1,94.9999974632264
456,80,40076,2,0,P|456:128|424:160,1,94.9999974632264
512,256,40545,2,0,P|464:256|432:224,1,94.9999974632264
328,280,41014,2,0,L|392:216,2,47.4999987316132
184,280,41482,5,0,0:0:0:0:
96,168,41717,1,0,0:0:0:0:
240,144,41951,1,0,0:0:0:0:
336,256,42185,1,0,0:0:0:0:
336,256,42420,2,0,L|448:256,2,94.9999974632264
336,256,43123,1,0,0:0:0:0:
378,119,43357,5,0,0:0:0:0:
260,205,43592,1,0,0:0:0:0:
405,205,43826,1,0,0:0:0:0:
288,120,44060,1,0,0:0:0:0:
288,120,44295,2,0,L|176:120,2,94.9999974632264
376,144,44998,1,0,0:0:0:0:
448,208,45232,2,0,L|504:232,6,50
360,272,46170,5,0,0:0:0:0:
256,240,46404,2,0,L|216:280,4,50
288,136,47107,2,0,L|248:104,10,50
448,160,48513,6,0,L|448:200|448:208,1,37.5
448,197,48982,6,0,P|432:248|368:272,1,89.9999972534181
240,176,49451,2,0,P|256:125|320:101,1,89.9999972534181
368,152,49920,2,0,P|352:202|288:226,1,89.9999972534181
160,128,50388,2,0,P|176:77|240:53,1,89.9999972534181
320,64,50857,6,0,L|440:72,2,89.9999972534181
256,160,51560,1,0,0:0:0:0:
192,256,51794,2,0,P|159:297|91:298,1,89.9999972534181
88,184,52263,1,0,0:0:0:0:
88,208,52498,1,0,0:0:0:0:
192,256,52732,6,0,P|240:235|259:169,1,89.9999972534181
328,256,53201,2,0,P|279:235|260:169,1,89.9999972534181
432,176,53669,1,0,0:0:0:0:
432,208,53904,1,0,0:0:0:0:
328,256,54138,2,0,P|360:297|428:298,1,89.9999972534181
256,328,54607,6,0,L|168:264,1,89.9999972534181
96,200,55076,1,0,0:0:0:0:
176,120,55310,2,0,L|256:72,1,89.9999972534181
344,192,55779,2,0,L|232:192,2,89.9999972534181
440,112,56482,6,0,L|440:16,1,89.9999972534181
440,272,56951,2,0,L|440:368,1,89.9999972534181
336,192,57419,1,0,0:0:0:0:
208,192,57654,1,0,0:0:0:0:
64,216,57888,2,0,P|40:192|80:144,2,89.9999972534181
144,304,58591,6,0,L|240:288,1,89.9999972534181
232,289,59060,1,0,0:0:0:0:
232,289,59294,1,0,0:0:0:0:
320,272,59529,2,0,L|408:256,2,89.9999972534181
256,192,60232,6,0,P|232:152|248:88,1,89.9999972534181
320,272,60700,2,0,P|344:312|328:376,1,89.9999972534181
256,336,61169,1,0,0:0:0:0:
152,280,61404,1,0,0:0:0:0:
112,168,61638,2,0,L|128:72,1,89.9999972534181
240,40,62107,5,0,0:0:0:0:
304,88,62341,1,0,0:0:0:0:
368,136,62575,1,0,0:0:0:0:
432,184,62810,1,0,0:0:0:0:
208,144,63982,6,0,P|168:112|120:112,1,94.9999974632264
304,240,64450,2,0,P|344:272|392:272,1,94.9999974632264
392,160,64919,1,0,0:0:0:0:
392,160,65153,2,0,L|424:64,2,94.9999974632264
344,264,65857,6,0,P|320:304|256:312,1,94.9999974632264
184,224,66325,2,0,P|208:184|272:176,1,94.9999974632264
424,72,66794,1,0,0:0:0:0:
392,160,67028,1,0,0:0:0:0:
352,248,67263,1,0,0:0:0:0:
312,336,67497,1,0,0:0:0:0:
312,336,67731,6,0,L|200:320,1,94.9999974632264
120,264,68200,2,0,L|232:248,1,94.9999974632264
312,232,68669,1,0,0:0:0:0:
312,232,68903,2,0,L|312:120,2,94.9999974632264
408,232,69606,6,0,P|424:192|384:128,1,94.9999974632264
224,144,70075,2,0,P|207:188|224:232,1,94.9999974632264
312,304,70544,1,0,0:0:0:0:
408,232,70778,1,0,0:0:0:0:
408,112,71013,1,0,0:0:0:0:
408,112,71247,6,0,L|312:96,1,94.9999974632264
120,136,71716,2,0,L|224:152,1,94.9999974632264
264,240,72184,1,0,0:0:0:0:
336,328,72419,1,0,0:0:0:0:
408,240,72653,2,0,P|448:280|448:328,2,94.9999974632264
336,152,73356,5,0,0:0:0:0:
336,152,73591,2,0,L|248:72,1,94.9999974632264
408,216,74059,2,0,L|336:152,1,94.9999974632264
232,112,74528,1,0,0:0:0:0:
200,224,74762,2,0,B|200:232|200:232|192:232|192:240|192:240|184:240|184:248|184:248|176:248|176:256|176:256|168:256|168:264|168:264|160:264|160:272|160:272|152:272|152:280|152:280|144:280|144:288|144:288|136:288|136:296|136:296|128:296|128:304|128:304|120:304|120:312|120:312|120:312,1,94.9999974632264
32,248,75231,6,0,L|48:128,1,94.9999974632264
160,136,75700,2,0,L|104:56,1,94.9999974632264
232,48,76169,1,0,0:0:0:0:
256,48,76403,2,0,L|368:56,2,94.9999974632264
256,128,77106,5,0,0:0:0:0:
256,176,77341,1,0,0:0:0:0:
256,224,77575,1,0,0:0:0:0:
256,272,77809,1,0,0:0:0:0:
256,320,78044,1,0,0:0:0:0:
256,368,78278,2,0,L|256:176,1,189.999994926453
256,72,78981,5,0,0:0:0:0:
328,192,79450,1,0,0:0:0:0:
184,192,79919,1,0,0:0:0:0:
120,296,80856,1,0,0:0:0:0:
256,296,81090,1,0,0:0:0:0:
392,296,81325,1,0,0:0:0:0:
392,296,81793,6,0,L|88:296,1,262.500002503395
256,376,82731,1,0,0:0:0:0:
256,216,83200,1,0,0:0:0:0:
256,56,83668,1,0,0:0:0:0:
392,128,84606,6,0,L|480:136,1,87.500000834465
504,160,85075,1,0,0:0:0:0:
408,256,85543,2,0,B|360:264|360:264|376:288|376:288|320:296|320:296|336:320|336:320|288:328|288:328|256:288|256:288,1,262.500002503395
184,200,86481,1,0,0:0:0:0:
184,200,86950,6,0,L|160:96,1,87.500000834465
192,232,87418,1,0,0:0:0:0:
344,136,87887,2,0,P|376:112|440:112,1,87.500000834465
424,184,88356,1,0,0:0:0:0:
384,272,88590,2,0,L|296:288,2,87.500000834465
288,208,89293,2,0,L|192:192,1,87.500000834465
208,288,89762,2,0,L|112:272,1,87.500000834465
96,168,90231,5,0,0:0:0:0:
96,168,90699,1,0,0:0:0:0:
96,168,91168,1,0,0:0:0:0:
256,192,91637,12,0,93746,0:0:0:0:
336,224,93981,6,0,P|408:256|448:336,2,150.000005722046
280,328,95152,2,0,L|168:328,1,89.9999972534181
144,216,95621,1,0,0:0:0:0:
184,104,95855,1,0,0:0:0:0:
320,88,96090,2,0,B|376:80|416:40|416:40|424:136,1,179.999994506836
416,232,96793,1,0,0:0:0:0:
336,328,97027,6,0,P|280:328|224:352,1,89.9999972534181
240,328,97379,1,0,0:0:0:0:
232,320,97496,2,0,P|191:269|135:269,1,89.9999972534181
96,224,97965,2,0,L|48:224,2,44.999998626709
216,88,98668,1,0,0:0:0:0:
320,144,98902,2,0,L|376:144,2,44.999998626709
304,264,99371,5,0,0:0:0:0:
192,296,99605,2,0,B|112:312|112:312|128:256|72:208,1,179.999994506836
128,112,100308,1,0,0:0:0:0:
248,112,100543,2,0,L|352:112,1,89.9999972534181
416,200,101012,2,0,L|320:200,2,89.9999972534181,0|0|0,0:0|0:0|0:0,0:0:0:0:
424,328,101715,1,0,0:0:0:0:
272,304,101949,1,0,0:0:0:0:
80,224,102418,6,0,P|88:168|112:120,1,89.9999972534181
120,112,102769,1,0,0:0:0:0:
144,88,102886,2,0,P|176:56|200:16,1,89.9999972534181
240,112,103355,1,0,0:0:0:0:
320,48,103590,2,0,L|432:56,2,89.9999972534181
392,144,104293,2,0,B|400:200|392:256|392:264,1,89.9999972534181
312,320,104761,2,0,P|304:272|312:224,1,89.9999972534181
240,136,105230,1,0,0:0:0:0:
120,136,105465,1,0,0:0:0:0:
240,136,106168,6,0,L|330:136,1,89.9999972534181
120,136,106636,1,0,0:0:0:0:
184,240,107105,2,0,B|208:232|208:232|224:256|224:256|240:232|240:232|256:256|256:256|272:232|272:232|288:256|288:256|320:248,1,179.999994506836
376,176,107808,1,0,0:0:0:0:
416,280,108043,1,0,0:0:0:0:
320,336,108277,1,0,0:0:0:0:
200,336,108511,2,0,L|200:264,1,50
144,224,108980,6,0,L|40:224,1,100
104,144,109449,2,0,L|216:144,1,100
272,216,109918,1,0,0:0:0:0:
344,144,110152,2,0,P|368:200|360:248,2,100
280,64,110855,2,0,L|168:64,1,100
216,160,111324,1,0,0:0:0:0:
264,248,111558,1,0,0:0:0:0:
344,184,111792,6,0,P|400:208|408:256,2,100
344,184,112496,1,0,0:0:0:0:
344,184,112730,1,0,0:0:0:0:
192,320,113199,2,0,L|88:280,1,100
264,320,113667,2,0,L|368:280,1,100
192,216,114136,2,0,L|88:176,1,100
264,216,114604,2,0,L|368:176,1,100
224,48,115074,2,0,L|224:160,1,100
144,192,115542,5,0,0:0:0:0:
178,227,115659,1,0,0:0:0:0:
226,240,115776,1,0,0:0:0:0:
273,226,115893,1,0,0:0:0:0:
308,191,116010,1,0,0:0:0:0:
360,80,116245,1,0,0:0:0:0:
440,144,116480,2,0,L|440:272|440:264,1,100
360,328,116949,1,0,0:0:0:0:
128,328,117417,1,0,0:0:0:0:
64,224,117652,5,0,0:0:0:0:
72,208,117769,1,0,0:0:0:0:
80,192,117886,1,0,0:0:0:0:
128,96,118120,2,0,P|176:48|224:48,2,100,0|0|0,0:0|0:0|0:0,0:0:0:0:
256,96,118823,1,0,0:0:0:0:
368,160,119058,1,0,0:0:0:0:
416,280,119292,1,0,0:0:0:0:
383,310,119409,1,0,0:0:0:0:
343,331,119526,1,0,0:0:0:0:
299,341,119643,1,0,0:0:0:0:
254,339,119760,1,0,0:0:0:0:
136,288,119995,5,0,0:0:0:0:
112,168,120230,2,0,L|0:168,1,100
104,80,120698,2,0,L|208:80,1,100
336,48,121167,5,0,0:0:0:0:
384,176,121402,1,0,0:0:0:0:
320,296,121636,1,0,0:0:0:0:
384,176,121870,2,0,L|288:216,1,100
231,341,122339,2,0,L|327:293,1,100
256,168,122808,1,0,0:0:0:0:
130,121,123042,5,0,0:0:0:0:
160,81,123159,1,0,0:0:0:0:
203,55,123276,1,0,0:0:0:0:
252,47,123393,1,0,0:0:0:0:
300,56,123510,1,0,0:0:0:0:
343,82,123627,1,0,0:0:0:0:
373,122,123745,1,0,0:0:0:0:
368,272,123980,5,0,0:0:0:0:
376,120,138979,5,4,0:0:0:0:
176,184,139917,1,8,0:0:0:0:
336,320,140854,1,8,0:0:0:0:
128,352,141792,1,8,0:0:0:0:
96,144,142729,5,8,0:0:0:0:
296,208,143666,1,8,0:0:0:0:
120,320,144604,6,2,P|96:264|104:240,1,75.0000028610231
184,256,145073,2,2,P|181:195|163:177,1,75.0000028610231
320,128,146010,6,4,L|416:128,2,75.0000028610231
232,320,147416,1,8,0:0:0:0:
88,168,148354,5,8,0:0:0:0:
256,40,149291,1,8,0:0:0:0:
344,232,150229,5,8,0:0:0:0:
344,232,151166,5,8,0:0:0:0:
136,192,152104,1,4,0:0:0:0:
256,192,152572,12,0,153744,0:0:0:0:
296,152,153979,6,0,L|296:56,1,94.9999974632264
216,232,154447,2,0,L|216:336,1,94.9999974632264
392,232,154916,2,0,L|288:232,1,94.9999974632264
120,152,155385,2,0,L|240:152,1,94.9999974632264
296,232,155854,6,0,P|328:280|320:328,1,94.9999974632264
216,232,156322,2,0,P|168:264|120:256,1,94.9999974632264
216,152,156791,2,0,P|184:104|192:56,1,94.9999974632264
296,152,157260,2,0,P|344:120|392:128,1,94.9999974632264
216,152,157729,6,0,L|136:80,1,94.9999974632264
216,232,158197,2,0,L|288:296,1,94.9999974632264
367,215,158666,2,0,L|296:152,1,94.9999974632264
249,17,159135,2,0,L|320:80,1,94.9999974632264
320,176,159603,6,0,L|408:232,1,94.9999974632264
400,224,160072,2,0,L|400:320,1,94.9999974632264
400,320,160541,2,0,L|312:376,2,94.9999974632264
320,272,161244,1,0,0:0:0:0:
216,200,161478,6,0,L|120:200,1,94.9999974632264
40,272,161947,2,0,L|136:272,1,94.9999974632264
120,128,162416,2,0,L|16:128,1,94.9999974632264
136,344,162885,2,0,L|232:344,1,94.9999974632264,0|0,0:0|0:0,0:0:0:0:
296,184,163353,6,0,L|392:184,1,94.9999974632264
472,112,163822,2,0,L|376:112,1,94.9999974632264
392,256,164291,2,0,L|496:256,1,94.9999974632264
376,40,164760,2,0,L|280:40,1,94.9999974632264,0|0,0:0|0:0,0:0:0:0:
144,240,165229,6,0,L|216:312,1,94.9999974632264
304,304,165698,2,0,L|384:224,1,94.9999974632264
376,144,166166,2,0,L|296:80,1,94.9999974632264
208,80,166634,2,0,L|136:152,1,94.9999974632264
256,352,167103,5,0,0:0:0:0:
256,192,167572,1,0,0:0:0:0:
256,32,168041,1,0,0:0:0:0:
400,104,168509,6,0,L|456:120,2,47.4999987316132,0|0|0,0:0|0:0|0:0,0:0:0:0:
400,232,168978,2,0,P|416:280|392:336,1,94.9999974632264
112,152,169916,2,0,P|96:104|120:48,1,94.9999974632264
200,192,170853,5,0,0:0:0:0:
326,113,171087,1,0,0:0:0:0:
331,262,171322,1,0,0:0:0:0:
264,160,171556,5,0,0:0:0:0:
390,81,171790,1,0,0:0:0:0:
395,230,172025,1,0,0:0:0:0:
264,232,172259,5,0,0:0:0:0:
390,153,172493,1,0,0:0:0:0:
395,302,172728,1,0,0:0:0:0:
395,302,172962,1,0,0:0:0:0:
120,224,173665,5,0,0:0:0:0:
120,224,173900,1,0,0:0:0:0:
320,48,174603,5,0,0:0:0:0:
392,104,174837,2,0,L|392:208,1,94.9999974632264
248,224,175306,2,0,L|248:112,1,94.9999974632264
320,176,175775,2,0,L|320:280,2,94.9999974632264,0|0|0,0:0|0:0|0:0,0:0:0:0:
392,176,176478,1,0,0:0:0:0:
248,176,176712,1,0,0:0:0:0:
128,80,177415,5,0,0:0:0:0:
128,80,177650,1,0,0:0:0:0:
320,120,178353,5,0,0:0:0:0:
392,176,178587,2,0,B|416:216|416:216|416:272,1,94.9999974632264
304,208,179056,2,0,B|264:232|264:232|208:232,1,94.9999974632264
232,128,179525,2,0,B|208:88|208:88|208:32,2,94.9999974632264,0|0|0,0:0|0:0|0:0,0:0:0:0:
344,64,180228,5,0,0:0:0:0:
360,88,180462,1,0,0:0:0:0:
376,112,180696,1,0,0:0:0:0:
392,136,180931,1,0,0:0:0:0:
408,160,181165,1,0,0:0:0:0:
424,184,181400,2,0,L|480:272,2,94.9999974632264,0|0|0,0:0|0:0|0:0,0:0:0:0:
336,272,182103,2,0,P|280:288|272:336,1,94.9999974632264
240,336,182454,1,0,0:0:0:0:
208,352,182571,2,0,L|112:344,1,94.9999974632264
184,248,183040,1,0,0:0:0:0:
184,248,183275,1,0,0:0:0:0:
64,224,183509,6,0,L|64:184|64:176,1,37.5
64,187,183978,6,0,P|80:136|128:104,1,89.9999972534181
272,208,184447,2,0,P|256:259|192:288,1,89.9999972534181
144,232,184916,2,0,P|160:182|224:152,1,89.9999972534181
352,256,185384,2,0,P|336:307|272:336,1,89.9999972534181
192,320,185853,6,0,L|72:312,2,89.9999972534181
256,224,186556,1,0,0:0:0:0:
320,128,186790,2,0,P|353:87|421:86,1,89.9999972534181
424,200,187259,1,0,0:0:0:0:
424,176,187494,1,0,0:0:0:0:
320,128,187728,6,0,P|272:149|253:215,1,89.9999972534181
184,128,188197,2,0,P|233:149|252:215,1,89.9999972534181
80,208,188665,1,0,0:0:0:0:
80,176,188899,1,0,0:0:0:0:
184,128,189134,2,0,P|152:87|80:88,1,89.9999972534181
256,56,189603,6,0,L|344:120,1,89.9999972534181
416,184,190072,1,0,0:0:0:0:
336,264,190306,2,0,L|256:312,1,89.9999972534181
168,192,190775,2,0,L|280:192,2,89.9999972534181
72,272,191478,6,0,L|72:368,1,89.9999972534181
72,112,191947,2,0,L|72:16,1,89.9999972534181
176,192,192415,1,0,0:0:0:0:
304,192,192650,1,0,0:0:0:0:
448,168,192884,2,0,P|472:192|432:240,2,89.9999972534181
368,80,193587,6,0,L|272:96,1,89.9999972534181
280,95,194056,1,0,0:0:0:0:
280,95,194290,1,0,0:0:0:0:
192,112,194525,2,0,L|88:136,2,94.9999974632264
256,192,195228,6,0,P|280:232|264:296,1,100
192,112,195696,2,0,P|168:72|184:0,1,100
256,48,196165,1,0,0:0:0:0:
360,104,196400,1,0,0:0:0:0:
400,216,196634,2,0,L|384:320,1,100
256,192,197102,12,0,198040,0:0:0:0:
304,240,198977,6,0,P|344:272|392:272,1,100
208,144,199445,2,0,P|168:112|120:112,1,100
120,224,199914,1,0,0:0:0:0:
120,224,200149,2,0,L|88:328,2,100,0|0|0,0:0|0:0|0:0,0:0:0:0:
168,120,200853,6,0,P|192:80|256:64,1,100
328,160,201321,2,0,P|304:200|240:216,1,100
88,312,201790,1,0,0:0:0:0:
120,224,202024,1,0,0:0:0:0:
160,136,202259,1,0,0:0:0:0:
200,48,202493,1,0,0:0:0:0:
200,48,202727,6,0,L|312:64,1,100
392,120,203196,2,0,L|280:136,1,100
200,152,203665,1,0,0:0:0:0:
200,152,203899,2,0,L|200:272,2,100
104,152,204602,6,0,P|88:192|128:256,1,100
288,240,205071,2,0,P|305:196|288:144,1,100
200,80,205540,1,0,0:0:0:0:
104,152,205774,1,0,0:0:0:0:
104,272,206009,1,0,0:0:0:0:
104,272,206243,6,0,L|208:288,1,100
392,248,206712,2,0,L|288:232,1,100
248,144,207180,1,0,0:0:0:0:
176,56,207415,1,0,0:0:0:0:
104,144,207649,2,0,P|64:104|64:56,2,100
176,232,208352,5,0,0:0:0:0:
176,232,208587,2,0,L|264:312,1,100
104,168,209055,2,0,L|184:240,1,100
280,272,209524,1,0,0:0:0:0:
312,160,209758,2,0,B|312:152|312:152|320:152|320:144|320:144|328:144|328:136|328:136|336:136|336:128|336:128|344:128|344:120|344:120|352:120|352:112|352:112|360:112|360:104|360:104|368:104|368:96|368:96|376:96|376:88|376:88|384:88|384:80|384:80|392:80|392:72|392:72|392:72,1,100
480,136,210227,6,0,L|464:256,1,100
352,248,210696,2,0,L|416:336,1,100
280,336,211165,1,0,0:0:0:0:
256,336,211399,2,0,L|144:328,2,100
391,287,212102,1,0,0:0:0:0:
320,216,212336,1,0,0:0:0:0:
391,146,212570,1,0,0:0:0:0:
461,216,212805,1,0,0:0:0:0:
256,144,213039,5,0,0:0:0:0:
186,74,213273,1,0,0:0:0:0:
115,144,213507,1,0,0:0:0:0:
186,215,213742,1,0,0:0:0:0:
186,320,213977,6,0,P|290:304|402:328,2,200,0|0|0,0:0|0:0|0:0,0:0:0:0:
104,240,215383,1,0,0:0:0:0:
128,56,215617,1,0,0:0:0:0:
56,136,215852,1,0,0:0:0:0:
224,56,216086,1,0,0:0:0:0:
216,240,216320,2,0,P|256:152|224:56,1,200
336,32,217023,6,0,P|408:48|432:96,1,100
368,168,217492,2,0,P|384:208|392:224,1,50,0|0,0:0|0:0,0:0:0:0:
352,320,218195,1,0,0:0:0:0:
224,280,218664,1,0,0:0:0:0:
112,256,219601,2,0,L|56:248|56:248,2,50,0|0|0,0:0|0:0|0:0,0:0:0:0:
176,152,220539,6,0,L|224:64,1,75.0000028610231
320,144,221008,2,0,L|360:64|360:64,1,75.0000028610231
353,76,221476,1,0,0:0:0:0:
424,184,221945,1,0,0:0:0:0:
472,80,222414,1,0,0:0:0:0:
384,312,223351,2,0,L|464:336,2,69.9999978637696,0|0|0,0:0|0:0|0:0,0:0:0:0:
248,256,224289,6,0,L|200:168,1,94.9999974632264
136,288,224758,2,0,L|88:192,1,94.9999974632264
93,203,225226,1,0,0:0:0:0:
176,112,225695,1,0,0:0:0:0:
96,32,226164,1,0,0:0:0:0:
288,56,227101,5,0,0:0:0:0:
360,120,227336,2,0,P|376:168|416:208,1,94.9999974632264
336,264,227804,2,0,P|296:296|282:336,1,94.9999974632264
192,296,228273,1,0,0:0:0:0:
192,120,228507,1,0,0:0:0:0:
72,192,228742,1,0,0:0:0:0:
256,192,228976,12,0,239288,0:0:0:0:
