osu file format v12

[General]
AudioFilename: Arata Iiyoshi - Spacial Cliffs.mp3
AudioLeadIn: 0
PreviewTime: -1
Countdown: 1
SampleSet: None
StackLeniency: 0.7
Mode: 0
LetterboxInBreaks: 1
WidescreenStoryboard: 1

[Editor]
Bookmarks: 119705
DistanceSpacing: 1
BeatDivisor: 3
GridSize: 4

[Metadata]
Title:Spacial Cliffs
TitleUnicode:Spacial Cliffs
Artist:Arata Iiyoshi
ArtistUnicode:Arata Iiyoshi
Creator:Ekoro
Version:Normal
Source:Pokemon Mystery Dungeon: Explorers of Sky
Tags:
BeatmapID:369801
BeatmapSetID:149488

[Difficulty]
HPDrainRate:4
CircleSize:3
OverallDifficulty:4
ApproachRate:6
SliderMultiplier:1.2
SliderTickRate:1

[Events]
//Background and Video events
0,0,"424441.jpg",0,0
//Break Periods
//Storyboard Layer 0 (Background)
//Storyboard Layer 1 (Fail)
//Storyboard Layer 2 (Pass)
//Storyboard Layer 3 (Foreground)
//Storyboard Sound Samples
//Background Colour Transformations
3,100,163,162,255

[TimingPoints]
616,606.060606060606,4,1,0,60,1,0
29706,454.545454545455,4,1,0,60,1,0
87887,-100,4,1,0,80,0,1
94251,606.060606060606,4,1,0,60,1,0
119705,454.545454545455,4,1,0,60,1,0
184250,606.060606060606,4,1,0,60,1,0

[Colours]
Combo1 : 106,128,149
Combo2 : 0,128,255
Combo3 : 128,128,128

[HitObjects]
444,120,616,2,0,P|380:120|316:108,1,120,4|0,0:0|0:0,0:0:0:0:
232,32,1828,2,0,P|168:32|104:44,1,120,0|0,0:0|0:0,0:0:0:0:
32,128,3040,2,0,L|48:296,1,150,0|2,0:0|0:0,0:0:0:0:
116,336,4252,6,0,P|176:332|240:316,1,120,2|0,0:0|0:0,0:0:0:0:
348,280,5464,2,0,P|400:251|451:209,1,120,0|0,0:0|0:0,0:0:0:0:
504,108,6676,1,0,0:0:0:0:
364,52,7434,2,0,L|272:60,1,89.9999999999999,2|2,0:0|0:0,0:0:0:0:
156,68,8494,5,0,0:0:0:0:
56,136,9100,2,0,L|48:256,1,120
132,344,10312,2,0,P|200:312|276:312,1,150,0|2,0:0|0:0,0:0:0:0:
360,340,11525,6,0,P|452:336|512:268,1,180,2|2,0:0|0:0,0:0:0:0:
432,112,13343,2,0,P|360:112|308:144,1,120
280,180,14252,2,0,P|264:220|260:268,2,89.9999999999999,2|2|0,0:0|0:0|0:0,0:0:0:0:
112,112,16070,6,0,P|128:72|132:24,1,89.9999999999999,2|0,0:0|0:0,0:0:0:0:
44,40,16979,2,0,P|24:96|24:156,1,120,2|0,0:0|0:0,0:0:0:0:
136,200,18191,2,0,P|156:256|156:316,1,120
268,360,19403,5,0,0:0:0:0:
360,284,20009,2,0,P|420:276|480:276,1,120
508,160,21222,2,0,L|492:8,1,150,0|2,0:0|0:0,0:0:0:0:
408,40,22434,6,0,P|324:60|232:52,1,180,2|2,0:0|0:0,0:0:0:0:
92,164,24252,2,0,P|176:144|268:152,1,180,2|2,0:0|0:0,0:0:0:0:
340,208,25615,2,0,L|352:300,1,89.9999999999999,2|0,0:0|0:0,0:0:0:0:
176,332,26979,6,0,L|188:240,2,89.9999999999999,0|2|2,0:0|0:0|0:0,0:0:0:0:
64,292,28494,1,0,0:0:0:0:
24,180,29100,1,0,0:0:0:0:
76,80,29706,6,0,L|200:64,1,120,4|2,0:0|0:0,0:0:0:0:
248,172,30615,2,0,L|372:188,1,120,0|2,0:0|0:0,0:0:0:0:
392,304,31524,2,0,L|505:356,2,120,0|2|0,0:0|0:0|0:0,0:0:0:0:
276,280,32887,5,2,0:0:0:0:
156,268,33342,2,0,P|92:272|36:288,1,120,0|2,0:0|0:0,0:0:0:0:
80,176,34251,2,0,P|144:172|200:156,1,120,0|2,0:0|0:0,0:0:0:0:
268,60,35160,2,0,P|332:64|388:80,1,120,0|2,0:0|0:0,0:0:0:0:
440,140,35918,2,0,L|456:224,2,79.9999999999999,0|0|2,0:0|0:0|0:0,0:0:0:0:
328,180,36978,6,0,L|320:300,1,120,0|2,0:0|0:0,0:0:0:0:
220,364,37887,2,0,P|160:352|96:356,1,120,0|2,0:0|0:0,0:0:0:0:
12,272,38796,2,0,L|20:152,1,120,0|2,0:0|0:0,0:0:0:0:
28,32,39706,1,0,0:0:0:0:
128,96,40160,6,0,L|168:88,3,40,2|0|0|4,0:0|0:0|0:0|0:0,0:0:0:0:
232,188,41069,2,0,L|192:180,3,40,0|0|0|6,0:0|0:0|0:0|0:0,0:0:0:0:
292,112,41978,6,0,L|332:104,3,40,2|0|0|6,0:0|0:0|0:0|0:0,0:0:0:0:
396,204,42887,2,0,L|356:196,2,40,0|2|2,0:0|0:0|0:0,0:0:0:0:
436,196,43342,2,0,L|452:324,1,120,6|2,0:0|0:0,0:0:0:0:
340,364,44251,6,0,P|288:344|216:332,1,120,4|2,0:0|0:0,0:0:0:0:
108,352,45160,1,0,0:0:0:0:
108,352,45615,1,2,0:0:0:0:
148,240,46069,2,0,L|140:120,2,120,0|2|0,0:0|0:0|0:0,0:0:0:0:
268,224,47433,5,2,0:0:0:0:
376,272,47887,2,0,P|428:304|476:348,1,120,0|2,0:0|0:0,0:0:0:0:
484,224,48796,2,0,P|432:192|384:148,1,120,0|2,0:0|0:0,0:0:0:0:
324,52,49706,5,0,0:0:0:0:
208,80,50160,2,0,L|124:68,3,79.9999999999999,2|0|0|2,0:0|0:0|0:0|0:0,0:0:0:0:
24,12,51524,6,0,L|32:144,1,120,4|2,0:0|0:0,0:0:0:0:
136,192,52433,2,0,L|128:324,2,120,0|2|0,0:0|0:0|0:0,0:0:0:0:
252,164,53796,1,2,0:0:0:0:
360,216,54251,1,0,0:0:0:0:
408,328,54706,1,2,0:0:0:0:
484,236,55160,6,0,L|476:116,1,120,0|2,0:0|0:0,0:0:0:0:
372,56,56069,2,0,P|312:52|248:40,1,120,0|2,0:0|0:0,0:0:0:0:
136,8,56978,5,0,0:0:0:0:
20,36,57433,1,2,0:0:0:0:
12,156,57887,1,0,0:0:0:0:
124,200,58342,1,2,0:0:0:0:
204,108,58796,5,4,0:0:0:0:
244,220,59251,2,0,L|236:344,2,120,2|0|2,0:0|0:0|0:0,0:0:0:0:
320,128,60615,2,0,P|416:128|508:236,1,240,0|2,0:0|0:0,0:0:0:0:
424,316,61978,6,0,L|432:368,2,40,0|2|0,0:0|0:0|0:0,0:0:0:0:
388,304,62433,2,0,P|340:304|268:320,1,120,0|2,0:0|0:0,0:0:0:0:
160,372,63342,2,0,P|112:372|40:356,2,120,0|2|0,0:0|0:0|0:0,0:0:0:0:
176,252,64706,1,2,0:0:0:0:
72,192,65160,2,0,L|60:64,1,120,0|2,0:0|0:0,0:0:0:0:
160,4,66069,6,0,P|212:48|260:64,1,120,4|2,0:0|0:0,0:0:0:0:
380,76,66978,1,0,0:0:0:0:
492,28,67433,1,2,0:0:0:0:
480,148,67887,2,0,B|456:216|468:292|468:292|392:352,1,240,0|2,0:0|0:0,0:0:0:0:
288,292,69251,6,0,L|232:296,2,40,0|2|0,0:0|0:0|0:0,0:0:0:0:
324,276,69706,2,0,P|360:236|368:172,1,120,0|2,0:0|0:0,0:0:0:0:
248,188,70615,2,0,P|212:148|204:84,1,120,0|2,0:0|0:0,0:0:0:0:
308,24,71524,2,0,P|416:56|468:176,1,240,0|0,0:0|0:0,0:0:0:0:
444,284,72887,1,2,0:0:0:0:
336,332,73342,6,0,L|92:316,1,240,4|0,0:0|0:0,0:0:0:0:
8,236,74706,1,2,0:0:0:0:
124,204,75160,2,0,P|128:136|124:80,1,120,4|2,0:0|0:0,0:0:0:0:
244,100,76069,2,0,P|240:168|244:224,1,120,0|2,0:0|0:0,0:0:0:0:
352,272,76978,6,0,P|432:240|488:96,1,240
420,8,78342,1,2,0:0:0:0:
304,44,78796,2,0,L|268:160,1,120,4|2,0:0|0:0,0:0:0:0:
160,212,79706,2,0,L|124:328,1,120,0|2,0:0|0:0,0:0:0:0:
12,372,80615,6,0,P|44:264|40:136,1,240,4|0,0:0|0:0,0:0:0:0:
12,20,81978,1,2,0:0:0:0:
128,48,82433,5,4,0:0:0:0:
196,148,82887,1,2,0:0:0:0:
316,148,83342,1,0,0:0:0:0:
384,48,83796,1,0,0:0:0:0:
500,20,84251,5,2,0:0:0:0:
464,136,84706,2,0,L|480:264,1,120,0|2,0:0|0:0,0:0:0:0:
436,368,85615,1,2,0:0:0:0:
372,268,86069,5,4,0:0:0:0:
252,248,86524,1,2,0:0:0:0:
132,232,86978,1,0,0:0:0:0:
12,212,87433,1,2,0:0:0:0:
88,120,87887,6,0,L|84:80,5,40,2|2|2|0|0|2,0:0|0:0|0:0|0:0|0:0|0:0,0:0:0:0:
244,52,89251,2,0,L|240:92,5,40,0|0|0|2|2|2,0:0|0:0|0:0|0:0|0:0|0:0,0:0:0:0:
448,280,91069,6,0,L|428:316,1,40,2|2,0:0|0:0,0:0:0:0:
388,304,91372,2,0,L|354:328,1,40,2|0,0:0|0:0,0:0:0:0:
320,308,91675,2,0,L|279:315,1,40,0|2,0:0|0:0,0:0:0:0:
208,172,92433,6,0,L|188:136,1,40,2|2,0:0|0:0,0:0:0:0:
148,148,92736,2,0,L|114:123,1,40,2|2,0:0|0:0,0:0:0:0:
80,144,93039,2,0,L|39:136,1,40,2|2,0:0|0:0,0:0:0:0:
40,136,93796,2,0,L|48:256,1,120,2|0,0:0|0:0,0:0:0:0:
