osu file format v12

[General]
AudioFilename: Arata Iiyoshi - Spacial Cliffs.mp3
AudioLeadIn: 0
PreviewTime: -1
Countdown: 1
SampleSet: Normal
StackLeniency: 0.7
Mode: 0
LetterboxInBreaks: 1
WidescreenStoryboard: 0

[Editor]
Bookmarks: 119705
DistanceSpacing: 1
BeatDivisor: 3
GridSize: 4

[Metadata]
Title:Spacial Cliffs
TitleUnicode:Spacial Cliffs
Artist:Arata Iiyoshi
ArtistUnicode:Arata Iiyoshi
Creator:Ekoro
Version:Insane
Source:Pokemon Mystery Dungeon: Explorers of Sky
Tags:
BeatmapID:369393
BeatmapSetID:149488

[Difficulty]
HPDrainRate:6
CircleSize:5
OverallDifficulty:7
ApproachRate:9
SliderMultiplier:2.2
SliderTickRate:1

[Events]
//Background and Video events
0,0,"424441.jpg",0,0
//Break Periods
//Storyboard Layer 0 (Background)
//Storyboard Layer 1 (Fail)
//Storyboard Layer 2 (Pass)
//Storyboard Layer 3 (Foreground)
//Storyboard Sound Samples
//Background Colour Transformations
3,100,163,162,255

[TimingPoints]
616,606.060606060606,4,1,0,60,1,0
29706,454.545454545455,4,1,0,60,1,0
75463,-100,4,1,0,30,0,0
76978,-100,4,1,0,60,0,0
79099,-100,4,1,0,30,0,0
80615,-100,4,1,0,60,0,0
82736,-100,4,1,0,30,0,0
84251,-100,4,1,0,60,0,0
86372,-100,4,1,0,30,0,0
87887,-100,4,1,0,80,0,1
94251,606.060606060606,4,1,0,60,1,0
119705,454.545454545455,4,1,0,60,1,0
165462,-100,4,1,0,30,0,0
166977,-100,4,1,0,60,0,0
169098,-100,4,1,0,30,0,0
170614,-100,4,1,0,60,0,0
172735,-100,4,1,0,30,0,0
174250,-100,4,1,0,60,0,0
176371,-100,4,1,0,30,0,0
177886,-100,4,1,0,80,0,1
184250,606.060606060606,4,1,0,60,1,0

[Colours]
Combo1 : 106,128,149
Combo2 : 0,128,255
Combo3 : 128,128,128

[HitObjects]
336,244,616,2,0,P|268:280|180:272,1,165,4|0,0:0|0:0,0:0:0:0:
68,232,1373,2,0,L|56:352,2,110
92,176,2131,2,0,L|84:120,1,55
48,72,2434,1,0,0:0:0:0:
156,20,2737,5,0,0:0:0:0:
156,20,2888,2,0,P|212:28|268:32,1,110
384,16,3494,1,0,0:0:0:0:
336,128,3797,1,2,0:0:0:0:
336,128,3949,1,0,0:0:0:0:
456,104,4252,6,0,P|440:176|456:268,1,165,2|0,0:0|0:0,0:0:0:0:
364,344,5009,2,0,L|252:332,1,110
136,308,5616,2,0,L|132:372,2,55
152,248,6070,2,0,P|92:244|32:260,1,110
56,196,6525,1,0,0:0:0:0:
80,76,6828,1,0,0:0:0:0:
172,156,7131,1,0,0:0:0:0:
196,36,7434,2,0,L|256:32,1,55,2|0,0:0|0:0,0:0:0:0:
372,16,7888,6,0,P|360:88|368:180,1,165,2|0,0:0|0:0,0:0:0:0:
488,160,8646,2,0,L|492:48,2,110
468,216,9403,1,0,0:0:0:0:
476,276,9555,1,0,0:0:0:0:
484,336,9706,2,0,P|424:336|368:328,1,110
324,292,10161,2,0,L|320:180,2,110
220,356,11070,1,2,0:0:0:0:
220,356,11222,2,0,L|160:352,1,55
120,312,11525,6,0,P|96:248|32:172,1,165,2|0,0:0|0:0,0:0:0:0:
116,12,12434,2,0,P|140:76|204:152,1,165,2|0,0:0|0:0,0:0:0:0:
256,176,13040,1,0,0:0:0:0:
316,184,13191,1,0,0:0:0:0:
376,172,13343,5,2,0:0:0:0:
492,132,13646,2,0,L|488:192,1,55,0|2,0:0|0:0,0:0:0:0:
448,232,13949,2,0,L|444:292,1,55
476,340,14252,1,2,0:0:0:0:
356,364,14555,1,0,0:0:0:0:
356,364,14706,2,0,L|240:352,1,110,2|0,0:0|0:0,0:0:0:0:
192,328,15161,6,0,P|136:364|40:356,1,165,2|0,0:0|0:0,0:0:0:0:
12,176,16070,2,0,P|68:140|164:148,1,165,2|2,0:0|0:0,0:0:0:0:
256,224,16828,1,0,0:0:0:0:
256,224,16979,6,0,L|248:340,1,110,2|0,0:0|0:0,0:0:0:0:
300,364,17434,2,0,P|356:356|412:356,1,110
452,244,18040,2,0,P|396:252|340:252,1,110
296,212,18494,1,0,0:0:0:0:
288,152,18646,1,0,0:0:0:0:
320,100,18797,5,0,0:0:0:0:
152,32,19252,2,0,L|36:40,1,110
16,156,19858,2,0,L|132:148,1,110
176,184,20312,1,0,0:0:0:0:
168,244,20464,1,0,0:0:0:0:
160,304,20615,5,0,0:0:0:0:
276,336,20919,1,0,0:0:0:0:
268,276,21070,2,0,L|384:284,1,110
488,236,21676,1,0,0:0:0:0:
388,168,21979,1,2,0:0:0:0:
388,168,22131,2,0,P|372:116|360:60,1,110,0|2,0:0|0:0,0:0:0:0:
248,16,22737,5,0,0:0:0:0:
248,16,22888,2,0,B|196:36|136:28|136:28|120:76,1,165,0|2,0:0|0:0,0:0:0:0:
180,92,23494,2,0,P|234:87|288:67,2,110
136,136,24252,5,2,0:0:0:0:
16,112,24555,1,0,0:0:0:0:
24,172,24706,1,2,0:0:0:0:
32,232,24858,2,0,L|40:292,1,55
72,336,25161,2,0,P|124:320|180:312,1,110,2|0,0:0|0:0,0:0:0:0:
232,344,25615,2,0,P|284:360|340:368,1,110,2|0,0:0|0:0,0:0:0:0:
396,344,26070,6,0,P|472:280|432:68,1,330,2|2,0:0|0:0,0:0:0:0:
268,0,27434,1,0,0:0:0:0:
92,36,27888,6,0,P|16:100|4:164,1,165,2|0,0:0|0:0,0:0:0:0:
84,252,28646,1,0,0:0:0:0:
180,180,28949,2,0,L|188:64,1,110
240,44,29403,1,0,0:0:0:0:
300,48,29555,1,0,0:0:0:0:
360,52,29706,5,4,0:0:0:0:
440,256,30160,2,0,P|460:276|484:320,2,73.3333333333333,2|0|0,0:0|0:0|0:0,0:0:0:0:
388,204,30615,2,0,P|395:176|421:133,2,73.3333333333333,0|0|0,0:0|0:0|0:0,0:0:0:0:
368,276,31069,2,0,P|340:283|290:282,2,73.3333333333333,2|0|0,0:0|0:0|0:0,0:0:0:0:
472,188,31524,5,0,0:0:0:0:
488,116,31675,1,0,0:0:0:0:
436,64,31827,1,0,0:0:0:0:
436,64,31978,2,0,L|216:48,1,220,2|0,0:0|0:0,0:0:0:0:
80,220,32887,5,2,0:0:0:0:
92,292,33039,1,0,0:0:0:0:
148,244,33190,1,0,0:0:0:0:
164,316,33342,2,0,P|248:336|392:328,1,220,0|2,0:0|0:0,0:0:0:0:
404,260,33948,1,0,0:0:0:0:
452,316,34099,1,0,0:0:0:0:
476,248,34251,2,0,L|440:28,1,220,0|2,0:0|0:0,0:0:0:0:
368,20,34857,1,0,0:0:0:0:
308,64,35009,1,0,0:0:0:0:
372,96,35160,6,0,P|372:180|348:316,1,220
204,348,35918,2,0,L|48:344,1,146.666666666667
28,200,36524,1,0,0:0:0:0:
16,128,36675,1,0,0:0:0:0:
88,116,36827,1,0,0:0:0:0:
100,188,36978,5,2,0:0:0:0:
308,264,37433,2,0,P|312:304|320:344,2,73.3333333333333,2|2|0,0:0|0:0|0:0,0:0:0:0:
372,228,37887,2,0,P|392:262|416:295,2,73.3333333333333,2|0|0,0:0|0:0|0:0,0:0:0:0:
424,176,38342,2,0,P|457:198|492:218,2,73.3333333333333,2|0|0,0:0|0:0|0:0,0:0:0:0:
456,108,38796,5,2,0:0:0:0:
472,36,38948,1,0,0:0:0:0:
436,100,39099,1,0,0:0:0:0:
452,28,39251,2,0,P|336:48|232:44,1,220,2|0,0:0|0:0,0:0:0:0:
16,24,40160,5,2,0:0:0:0:
72,72,40312,1,0,0:0:0:0:
88,144,40463,1,0,0:0:0:0:
52,256,40615,5,4,0:0:0:0:
252,348,41069,5,2,0:0:0:0:
308,300,41221,1,0,0:0:0:0:
324,228,41372,1,0,0:0:0:0:
288,116,41524,5,4,0:0:0:0:
72,72,41978,6,0,P|40:52|16:24,2,73.3333333333333,2|0|0,0:0|0:0|0:0,0:0:0:0:
188,56,42433,5,4,0:0:0:0:
404,28,42887,5,2,0:0:0:0:
420,100,43039,1,0,0:0:0:0:
436,172,43190,1,0,0:0:0:0:
492,124,43342,2,0,L|504:48,2,73.3333333333333,6|2|0,0:0|0:0|0:0,0:0:0:0:
364,144,43796,2,0,L|376:220,2,73.3333333333333,2|0|0,0:0|0:0|0:0,0:0:0:0:
308,100,44251,6,0,B|220:128|220:128|184:80|112:56,1,220,4|2,0:0|0:0,0:0:0:0:
64,196,45009,1,0,0:0:0:0:
64,196,45160,2,0,B|152:168|152:168|188:216|260:240,1,220,2|0,0:0|0:0,0:0:0:0:
460,160,46069,6,0,P|404:120|324:104,1,146.666666666667,2|0,0:0|0:0,0:0:0:0:
212,124,46524,2,0,P|268:164|348:180,2,146.666666666667,2|0|0,0:0|0:0|0:0,0:0:0:0:
112,16,47433,1,2,0:0:0:0:
60,152,47736,1,0,0:0:0:0:
60,152,47887,6,0,L|68:304,1,146.666666666667,2|0,0:0|0:0,0:0:0:0:
136,324,48342,2,0,L|128:172,1,146.666666666667,2|0,0:0|0:0,0:0:0:0:
116,104,48796,2,0,P|192:108|300:20,1,220,2|0,0:0|0:0,0:0:0:0:
492,128,49706,5,2,0:0:0:0:
424,160,49857,1,2,0:0:0:0:
392,92,50009,1,0,0:0:0:0:
460,64,50160,1,2,0:0:0:0:
484,208,50463,1,0,0:0:0:0:
348,156,50766,1,0,0:0:0:0:
400,20,51069,1,0,0:0:0:0:
400,20,51221,1,0,0:0:0:0:
400,20,51372,1,0,0:0:0:0:
400,20,51524,6,0,B|328:40|260:20|260:20|232:92,1,220,4|2,0:0|0:0,0:0:0:0:
260,160,52130,1,0,0:0:0:0:
260,160,52281,1,0,0:0:0:0:
304,104,52433,2,0,B|376:124|444:104|444:104|472:176,1,220,2|0,0:0|0:0,0:0:0:0:
432,320,53190,1,0,0:0:0:0:
364,348,53342,5,2,0:0:0:0:
268,236,53645,1,0,0:0:0:0:
200,208,53796,2,0,L|196:356,1,146.666666666667,2|0,0:0|0:0,0:0:0:0:
52,372,54402,2,0,L|56:224,1,146.666666666667,0|2,0:0|0:0,0:0:0:0:
120,92,55009,1,0,0:0:0:0:
192,112,55160,6,0,P|268:100|324:56,1,146.666666666667,2|0,0:0|0:0,0:0:0:0:
120,92,55615,2,0,P|71:32|5:5,1,146.666666666667,2|0,0:0|0:0,0:0:0:0:
136,164,56069,2,0,P|108:235|118:306,1,146.666666666667,2|0,0:0|0:0,0:0:0:0:
348,328,56524,2,0,P|375:256|365:185,1,146.666666666667,2|0,0:0|0:0,0:0:0:0:
276,188,56978,5,2,0:0:0:0:
300,260,57130,1,0,0:0:0:0:
244,308,57281,1,0,0:0:0:0:
184,268,57433,1,2,0:0:0:0:
204,196,57584,1,0,0:0:0:0:
204,196,57736,2,0,P|204:120|196:44,1,146.666666666667
340,20,58342,2,0,L|420:28,2,73.3333333333333
276,56,58796,5,4,0:0:0:0:
336,96,58948,1,0,0:0:0:0:
408,100,59099,1,0,0:0:0:0:
476,72,59251,2,0,B|484:148|484:148|420:180|432:272,1,220,2|0,0:0|0:0,0:0:0:0:
476,328,59857,5,2,0:0:0:0:
404,340,60009,1,0,0:0:0:0:
344,300,60160,1,2,0:0:0:0:
320,232,60312,1,0,0:0:0:0:
264,188,60463,1,0,0:0:0:0:
192,176,60615,5,2,0:0:0:0:
132,216,60766,1,0,0:0:0:0:
108,284,60918,1,0,0:0:0:0:
140,352,61069,2,0,B|196:372|236:328|236:328|340:376,2,220,2|0|0,0:0|0:0|0:0,0:0:0:0:
176,288,62130,1,0,0:0:0:0:
244,260,62281,1,0,0:0:0:0:
316,284,62433,6,0,P|384:316|456:336,1,146.666666666667,2|0,0:0|0:0,0:0:0:0:
484,268,62887,2,0,P|413:247|347:216,1,146.666666666667
356,144,63342,2,0,P|422:175|492:195,1,146.666666666667,2|0,0:0|0:0,0:0:0:0:
508,124,63796,5,2,0:0:0:0:
472,56,63948,1,0,0:0:0:0:
400,36,64099,1,0,0:0:0:0:
336,72,64251,2,0,P|269:103|199:123,1,146.666666666667,2|0,0:0|0:0,0:0:0:0:
128,136,64706,5,2,0:0:0:0:
60,112,64857,1,0,0:0:0:0:
44,40,65009,1,0,0:0:0:0:
112,64,65160,2,0,P|128:136|128:208,1,146.666666666667,2|0,0:0|0:0,0:0:0:0:
92,272,65615,5,2,0:0:0:0:
120,340,65766,1,0,0:0:0:0:
164,280,65918,1,0,0:0:0:0:
192,348,66069,5,4,0:0:0:0:
264,356,66221,1,0,0:0:0:0:
336,336,66372,1,0,0:0:0:0:
408,344,66524,2,0,B|400:272|400:272|468:220|480:152,1,220,2|0,0:0|0:0,0:0:0:0:
408,136,67130,6,0,P|392:168|364:200,1,73.3333333333333,2|0,0:0|0:0,0:0:0:0:
440,72,67433,2,0,P|475:69|517:78,1,73.3333333333333,2|0,0:0|0:0,0:0:0:0:
368,72,67736,2,0,P|348:42|334:1,2,73.3333333333333,0|2|0,0:0|0:0|0:0,0:0:0:0:
408,136,68190,1,0,0:0:0:0:
408,136,68342,2,0,B|360:164|312:140|292:92|292:92|204:104,1,220
4,36,69251,5,2,0:0:0:0:
76,52,69402,1,0,0:0:0:0:
148,44,69554,1,0,0:0:0:0:
220,32,69706,2,0,P|212:104|220:184,1,146.666666666667,2|0,0:0|0:0,0:0:0:0:
272,228,70160,5,2,0:0:0:0:
200,244,70311,1,0,0:0:0:0:
128,236,70463,1,2,0:0:0:0:
56,224,70615,2,0,P|64:296|56:376,1,146.666666666667
128,380,71069,5,2,0:0:0:0:
136,308,71221,1,0,0:0:0:0:
128,236,71372,1,0,0:0:0:0:
104,168,71524,2,0,B|176:176|176:176|200:152|240:140,1,146.666666666667,2|0,0:0|0:0,0:0:0:0:
240,68,71978,2,0,P|208:76|172:92,2,73.3333333333333,2|0|0,0:0|0:0|0:0,0:0:0:0:
304,104,72433,5,2,0:0:0:0:
360,56,72584,1,0,0:0:0:0:
432,72,72736,1,0,0:0:0:0:
488,24,72887,2,0,P|500:96|492:176,1,146.666666666667,2|0,0:0|0:0,0:0:0:0:
432,212,73342,6,0,B|360:224|304:260|304:260|244:204,1,220,6|0,0:0|0:0,0:0:0:0:
184,68,74099,1,0,0:0:0:0:
184,68,74175,1,0,0:0:0:0:
184,68,74251,2,0,B|256:56|312:20|312:20|372:76,1,220,2|2,0:0|0:0,0:0:0:0:
432,212,75009,1,2,0:0:0:0:
444,284,75160,6,0,L|368:292,1,73.3333333333333,4|0,0:0|0:0,0:0:0:0:
236,336,75463,2,0,L|308:343,1,73.3333333333333,2|0,0:0|0:0,0:0:0:0:
432,212,75766,2,0,L|440:140,1,73.3333333333333,2|0,0:0|0:0,0:0:0:0:
288,188,76069,2,0,L|296:260,1,73.3333333333333,2|0,0:0|0:0,0:0:0:0:
336,112,76372,2,0,L|344:40,1,73.3333333333333,2|0,0:0|0:0,0:0:0:0:
192,88,76675,2,0,L|200:160,1,73.3333333333333,2|0,0:0|0:0,0:0:0:0:
160,220,76978,6,0,P|84:208|28:160,1,146.666666666667,2|0,0:0|0:0,0:0:0:0:
20,92,77433,1,0,0:0:0:0:
232,184,77736,1,0,0:0:0:0:
232,184,77812,1,0,0:0:0:0:
232,184,77887,2,0,L|228:332,1,146.666666666667,2|0,0:0|0:0,0:0:0:0:
296,360,78342,2,0,P|364:328|436:336,1,146.666666666667,2|2,0:0|0:0,0:0:0:0:
468,272,78796,6,0,P|432:260|392:256,1,73.3333333333333,4|0,0:0|0:0,0:0:0:0:
148,352,79099,2,0,P|182:363|218:368,1,73.3333333333333,2|0,0:0|0:0,0:0:0:0:
316,264,79402,2,0,P|280:276|248:300,1,73.3333333333333,2|0,0:0|0:0,0:0:0:0:
432,180,79706,2,0,P|468:168|500:144,1,73.3333333333333,2|0,0:0|0:0,0:0:0:0:
392,20,80009,2,0,P|360:12|320:8,1,73.3333333333333,2|0,0:0|0:0,0:0:0:0:
143,148,80312,2,0,P|180:144|216:136,1,73.3333333333333,2|0,0:0|0:0,0:0:0:0:
24,32,80615,6,0,P|44:104|36:180,1,146.666666666667,4|0,0:0|0:0,0:0:0:0:
12,244,81069,2,0,L|168:232,1,146.666666666667,0|2,0:0|0:0,0:0:0:0:
158,232,81448,1,0,0:0:0:0:
158,232,81524,2,0,L|152:316,2,73.3333333333333,2|0|0,0:0|0:0|0:0,0:0:0:0:
224,196,81978,2,0,P|284:240|328:304,1,146.666666666667,2|2,0:0|0:0,0:0:0:0:
348,368,82433,6,0,L|424:360,1,73.3333333333333,4|0,0:0|0:0,0:0:0:0:
208,276,82736,2,0,P|175:257|141:244,1,73.3333333333333,2|0,0:0|0:0,0:0:0:0:
16,348,83039,2,0,P|48:366|82:379,1,73.3333333333333,2|0,0:0|0:0,0:0:0:0:
260,352,83342,2,0,P|280:324|296:288,1,73.3333333333333,2|0,0:0|0:0,0:0:0:0:
16,200,83645,2,0,P|30:233|51:263,1,73.3333333333333,2|0,0:0|0:0,0:0:0:0:
224,196,83948,2,0,P|233:162|235:123,1,73.3333333333333,2|0,0:0|0:0,0:0:0:0:
164,24,84251,6,0,L|16:36,1,146.666666666667,2|0,0:0|0:0,0:0:0:0:
236,48,84706,2,0,L|384:36,1,146.666666666667,0|2,0:0|0:0,0:0:0:0:
420,32,85084,1,0,0:0:0:0:
456,28,85160,2,0,P|476:52|512:80,2,73.3333333333333,2|0|0,0:0|0:0|0:0,0:0:0:0:
428,96,85615,2,0,P|448:176|444:244,1,146.666666666667,2|2,0:0|0:0,0:0:0:0:
404,300,86069,6,0,L|328:312,1,73.3333333333333,4|0,0:0|0:0,0:0:0:0:
184,336,86372,2,0,L|260:348,1,73.3333333333333,2|0,0:0|0:0,0:0:0:0:
484,308,86675,2,0,L|496:232,1,73.3333333333333,2|0,0:0|0:0,0:0:0:0:
256,188,86978,2,0,L|268:264,1,73.3333333333333,2|0,0:0|0:0,0:0:0:0:
408,208,87281,2,0,P|432:168|460:144,1,73.3333333333333,2|0,0:0|0:0,0:0:0:0:
200,124,87584,2,0,P|176:152|148:176,1,73.3333333333333,2|0,0:0|0:0,0:0:0:0:
40,200,87887,5,2,0:0:0:0:
357,0,88039,1,2,0:0:0:0:
370,375,88190,1,2,0:0:0:0:
141,8,88342,1,0,0:0:0:0:
472,184,88493,1,0,0:0:0:0:
154,383,88645,1,2,0:0:0:0:
128,364,89251,5,0,0:0:0:0:
32,12,89402,1,0,0:0:0:0:
384,20,89554,1,0,0:0:0:0:
480,372,89705,1,2,0:0:0:0:
4,208,89857,1,2,0:0:0:0:
508,176,90009,1,2,0:0:0:0:
512,192,91069,5,2,0:0:0:0:
160,384,91221,1,2,0:0:0:0:
12,8,91372,1,2,0:0:0:0:
500,8,91524,1,0,0:0:0:0:
352,384,91675,1,0,0:0:0:0:
0,192,91827,1,2,0:0:0:0:
4,168,92433,5,2,0:0:0:0:
508,216,92584,1,2,0:0:0:0:
0,0,92736,1,2,0:0:0:0:
512,384,92887,1,2,0:0:0:0:
0,384,93039,1,2,0:0:0:0:
512,0,93190,1,2,0:0:0:0:
512,0,93796,2,0,B|480:20|480:20|492:36|492:36|436:48|416:88|432:136|460:164,1,220,2|0,0:0|0:0,0:0:0:0:
496,288,94705,6,0,P|440:292|384:312,1,110
284,368,95311,1,0,0:0:0:0:
292,248,95614,1,0,0:0:0:0:
340,212,95766,1,0,0:0:0:0:
344,152,95917,1,0,0:0:0:0:
304,108,96069,2,0,P|240:72|176:4,1,165
300,4,96826,1,0,0:0:0:0:
172,124,97129,1,0,0:0:0:0:
20,32,97432,1,2,0:0:0:0:
20,32,97584,2,0,L|28:88,1,55
68,132,97887,6,0,P|48:188|52:296,1,165,2|0,0:0|0:0,0:0:0:0:
144,372,98644,1,0,0:0:0:0:
220,276,98947,1,0,0:0:0:0:
124,204,99251,1,0,0:0:0:0:
124,204,99402,1,0,0:0:0:0:
124,204,99554,1,0,0:0:0:0:
124,204,99705,2,0,L|108:92,1,110
164,72,100160,2,0,L|172:12,2,55
264,140,100766,1,0,0:0:0:0:
320,32,101069,1,2,0:0:0:0:
376,60,101220,2,0,L|432:52,1,55
484,80,101523,6,0,P|460:160|468:240,1,165,2|0,0:0|0:0,0:0:0:0:
496,296,102129,1,0,0:0:0:0:
396,360,102432,2,0,P|284:328|184:344,1,220,2|0,0:0|0:0,0:0:0:0:
68,380,103341,5,2,0:0:0:0:
104,264,103644,1,0,0:0:0:0:
64,220,103796,1,2,0:0:0:0:
20,176,103947,2,0,L|16:120,1,55
56,76,104251,2,0,P|112:72|164:52,1,110,2|0,0:0|0:0,0:0:0:0:
212,88,104705,2,0,P|268:92|320:112,1,110,2|0,0:0|0:0,0:0:0:0:
368,148,105160,6,0,P|424:144|508:76,1,165,2|0,0:0|0:0,0:0:0:0:
312,172,106069,2,0,P|287:222|304:329,1,165,2|0,0:0|0:0,0:0:0:0:
320,112,106978,6,0,P|288:65|187:26,1,165,2|0,0:0|0:0,0:0:0:0:
72,60,107735,1,0,0:0:0:0:
64,180,108038,1,0,0:0:0:0:
172,236,108341,2,0,L|228:228,3,55
400,288,109251,6,0,P|368:336|328:368,1,110
312,248,109857,2,0,P|344:200|384:168,1,110
444,160,110311,2,0,P|472:168|496:180,2,55
280,84,111069,6,0,P|224:80|172:60,1,110
96,0,111675,1,0,0:0:0:0:
68,116,111978,1,2,0:0:0:0:
68,116,112129,2,0,L|72:172,1,55
108,220,112432,6,0,B|60:256|60:256|72:312|24:348,1,165,2|0,0:0|0:0,0:0:0:0:
24,347,113038,1,0,0:0:0:0:
132,292,113341,2,0,B|180:256|180:256|168:200|216:164,1,165,2|0,0:0|0:0,0:0:0:0:
276,176,113947,1,0,0:0:0:0:
252,232,114099,1,0,0:0:0:0:
248,292,114251,6,0,L|156:360,1,110,2|0,0:0|0:0,0:0:0:0:
100,352,114705,1,2,0:0:0:0:
68,300,114857,2,0,L|60:240,1,55,2|0,0:0|0:0,0:0:0:0:
80,188,115160,2,0,P|88:132|88:76,1,110,2|0,0:0|0:0,0:0:0:0:
72,20,115614,1,2,0:0:0:0:
192,36,115917,1,0,0:0:0:0:
176,96,116069,6,0,B|224:144|300:112|304:40|304:40|468:24,1,330,2|2,0:0|0:0,0:0:0:0:
508,200,117432,1,0,0:0:0:0:
328,172,117887,2,0,P|256:200|168:188,1,165,2|0,0:0|0:0,0:0:0:0:
72,116,118644,2,0,L|64:0,2,110
36,164,119402,2,0,L|32:224,1,55
28,280,119705,5,4,0:0:0:0:
236,352,120159,1,2,0:0:0:0:
308,360,120311,1,0,0:0:0:0:
336,292,120462,1,0,0:0:0:0:
280,244,120614,2,0,L|288:164,2,73.3333333333333
220,284,121068,2,0,L|176:224,2,73.3333333333333,2|0|0,0:0|0:0|0:0,0:0:0:0:
236,352,121523,5,0,0:0:0:0:
308,360,121674,1,0,0:0:0:0:
380,368,121826,1,0,0:0:0:0:
452,376,121977,2,0,L|436:228,2,146.666666666667,2|0|0,0:0|0:0|0:0,0:0:0:0:
368,256,122886,5,2,0:0:0:0:
376,184,123038,1,0,0:0:0:0:
444,156,123189,1,0,0:0:0:0:
504,200,123341,1,0,0:0:0:0:
344,48,123795,5,2,0:0:0:0:
336,120,123947,1,0,0:0:0:0:
268,148,124098,1,0,0:0:0:0:
208,104,124250,2,0,B|192:72|196:32|196:32|120:44,1,146.666666666667
68,88,124705,6,0,P|40:64|16:28,2,73.3333333333333,2|0|0,0:0|0:0|0:0,0:0:0:0:
136,116,125159,2,0,B|144:160|164:184|164:184|152:332,1,220
8,364,125917,1,0,0:0:0:0:
84,240,126220,1,0,0:0:0:0:
228,212,126523,2,0,L|224:288,2,73.3333333333333
296,232,126977,5,2,0:0:0:0:
412,44,127432,1,0,0:0:0:0:
412,44,127583,1,2,0:0:0:0:
484,64,127735,1,2,0:0:0:0:
488,136,127886,1,0,0:0:0:0:
488,136,128038,1,2,0:0:0:0:
420,164,128189,1,0,0:0:0:0:
376,104,128341,2,0,P|356:80|320:52,2,73.3333333333333,2|0|0,0:0|0:0|0:0,0:0:0:0:
348,172,128795,5,2,0:0:0:0:
420,164,128947,1,2,0:0:0:0:
480,208,129098,1,0,0:0:0:0:
480,208,129250,2,0,P|468:288|348:360,1,220
140,332,130159,5,2,0:0:0:0:
96,272,130311,1,0,0:0:0:0:
168,264,130462,1,0,0:0:0:0:
68,340,130614,5,4,0:0:0:0:
36,124,131068,5,2,0:0:0:0:
108,132,131220,1,0,0:0:0:0:
176,108,131371,1,0,0:0:0:0:
288,148,131523,5,6,0:0:0:0:
468,20,131977,5,2,0:0:0:0:
396,28,132129,1,0,0:0:0:0:
328,4,132280,1,0,0:0:0:0:
216,44,132432,5,6,0:0:0:0:
216,44,132886,5,0,0:0:0:0:
176,108,133038,1,0,0:0:0:0:
108,132,133189,1,2,0:0:0:0:
40,104,133341,2,0,P|44:76|48:32,2,73.3333333333333,6|0|0,0:0|0:0|0:0,0:0:0:0:
160,180,133795,2,0,P|164:208|168:252,2,73.3333333333333,2|2|0,0:0|0:0|0:0,0:0:0:0:
176,108,134250,6,0,P|248:116|364:208,1,220,4|2,0:0|0:0,0:0:0:0:
280,324,135008,1,0,0:0:0:0:
212,356,135159,2,0,P|140:348|24:256,1,220,2|0,0:0|0:0,0:0:0:0:
4,40,136068,6,0,L|152:48,1,146.666666666667,2|0,0:0|0:0,0:0:0:0:
220,24,136523,2,0,L|212:188,3,146.666666666667,2|0|0|2,0:0|0:0|0:0|0:0,0:0:0:0:
312,276,137735,1,0,0:0:0:0:
384,260,137886,6,0,B|424:240|424:240|444:192|420:140,1,146.666666666667,2|0,0:0|0:0,0:0:0:0:
492,120,138341,2,0,P|506:191|496:264,1,146.666666666667,2|0,0:0|0:0,0:0:0:0:
356,192,138795,2,0,P|342:121|352:48,1,146.666666666667,2|0,0:0|0:0,0:0:0:0:
424,28,139250,1,2,0:0:0:0:
276,40,139553,1,0,0:0:0:0:
264,112,139705,5,2,0:0:0:0:
208,64,139856,2,0,P|184:52|136:40,1,73.3333333333333
68,56,140159,1,2,0:0:0:0:
0,184,140462,1,0,0:0:0:0:
124,260,140765,1,0,0:0:0:0:
192,132,141068,1,0,0:0:0:0:
120,140,141220,1,2,0:0:0:0:
72,196,141371,1,2,0:0:0:0:
52,268,141523,6,0,P|92:328|164:320,1,146.666666666667,4|0,0:0|0:0,0:0:0:0:
196,252,141977,2,0,P|156:192|84:200,1,146.666666666667,2|0,0:0|0:0,0:0:0:0:
28,236,142432,2,0,L|20:88,1,146.666666666667,2|0,0:0|0:0,0:0:0:0:
68,32,142886,2,0,L|216:20,1,146.666666666667,2|0,0:0|0:0,0:0:0:0:
272,64,143341,6,0,L|276:144,2,73.3333333333333,2|0|0,0:0|0:0|0:0,0:0:0:0:
340,36,143795,1,2,0:0:0:0:
204,96,144098,1,0,0:0:0:0:
264,228,144401,1,0,0:0:0:0:
400,168,144704,1,2,0:0:0:0:
368,104,144856,1,0,0:0:0:0:
440,112,145008,1,0,0:0:0:0:
472,176,145159,6,0,B|456:224|456:224|476:248|476:296|456:320,1,146.666666666667,2|0,0:0|0:0,0:0:0:0:
328,372,145614,2,0,B|344:324|344:324|324:300|324:252|344:228,1,146.666666666667,2|0,0:0|0:0,0:0:0:0:
400,276,146068,1,2,0:0:0:0:
400,276,146220,1,0,0:0:0:0:
280,188,146523,2,0,P|256:256|268:332,1,146.666666666667,2|0,0:0|0:0,0:0:0:0:
204,368,146977,5,2,0:0:0:0:
148,320,147129,1,0,0:0:0:0:
76,308,147280,1,0,0:0:0:0:
28,252,147432,1,2,0:0:0:0:
16,180,147583,1,0,0:0:0:0:
56,116,147735,2,0,L|208:136,2,146.666666666667,2|0|2,0:0|0:0|0:0,0:0:0:0:
164,16,148644,1,0,0:0:0:0:
220,64,148795,5,4,0:0:0:0:
276,112,148947,1,0,0:0:0:0:
348,128,149098,1,0,0:0:0:0:
416,104,149250,2,0,L|436:264,1,146.666666666667,2|0,0:0|0:0,0:0:0:0:
480,308,149705,1,0,0:0:0:0:
424,356,149856,5,2,0:0:0:0:
380,296,150008,1,0,0:0:0:0:
312,268,150159,1,2,0:0:0:0:
240,276,150311,1,0,0:0:0:0:
188,324,150462,1,0,0:0:0:0:
116,336,150614,1,2,0:0:0:0:
48,304,150765,1,0,0:0:0:0:
8,240,150917,1,0,0:0:0:0:
4,168,151068,2,0,L|20:16,2,146.666666666667,2|0|0,0:0|0:0|0:0,0:0:0:0:
148,196,151977,2,0,L|140:272,2,73.3333333333333,0|2|0,0:0|0:0|0:0,0:0:0:0:
208,156,152432,6,0,P|280:144|352:120,1,146.666666666667,2|0,0:0|0:0,0:0:0:0:
396,64,152886,1,0,0:0:0:0:
480,184,153189,1,0,0:0:0:0:
440,244,153340,2,0,P|367:256|298:279,1,146.666666666667,2|0,0:0|0:0,0:0:0:0:
264,344,153795,5,2,0:0:0:0:
196,368,153947,1,0,0:0:0:0:
124,356,154098,1,2,0:0:0:0:
64,312,154250,2,0,P|32:256|32:172,1,146.666666666667
68,112,154705,5,0,0:0:0:0:
96,180,154856,1,2,0:0:0:0:
0,108,155008,1,0,0:0:0:0:
108,56,155159,2,0,P|184:64|260:68,1,146.666666666667,2|0,0:0|0:0,0:0:0:0:
328,64,155614,1,2,0:0:0:0:
400,52,155765,2,0,L|444:112,1,73.3333333333333
496,160,156068,5,4,0:0:0:0:
424,184,156220,1,0,0:0:0:0:
392,248,156371,1,0,0:0:0:0:
420,316,156523,2,0,B|424:340|440:368|440:368|348:360,1,146.666666666667,2|0,0:0|0:0,0:0:0:0:
276,352,156977,1,0,0:0:0:0:
316,288,157129,6,0,L|240:280,1,73.3333333333333,2|0,0:0|0:0,0:0:0:0:
488,272,157432,2,0,P|492:300|516:344,2,73.3333333333333,2|0|0,0:0|0:0|0:0,0:0:0:0:
324,212,157886,5,2,0:0:0:0:
256,188,158038,1,0,0:0:0:0:
280,120,158189,1,0,0:0:0:0:
348,144,158341,2,0,P|404:172|488:164,1,146.666666666667,2|0,0:0|0:0,0:0:0:0:
512,20,158947,2,0,P|456:-8|372:0,1,146.666666666667,0|2,0:0|0:0,0:0:0:0:
312,40,159401,2,0,P|280:48|240:52,1,73.3333333333333
168,28,159705,5,2,0:0:0:0:
24,196,160159,1,2,0:0:0:0:
40,268,160311,1,0,0:0:0:0:
92,220,160462,1,0,0:0:0:0:
24,196,160614,1,2,0:0:0:0:
312,264,161068,5,2,0:0:0:0:
292,356,161220,1,0,0:0:0:0:
224,292,161371,1,0,0:0:0:0:
312,264,161523,2,0,P|388:260|456:280,1,146.666666666667,2|0,0:0|0:0,0:0:0:0:
492,216,161977,5,2,0:0:0:0:
424,188,162129,1,0,0:0:0:0:
352,184,162280,1,0,0:0:0:0:
280,200,162432,5,0,0:0:0:0:
360,328,162583,1,0,0:0:0:0:
256,220,162735,1,2,0:0:0:0:
384,308,162886,2,0,B|320:292|304:344|240:328,1,146.666666666667,2|0,0:0|0:0,0:0:0:0:
172,300,163341,6,0,L|24:312,1,146.666666666667,6|0,0:0|0:0,0:0:0:0:
4,240,163795,1,0,0:0:0:0:
88,120,164098,1,0,0:0:0:0:
88,120,164174,1,0,0:0:0:0:
88,120,164250,2,0,L|234:131,1,146.666666666667,2|0,0:0|0:0,0:0:0:0:
268,64,164705,2,0,L|416:52,1,146.666666666667,2|2,0:0|0:0,0:0:0:0:
388,120,165159,6,0,L|312:128,1,73.3333333333333,4|0,0:0|0:0,0:0:0:0:
116,48,165462,2,0,L|192:56,1,73.3333333333333,2|0,0:0|0:0,0:0:0:0:
436,176,165765,2,0,P|432:216|424:248,1,73.3333333333333,2|0,0:0|0:0,0:0:0:0:
234,132,166068,2,0,P|238:92|246:60,1,73.3333333333333,2|0,0:0|0:0,0:0:0:0:
372,304,166371,2,0,P|338:326|309:341,1,73.3333333333333,2|0,0:0|0:0,0:0:0:0:
112,144,166674,2,0,P|144:160|174:181,1,73.3333333333333,2|0,0:0|0:0,0:0:0:0:
208,248,166977,6,0,P|216:308|144:364,1,146.666666666667,2|0,0:0|0:0,0:0:0:0:
84,376,167432,2,0,P|28:352|15:262,1,146.666666666667,0|2,0:0|0:0,0:0:0:0:
20,240,167811,1,0,0:0:0:0:
32,208,167886,2,0,P|79:171|164:205,1,146.666666666667,2|0,0:0|0:0,0:0:0:0:
208,248,168341,2,0,P|255:284|340:250,1,146.666666666667,2|2,0:0|0:0,0:0:0:0:
276,212,168795,6,0,L|272:136,1,73.3333333333333,4|0,0:0|0:0,0:0:0:0:
96,250,169098,2,0,L|100:324,1,73.3333333333333,2|0,0:0|0:0,0:0:0:0:
352,236,169401,2,0,P|380:212|412:192,1,73.3333333333333,2|0,0:0|0:0,0:0:0:0:
196,140,169705,2,0,P|168:164|136:184,1,73.3333333333333,2|0,0:0|0:0,0:0:0:0:
392,92,170008,2,0,P|428:88|468:88,1,73.3333333333333,2|0,0:0|0:0,0:0:0:0:
504,328,170311,2,0,P|468:332|428:332,1,73.3333333333333,2|0,0:0|0:0,0:0:0:0:
360,308,170614,6,0,L|208:332,1,146.666666666667,6|0,0:0|0:0,0:0:0:0:
32,232,171068,2,0,L|184:256,1,146.666666666667,0|2,0:0|0:0,0:0:0:0:
176,254,171447,1,0,0:0:0:0:
176,254,171523,2,0,L|168:104,1,146.666666666667,2|0,0:0|0:0,0:0:0:0:
156,36,171977,2,0,P|228:48|304:40,1,146.666666666667,2|2,0:0|0:0,0:0:0:0:
372,20,172432,6,0,L|448:12,1,73.3333333333333,4|0,0:0|0:0,0:0:0:0:
172,120,172735,2,0,P|132:112|100:100,1,73.3333333333333,2|0,0:0|0:0,0:0:0:0:
384,216,173038,2,0,P|424:224|456:236,1,73.3333333333333,2|0,0:0|0:0,0:0:0:0:
168,336,173341,2,0,L|92:344,1,73.3333333333333,2|0,0:0|0:0,0:0:0:0:
244,168,173644,2,0,L|320:176,1,73.3333333333333,2|0,0:0|0:0,0:0:0:0:
484,16,173947,2,0,L|411:23,1,73.3333333333333,2|0,0:0|0:0,0:0:0:0:
372,88,174250,6,0,P|300:80|224:84,1,146.666666666667,2|0,0:0|0:0,0:0:0:0:
160,112,174705,1,0,0:0:0:0:
108,60,174856,1,0,0:0:0:0:
180,40,175008,1,2,0:0:0:0:
180,40,175083,1,2,0:0:0:0:
180,40,175159,2,0,P|144:84|72:136,1,146.666666666667,2|0,0:0|0:0,0:0:0:0:
12,180,175614,2,0,P|48:224|120:276,1,146.666666666667,2|2,0:0|0:0,0:0:0:0:
192,284,176068,6,0,L|200:212,1,73.3333333333333,4|0,0:0|0:0,0:0:0:0:
0,268,176371,2,0,P|28:296|56:316,1,73.3333333333333,2|0,0:0|0:0,0:0:0:0:
240,144,176674,2,0,P|236:108|228:72,1,73.3333333333333,2|0,0:0|0:0,0:0:0:0:
28,24,176977,2,0,P|32:60|40:96,1,73.3333333333333,2|0,0:0|0:0,0:0:0:0:
464,284,177280,2,0,P|471:248|476:211,1,73.3333333333333,2|0,0:0|0:0,0:0:0:0:
192,284,177583,2,0,P|184:319|179:356,1,73.3333333333333,2|0,0:0|0:0,0:0:0:0:
344,376,177886,5,2,0:0:0:0:
56,288,178038,1,2,0:0:0:0:
168,8,178189,1,2,0:0:0:0:
456,96,178341,1,0,0:0:0:0:
344,376,178492,1,0,0:0:0:0:
20,108,178644,1,2,0:0:0:0:
52,88,179250,5,2,0:0:0:0:
424,20,179401,1,2,0:0:0:0:
24,236,179553,1,2,0:0:0:0:
464,192,179705,1,2,0:0:0:0:
0,384,179856,1,0,0:0:0:0:
504,364,180008,1,2,0:0:0:0:
256,192,181068,5,2,0:0:0:0:
148,24,181220,1,2,0:0:0:0:
442,264,181371,1,2,0:0:0:0:
62,242,181523,1,0,0:0:0:0:
382,37,181674,1,0,0:0:0:0:
244,391,181826,1,2,0:0:0:0:
228,376,182432,5,2,0:0:0:0:
284,8,182583,1,2,0:0:0:0:
16,248,182735,1,2,0:0:0:0:
496,136,182886,1,2,0:0:0:0:
0,0,183038,1,2,0:0:0:0:
512,384,183189,1,2,0:0:0:0:
512,384,183795,2,0,B|533:353|533:353|494:336|494:336|502:257|449:202,1,220,2|0,0:0|0:0,0:0:0:0:
