osu file format v12

[General]
AudioFilename: Arata Iiyoshi - Spacial Cliffs.mp3
AudioLeadIn: 0
PreviewTime: -1
Countdown: 1
SampleSet: None
StackLeniency: 0.7
Mode: 0
LetterboxInBreaks: 1
WidescreenStoryboard: 1

[Editor]
Bookmarks: 119705
DistanceSpacing: 1
BeatDivisor: 4
GridSize: 4

[Metadata]
Title:Spacial Cliffs
TitleUnicode:Spacial Cliffs
Artist:Arata Iiyoshi
ArtistUnicode:Arata Iiyoshi
Creator:Ekoro
Version:Easy
Source:Pokemon Mystery Dungeon: Explorers of Sky
Tags:
BeatmapID:369800
BeatmapSetID:149488

[Difficulty]
HPDrainRate:3
CircleSize:3
OverallDifficulty:2
ApproachRate:4
SliderMultiplier:0.999999999999999
SliderTickRate:1

[Events]
//Background and Video events
0,0,"424441.jpg",0,0
//Break Periods
//Storyboard Layer 0 (Background)
//Storyboard Layer 1 (Fail)
//Storyboard Layer 2 (Pass)
//Storyboard Layer 3 (Foreground)
//Storyboard Sound Samples
//Background Colour Transformations
3,100,163,162,255

[TimingPoints]
616,606.060606060606,4,1,0,60,1,0
29706,454.545454545455,4,1,0,60,1,0
87887,-100,4,1,0,80,0,1
94251,606.060606060606,4,1,0,60,1,0
119705,454.545454545455,4,1,0,60,1,0
184250,606.060606060606,4,1,0,60,1,0

[Colours]
Combo1 : 106,128,149
Combo2 : 0,128,255
Combo3 : 128,128,128

[HitObjects]
52,32,616,2,0,P|112:112|120:220,1,200,4|0,0:0|0:0,0:0:0:0:
84,304,2434,1,0,0:0:0:0:
184,292,3040,2,0,P|248:292|304:316,1,125,0|2,0:0|0:0,0:0:0:0:
364,364,4252,6,0,P|428:364|488:240,1,200,2|0,0:0|0:0,0:0:0:0:
436,176,6070,1,0,0:0:0:0:
340,144,6676,2,0,L|212:164,1,125,0|2,0:0|0:0,0:0:0:0:
152,204,7888,6,0,P|88:204|28:80,1,200,2|0,0:0|0:0,0:0:0:0:
84,16,9706,1,0,0:0:0:0:
124,108,10312,2,0,P|180:96|212:36,1,125,0|2,0:0|0:0,0:0:0:0:
284,12,11525,6,0,L|440:24,1,150,2|2,0:0|0:0,0:0:0:0:
472,168,13343,2,0,L|316:156,1,150,2|2,0:0|0:0,0:0:0:0:
256,192,14706,2,0,P|268:228|268:264,1,74.9999999999999,0|2,0:0|0:0,0:0:0:0:
132,324,16070,6,0,P|120:288|120:252,2,74.9999999999999,0|0|2,0:0|0:0|0:0,0:0:0:0:
228,356,17585,2,0,L|336:352,1,99.9999999999999
420,308,18797,6,0,P|400:212|432:116,1,200
512,60,20615,1,0,0:0:0:0:
420,20,21222,2,0,L|296:32,1,125,0|2,0:0|0:0,0:0:0:0:
240,84,22434,6,0,L|80:68,1,150,2|0,0:0|0:0,0:0:0:0:
20,200,24252,2,0,L|180:216,1,150,2|2,0:0|0:0,0:0:0:0:
236,248,25615,2,0,P|240:288|240:324,1,74.9999999999999,0|2,0:0|0:0,0:0:0:0:
348,220,26979,6,0,P|344:180|344:144,2,74.9999999999999,0|2|2,0:0|0:0|0:0,0:0:0:0:
440,176,28494,2,0,L|448:72,1,99.9999999999999
356,36,29706,6,0,P|264:64|160:56,1,200,4|2,0:0|0:0,0:0:0:0:
68,24,31069,1,0,0:0:0:0:
84,124,31524,2,0,L|76:328,1,200,0|2,0:0|0:0,0:0:0:0:
168,368,32887,5,0,0:0:0:0:
228,288,33342,2,0,P|324:284|408:352,1,200,0|2,0:0|0:0,0:0:0:0:
500,172,35160,2,0,P|404:176|320:108,1,200,0|2,0:0|0:0,0:0:0:0:
140,36,36978,6,0,B|128:244,1,200,0|2,0:0|0:0,0:0:0:0:
176,324,38342,1,0,0:0:0:0:
232,240,38796,2,0,P|328:232|420:280,1,200,0|2,0:0|0:0,0:0:0:0:
460,188,40160,5,0,0:0:0:0:
424,96,40615,2,0,L|224:116,1,200,4|6,0:0|0:0,0:0:0:0:
40,192,42433,2,0,L|240:212,1,200,4|6,0:0|0:0,0:0:0:0:
336,224,43796,1,0,0:0:0:0:
416,284,44251,6,0,P|364:344|244:336,1,200,4|2,0:0|0:0,0:0:0:0:
188,264,45615,1,0,0:0:0:0:
152,356,46069,2,0,L|52:348,1,99.9999999999999,0|2,0:0|0:0,0:0:0:0:
8,152,47433,5,0,0:0:0:0:
28,56,47887,2,0,P|104:24|220:32,1,200,0|2,0:0|0:0,0:0:0:0:
296,216,49706,2,0,P|372:248|488:240,1,200,0|2,0:0|0:0,0:0:0:0:
496,140,51069,1,0,0:0:0:0:
412,88,51524,6,0,L|216:136,1,200,4|2,0:0|0:0,0:0:0:0:
120,160,52887,1,0,0:0:0:0:
44,224,53342,2,0,L|32:328,1,99.9999999999999,0|2,0:0|0:0,0:0:0:0:
228,360,54706,5,0,0:0:0:0:
248,260,55160,2,0,P|340:260|448:244,1,200,0|2,0:0|0:0,0:0:0:0:
352,68,56978,2,0,P|260:68|152:84,1,200,0|2,0:0|0:0,0:0:0:0:
68,136,58342,1,0,0:0:0:0:
36,232,58796,5,4,0:0:0:0:
132,212,59251,2,0,P|224:212|332:228,1,200,0|0,0:0|0:0,0:0:0:0:
428,256,60615,2,0,L|416:52,1,200,0|2,0:0|0:0,0:0:0:0:
320,36,61978,1,0,0:0:0:0:
324,136,62433,6,0,P|224:128|144:68,1,200,0|2,0:0|0:0,0:0:0:0:
4,212,64251,2,0,P|104:220|184:280,1,200,0|2,0:0|0:0,0:0:0:0:
212,372,65615,1,0,0:0:0:0:
280,300,66069,5,4,0:0:0:0:
376,332,66524,2,0,P|444:292|480:176,1,200
384,152,67887,2,0,L|176:176,1,200,0|2,0:0|0:0,0:0:0:0:
84,184,69251,1,0,0:0:0:0:
128,92,69706,6,0,P|228:80|328:36,1,200,0|2,0:0|0:0,0:0:0:0:
436,204,71524,2,0,P|336:216|236:260,1,200,0|2,0:0|0:0,0:0:0:0:
184,332,72887,1,0,0:0:0:0:
144,240,73342,6,0,P|116:156|44:68,1,200,4|2,0:0|0:0,0:0:0:0:
240,16,75160,2,0,L|236:120,1,99.9999999999999,4|0,0:0|0:0,0:0:0:0:
328,156,76069,2,0,L|332:52,1,99.9999999999999,2|0,0:0|0:0,0:0:0:0:
424,16,76978,6,0,P|424:116|436:216,1,200,0|2,0:0|0:0,0:0:0:0:
292,356,78796,2,0,L|192:368,1,99.9999999999999,4|0,0:0|0:0,0:0:0:0:
156,276,79706,2,0,L|56:264,1,99.9999999999999,2|0,0:0|0:0,0:0:0:0:
40,164,80615,5,4,0:0:0:0:
196,36,81524,1,2,0:0:0:0:
388,92,82433,2,0,L|444:180,1,99.9999999999999,4|0,0:0|0:0,0:0:0:0:
360,236,83342,2,0,L|304:148,1,99.9999999999999,2|0,0:0|0:0,0:0:0:0:
212,180,84251,6,0,P|256:256|256:368,1,200,0|2,0:0|0:0,0:0:0:0:
68,296,86069,1,4,0:0:0:0:
24,208,86524,1,0,0:0:0:0:
36,108,86978,1,2,0:0:0:0:
104,36,87433,1,0,0:0:0:0:
204,16,87887,6,0,L|376:20,1,166.666666666667,2|2,0:0|0:0,0:0:0:0:
436,136,89251,2,0,L|264:140,1,166.666666666667,2|2,0:0|0:0,0:0:0:0:
56,232,91069,5,2,0:0:0:0:
192,312,91827,1,0,0:0:0:0:
316,264,92433,5,2,0:0:0:0:
452,344,93191,1,2,0:0:0:0:
452,344,93796,2,0,L|464:240,1,99.9999999999999,2|0,0:0|0:0,0:0:0:0:
