osu file format v5

[General]
AudioFilename: Arashi - Truth.mp3
AudioLeadIn: 0
PreviewTime: 68905
Countdown: 1
SampleSet: Soft
StackLeniency: 0.7
Mode: 0
LetterboxInBreaks: 1
EditorBookmarks: 15611,46897,69611,91254,116968,131111,166683,194111,206968,219825,240718

[Metadata]
Title:truth
Artist:Arashi
Creator:MaxwellDemon
Version:Easy
Source:Maou
Tags:

[Difficulty]
HPDrainRate:2
CircleSize:4
OverallDifficulty:4
SliderMultiplier:1.6
SliderTickRate:2

[Events]
//Background and Video events
1,-750,"truth.avi"
//Break Periods
2,104462,115791
//Storyboard Layer 0 (Background)
//Storyboard Layer 1 (Failing)
//Storyboard Layer 2 (Passing)
//Storyboard Layer 3 (Foreground)
//Storyboard Sound Samples
//Background Colour Transformations
3,100,0,0,0

[TimingPoints]
1427,428.571428571429,4,2,0,100,1
29133,428.571428571429,4,1,0,100,0
225998,428.571428571429,4,2,0,100,0
229426,428.571428571429,4,1,0,100,0
229640,428.571428571429,4,2,0,100,0
230712,428.571428571429,4,1,0,100,0
232854,428.571428571429,4,2,0,100,0
236068,428.571428571429,4,1,0,100,0

[Colours]
Combo1 : 119,0,36
Combo2 : 218,218,218
Combo3 : 100,91,91

[HitObjects]
72,312,15569,1,0
240,312,16426,1,0
408,312,17284,1,2
408,144,18141,5,0
240,144,18998,1,0
72,144,19855,1,2
80,296,20498,6,0,B|434:421|440:8,1,560
320,64,22641,5,2
232,152,23498,1,2
144,152,23927,1,6
144,240,24355,1,0
232,240,24784,2,0,B|368:263|240:360,1,160,0|2
184,312,25641,6,0,B|360:312,1,160,0|2
184,152,27355,2,0,B|368:152,2,160,0|4|0
328,240,29069,5,0
176,312,29927,1,0
160,144,30784,1,8
320,96,31641,5,4
240,248,32498,1,4
88,168,33355,1,8
80,336,34212,6,0,B|176:184|320:176|392:240|440:304|480:336,1,480
472,248,35927,5,8
416,104,36784,1,8
256,112,37641,1,0
320,168,38069,2,0,B|456:191|328:288,1,160,4|8
184,312,39355,6,0,B|360:312,1,160,0|2
320,232,40212,2,0,B|136:232,1,160,0|4
256,144,41284,2,0,B|196:38|112:136,2,160
168,184,42569,2,0,B|147:265|192:336|307:328|363:320|382:244|380:145|359:116|272:104,2,480
248,184,45569,5,8
280,104,45998,2,0,B|199:83|128:128|136:243|144:299|220:318|319:316|348:295|360:208,2,480
440,48,49426,5,0
296,136,50284,1,0
352,192,50712,2,0,B|422:257|371:338|288:336|216:288,1,240
248,224,51784,2,4,B|80:224,2,160
160,128,53284,5,4
216,72,53712,1,8
296,64,54141,1,0
392,200,54998,6,4,B|339:100|248:184,2,160
320,192,56284,2,0,B|341:273|296:344|181:336|125:328|106:252|108:153|129:124|216:112,2,480
232,192,59284,5,8
208,112,59712,6,0,B|289:91|360:136|352:251|344:307|268:326|169:324|140:303|128:216,2,480
88,56,63141,5,0
232,144,63998,1,0
160,192,64426,2,0,B|90:257|141:338|224:336|296:288,1,240
264,224,65498,2,4,B|432:224,2,160
352,128,66998,5,4
216,64,67855,2,0,B|136:80|104:184|192:264,1,240,0|12
264,280,68926,6,0,B|352:336|440:200|432:152|400:64|344:24|192:64,1,480
368,248,70855,5,0
288,216,71284,2,4,B|200:208|160:112,1,160
24,32,72569,1,8
112,176,73426,6,4,B|56:272|120:344,2,160
200,264,74926,6,0,B|272:200|360:272,4,160
224,136,77284,1,4
80,224,78141,1,4
200,304,78784,5,0
288,304,79212,2,0,B|400:304|408:216,1,160,4|0
256,192,80069,12,0,83069
88,312,84141,5,0
224,216,84998,2,4,B|312:208|352:112,1,160
488,32,86284,1,8
456,112,86712,1,4
400,176,87141,6,4,B|456:272|392:344,2,160
320,272,88641,6,0,B|248:208|160:280,4,160
304,144,90998,1,4
432,256,91855,1,0
304,328,92498,5,0
224,328,92926,2,0,B|112:328|104:240,1,160
192,152,93998,6,0,B|280:88|344:160,1,160
368,272,95069,1,4
296,320,95498,2,0,B|200:360|160:264,3,160
168,144,97426,6,0,B|259:83|320:176,2,160
240,48,98926,1,4
320,48,99355,1,4
400,48,99784,1,4
256,192,100426,12,4,104284
184,240,118212,5,0
336,312,119069,1,0
352,144,119926,1,8
192,96,120784,5,4
272,248,121641,1,4
424,168,122498,1,8
432,336,123355,6,0,B|336:184|192:176|120:240|72:304|32:336,1,480
40,248,125069,5,8
96,104,125926,1,8
256,112,126784,1,0
192,168,127212,2,0,B|56:191|184:288,1,160,4|8
328,312,128498,6,0,B|152:312,1,160,0|2
192,232,129355,2,0,B|376:232,1,160,0|4
256,144,130426,2,0,B|316:38|400:136,2,160
344,184,131712,2,0,B|365:265|320:336|205:328|149:320|130:244|132:145|153:116|240:104,2,480
264,184,134712,5,8
232,104,135141,2,0,B|313:83|384:128|376:243|368:299|292:318|193:316|164:295|152:208,2,480
88,56,138569,5,0
232,144,139426,1,0
160,192,139855,2,0,B|90:257|141:338|224:336|296:288,1,240
264,224,140926,2,4,B|432:224,2,160
352,128,142426,5,4
296,72,142855,1,8
216,64,143284,1,0
120,200,144141,6,4,B|173:100|264:184,2,160
192,192,145426,2,0,B|171:273|216:344|331:336|387:328|406:252|404:153|383:124|296:112,2,480
280,192,148427,5,8
304,112,148855,6,0,B|223:91|152:136|160:251|168:307|244:326|343:324|372:303|384:216,2,480
424,56,152284,5,0
280,144,153141,1,0
352,192,153569,2,0,B|422:257|371:338|288:336|216:288,1,240
248,224,154641,2,4,B|80:224,2,160
160,128,156141,5,4
296,64,156998,2,0,B|376:80|408:184|320:264,1,240,0|12
248,288,158069,6,0,B|160:344|72:208|80:160|112:72|168:32|320:72,1,480
144,248,159998,5,0
224,216,160427,2,4,B|312:208|352:112,1,160
488,32,161712,1,8
400,176,162569,6,4,B|456:272|392:344,2,160
312,264,164069,6,0,B|240:200|152:272,4,160
288,136,166427,1,4
432,224,167284,1,4
312,304,167927,5,0
224,304,168355,2,0,B|112:304|104:216,1,160,4|0
256,192,169212,12,0,172212
424,312,173284,5,0
288,216,174141,2,4,B|200:208|160:112,1,160
24,32,175427,1,8
56,112,175855,1,4
112,176,176284,6,4,B|56:272|120:344,2,160
192,272,177784,6,0,B|264:208|352:280,4,160
208,144,180141,1,4
80,256,180998,1,0
208,328,181641,5,0
288,328,182069,2,0,B|400:328|408:240,1,160
320,152,183141,6,0,B|232:88|168:160,1,160
144,272,184212,1,4
216,320,184641,2,0,B|312:360|352:264,3,160
344,144,186569,6,0,B|253:83|192:176,2,160
272,48,188069,1,4
192,48,188498,1,4
112,48,188927,1,4
256,192,189569,12,4,193427
