osu file format v12

[General]
AudioFilename: Shou.mp3
AudioLeadIn: 0
PreviewTime: 57343
Countdown: 0
SampleSet: Soft
StackLeniency: 0.7
Mode: 0
LetterboxInBreaks: 0
WidescreenStoryboard: 0

[Editor]
Bookmarks: 212367
DistanceSpacing: 1
BeatDivisor: 4
GridSize: 32
TimelineZoom: 1

[Metadata]
Title:Te Tsunagou
TitleUnicode:手つなごぉ
Artist:Arashi
ArtistUnicode:嵐
Creator:Konei
Version:Normal
Source:
Tags:sakura sake akira
BeatmapID:359845
BeatmapSetID:144777

[Difficulty]
HPDrainRate:3
CircleSize:3
OverallDifficulty:3
ApproachRate:4
SliderMultiplier:1.2
SliderTickRate:1

[Events]
//Background and Video events
0,0,"uketomete.jpg",0,0
//Break Periods
2,98490,106966
2,187272,205333
//Storyboard Layer 0 (Background)
//Storyboard Layer 1 (Fail)
//Storyboard Layer 2 (Pass)
//Storyboard Layer 3 (Foreground)
//Storyboard Sound Samples
//Background Colour Transformations
3,100,163,162,255

[TimingPoints]
531,612.244897959184,4,2,1,50,1,0
20122,-100,4,2,1,60,0,0
37265,-100,4,2,1,5,0,0
39102,-100,4,2,1,60,0,0
45224,-100,4,2,2,60,0,0
45377,-100,4,2,1,60,0,0
50122,-100,4,2,2,60,0,0
50275,-100,4,2,1,60,0,0
52571,-100,4,2,2,60,0,0
52724,-100,4,2,1,60,0,0
59000,-100,4,2,1,60,0,1
63898,-100,4,2,2,50,0,1
64051,-100,4,2,1,60,0,1
78439,-100,4,2,1,60,0,0
78592,-100,4,2,1,60,0,1
83490,-100,4,2,2,50,0,1
83643,-100,4,2,1,60,0,1
98184,-100,4,2,1,60,0,0
125888,-100,4,2,1,5,0,0
127265,-100,4,2,1,60,0,0
133388,-100,4,2,2,60,0,0
133541,-100,4,2,1,60,0,0
138286,-100,4,2,2,60,0,0
138439,-100,4,2,1,60,0,0
140735,-100,4,2,2,60,0,0
140888,-100,4,2,1,60,0,0
147163,-100,4,2,1,60,0,1
152061,-100,4,2,2,50,0,1
152214,-100,4,2,1,60,0,1
166602,-100,4,2,1,60,0,0
166755,-100,4,2,1,60,0,1
171653,-100,4,2,2,50,0,1
171806,-100,4,2,1,60,0,1
186347,-100,4,2,1,60,0,0
186653,-100,4,2,1,40,0,0
206857,-100,4,2,1,60,0,0
208388,-100,4,2,1,60,0,1
213286,-100,4,2,2,50,0,1
213439,-100,4,2,1,60,0,1
227826,-100,4,2,1,60,0,0
227979,-100,4,2,1,60,0,1
232877,-100,4,2,2,50,0,1
233031,-100,4,2,1,60,0,1
246041,-100,4,2,1,40,0,1
247571,-100,4,2,1,60,0,0
247877,-100,4,2,1,15,0,0
249714,-100,4,2,1,55,0,0

[Colours]
Combo1 : 233,223,46
Combo2 : 227,168,79
Combo3 : 124,24,177
Combo4 : 208,34,38

[HitObjects]
39,133,20122,6,0,P|90:153|158:133,1,120,4|0,3:2|1:0,0:0:0:0:
213,34,21347,1,0,3:0:0:0:
256,145,21959,1,0,1:0:0:0:
299,34,22571,1,0,3:0:0:0:
388,114,23184,2,0,P|390:171|386:250,1,120,0|0,1:0|3:0,0:0:0:0:
377,353,24408,1,0,1:0:0:0:
257,326,25020,6,0,B|211:327|211:327|186:334|186:334|120:333,2,120,0|0|0,3:0|1:0|3:0,0:0:0:0:
344,243,26857,1,0,1:0:0:0:
255,162,27469,2,0,P|261:110|253:36,2,120,0|0|0,3:0|1:0|3:0,0:0:0:0:
255,282,29306,1,0,1:0:0:0:
149,338,29918,6,0,P|97:344|23:336,2,120,0|0|0,3:0|1:0|3:0,0:0:0:0:
193,226,31755,1,0,1:0:0:0:
256,123,32367,2,0,P|312:131|395:120,1,120,0|0,3:0|1:0,0:0:0:0:
446,27,33592,2,0,P|386:20|306:29,1,120,0|0,3:0|1:0,0:0:0:0:
206,17,34816,5,0,3:0:0:0:
90,49,35428,1,0,1:0:0:0:
93,169,36041,1,0,3:0:0:0:
206,207,36653,2,0,L|246:269,1,60,0|2,1:0|0:0,0:0:0:0:
256,192,37265,12,2,39102,1:2:0:0:
211,145,39714,6,0,L|89:145,2,120,4|0|0,3:2|1:0|3:0,0:0:0:0:
257,183,41245,1,2,3:2:0:0:
302,143,41551,1,0,1:0:0:0:
388,226,42163,2,0,P|363:278|316:319,1,120,0|0,3:0|1:0,0:0:0:0:
196,319,43388,2,0,P|150:279|124:226,1,120,0|0,3:0|1:0,0:0:0:0:
170,115,44612,6,0,P|253:92|344:118,2,180,0|2|0,3:0|0:0|1:0,0:0:0:0:
152,233,47061,2,0,P|156:294|203:340,1,120,0|0,3:0|1:0,0:0:0:0:
314,334,48286,2,0,P|353:290|356:231,1,120,0|0,3:0|1:0,0:0:0:0:
256,174,49510,6,0,B|271:132|253:91|253:91|228:44|245:0,2,180,6|2|0,3:2|0:0|1:0,0:0:0:0:
375,182,51959,2,0,B|390:224|372:265|372:265|347:312|364:356,2,180,2|0|0,3:2|0:0|1:0,0:0:0:0:
316,77,54408,5,2,3:2:0:0:
257,181,55020,1,0,1:0:0:0:
196,77,55633,1,2,3:2:0:0:
113,164,56245,2,0,L|99:227,1,60,0|2,1:0|0:0,0:0:0:0:
255,314,57469,6,0,P|316:325|383:312,1,120,2|0,1:2|1:0,0:0:0:0:
390,258,58388,2,0,L|394:185,1,60,0|8,1:0|0:0,0:0:0:0:
398,138,59000,6,0,B|317:133|317:133|232:77,1,180,4|8,1:0|0:0,0:0:0:0:
153,170,60531,2,0,L|254:237,1,120,0|8,3:0|0:0,0:0:0:0:
185,335,61755,2,0,L|84:268,1,120,0|8,3:0|0:0,0:0:0:0:
33,160,62979,1,0,3:0:0:0:
84,51,63592,1,8,0:0:0:0:
143,65,63898,6,0,P|208:91|314:67,1,180,4|8,0:0|0:0,0:0:0:0:
372,72,65122,2,0,P|399:156|375:241,1,180,2|8,0:0|0:0,0:0:0:0:
355,298,66347,2,0,P|269:322|180:303,1,180,2|8,0:0|0:0,0:0:0:0:
122,199,67877,1,0,3:0:0:0:
135,79,68490,1,8,0:0:0:0:
254,88,69102,5,2,3:2:0:0:
249,207,69714,1,8,0:0:0:0:
264,325,70326,1,0,3:0:0:0:
356,248,70939,1,8,0:0:0:0:
375,129,71551,2,0,L|500:129,2,120,0|8|0,3:0|0:0|3:0,0:0:0:0:
256,154,73388,1,8,0:0:0:0:
165,76,74000,6,0,P|157:163|170:256,2,180,2|2|8,3:2|0:0|0:0,0:0:0:0:
201,28,76143,1,2,0:0:0:0:
322,166,77061,5,0,1:0:0:0:
324,285,77673,2,0,L|368:341,2,60,2|2|0,1:2|1:2|1:0,0:0:0:0:
264,280,78592,6,0,P|187:294|82:274,1,180,4|8,1:0|0:0,0:0:0:0:
3,191,80122,1,0,3:0:0:0:
77,96,80735,2,0,P|138:85|208:101,1,120,8|0,0:0|3:2,0:0:0:0:
255,198,81959,1,8,0:0:0:0:
317,95,82571,2,0,P|376:84|435:96,1,120,0|8,3:0|0:0,0:0:0:0:
434,155,83490,6,0,B|435:222|435:222|435:255|404:291|353:300,1,180,4|8,0:0|0:0,0:0:0:0:
347,356,84714,2,0,L|159:358,1,180,2|8,0:0|0:0,0:0:0:0:
150,300,85939,2,0,B|108:292|77:256|77:223|77:223|78:156,1,180,2|8,0:0|0:0,0:0:0:0:
110,42,87469,1,0,3:0:0:0:
183,141,88082,1,8,0:0:0:0:
256,47,88694,6,0,P|317:38|381:49,2,120,2|8|0,3:2|0:0|3:0,0:0:0:0:
182,141,90531,1,8,0:0:0:0:
186,261,91143,2,0,L|194:383,1,120,0|8,3:0|0:0,0:0:0:0:
313,380,92367,2,0,L|320:260,1,120,0|8,3:0|0:0,0:0:0:0:
334,140,93592,6,0,P|414:129|492:196,2,180,2|2|8,3:2|0:0|0:0,0:0:0:0:
277,160,95735,1,2,0:0:0:0:
116,240,96653,5,2,1:2:0:0:
52,137,97265,1,0,1:0:0:0:
171,142,97877,2,0,L|241:151,1,60,0|2,1:0|0:0,0:0:0:0:
194,206,108286,6,0,P|179:139|196:89,1,120,4|0,3:2|1:0,0:0:0:0:
296,154,109510,1,0,3:0:0:0:
291,273,110122,1,0,1:0:0:0:
411,275,110735,2,0,P|487:315|505:357,2,120,0|0|0,3:0|1:0|3:0,0:0:0:0:
291,272,112571,1,0,1:0:0:0:
196,197,113184,6,0,P|192:129|160:77,1,120,0|0,3:0|1:0,0:0:0:0:
83,170,114408,1,0,3:0:0:0:
110,286,115020,1,0,1:0:0:0:
206,356,115633,2,0,L|338:355,1,120,0|8,3:0|1:3,0:0:0:0:
431,297,116857,1,0,3:0:0:0:
455,179,117469,1,0,1:0:0:0:
362,101,118082,6,0,P|303:107|237:99,1,120,2|0,3:2|1:0,0:0:0:0:
123,89,119306,1,0,3:0:0:0:
171,198,119918,1,0,1:0:0:0:
255,282,120531,2,0,L|379:282,1,120,0|0,3:0|1:0,0:0:0:0:
333,169,121755,2,0,L|457:169,1,120,0|0,3:0|1:0,0:0:0:0:
437,50,122979,6,0,L|313:50,1,120,0|0,3:2|1:0,0:0:0:0:
256,154,124204,1,0,3:0:0:0:
191,53,124816,2,0,L|111:53,1,60,0|2,1:0|0:0,0:0:0:0:
256,192,125428,12,2,127265,1:2:0:0:
205,111,127877,6,0,B|178:139|178:139|91:138,2,120,4|0|0,3:2|1:0|3:0,0:0:0:0:
256,79,129408,1,2,3:2:0:0:
305,113,129714,1,0,1:0:0:0:
324,231,130326,2,0,B|325:301|325:301|313:363,1,120,0|0,3:0|1:0,0:0:0:0:
195,351,131551,2,0,B|185:301|185:301|186:231,1,120,0|0,3:0|1:0,0:0:0:0:
172,112,132775,6,0,B|256:83|256:83|352:116,2,180,0|2|0,3:0|0:0|1:0,0:0:0:0:
190,230,135224,2,0,P|199:294|194:362,1,120,0|0,3:0|1:0,0:0:0:0:
316,348,136449,2,0,P|313:288|322:228,1,120,0|0,3:0|1:0,0:0:0:0:
314,111,137673,6,0,P|376:122|436:217,2,180,6|2|0,0:0|0:0|1:0,0:0:0:0:
198,111,140122,2,0,P|136:122|76:217,2,180,0|2|0,3:0|0:0|1:0,0:0:0:0:
199,227,142571,5,0,3:0:0:0:
257,331,143184,1,0,1:0:0:0:
313,227,143796,1,0,3:0:0:0:
256,121,144408,2,0,L|256:54,1,60,0|2,1:0|0:0,0:0:0:0:
75,54,145633,6,0,L|76:176,1,120,2|0,1:2|1:0,0:0:0:0:
76,233,146551,2,0,L|76:298,1,60,0|8,1:0|0:0,0:0:0:0:
78,352,147163,6,0,P|160:367|264:351,1,180,4|8,1:0|0:0,0:0:0:0:
344,274,148694,2,0,L|414:274,2,60,2|2|8,3:2|3:2|0:0,0:0:0:0:
256,191,149918,2,0,L|256:64,1,120,0|8,3:0|0:0,0:0:0:0:
135,70,151143,2,0,L|135:190,1,120,0|8,3:0|0:0,0:0:0:0:
135,249,152061,6,0,P|203:283|300:250,1,180,4|8,0:0|0:0,0:0:0:0:
336,206,153286,2,0,P|367:124|332:43,1,180,2|8,0:0|0:0,0:0:0:0:
272,48,154510,2,0,P|204:82|108:46,1,180,2|8,0:0|0:0,0:0:0:0:
36,143,156041,6,0,L|39:210,1,60,2|2,3:2|3:2,0:0:0:0:
42,264,156653,2,0,L|43:340,1,60,8|4,0:0|1:0,0:0:0:0:
109,333,157265,6,0,P|168:350|229:330,1,120,2|8,3:2|0:0,0:0:0:0:
319,261,158490,2,0,L|389:260,2,60,2|2|8,3:2|3:2|0:0,0:0:0:0:
256,158,159714,2,0,L|120:157,2,120,0|8|0,3:0|0:0|3:0,0:0:0:0:
318,55,161551,1,8,0:0:0:0:
374,160,162163,6,0,P|393:253|359:342,2,180,2|2|8,3:2|0:0|0:0,0:0:0:0:
352,103,164306,1,2,0:0:0:0:
172,104,165224,5,2,1:2:0:0:
200,220,165837,2,0,L|191:287,2,60,2|2|0,1:2|1:2|1:0,0:0:0:0:
202,160,166755,6,0,P|282:131|375:168,1,180,4|8,1:0|0:0,0:0:0:0:
482,125,168286,2,0,L|491:52,2,60,2|2|8,3:2|3:2|0:0,0:0:0:0:
460,242,169510,2,0,P|446:296|407:351,1,120,0|8,3:0|0:0,0:0:0:0:
316,272,170735,2,0,L|187:272,1,120,0|8,3:0|0:0,0:0:0:0:
151,232,171653,6,0,B|121:169|121:169|121:50,1,180,4|8,0:0|0:0,0:0:0:0:
175,34,172877,2,0,B|256:72|256:72|347:32,1,180,2|8,0:0|0:0,0:0:0:0:
391,58,174102,2,0,B|391:169|391:169|361:232,1,180,2|8,0:0|0:0,0:0:0:0:
256,290,175633,2,0,L|256:219,2,60,0|0|8,3:0|0:0|0:0,0:0:0:0:
204,324,176551,1,4,1:0:0:0:
145,336,176857,6,0,P|90:347|19:328,2,120,2|8|2,3:2|0:0|3:2,0:0:0:0:
204,324,178388,1,2,3:2:0:0:
256,296,178694,1,8,0:0:0:0:
318,193,179306,2,0,L|443:193,2,120,0|8|0,3:0|0:0|3:0,0:0:0:0:
256,89,181143,1,8,0:0:0:0:
197,193,181755,6,0,L|15:193,2,180,2|2|8,3:2|0:0|0:0,0:0:0:0:
257,191,183898,1,2,0:0:0:0:
363,335,184816,6,0,P|429:336|470:374,2,120,2|0|0,1:2|1:0|1:0,0:0:0:0:
302,339,186347,1,2,0:0:0:0:
256,299,186653,1,4,1:0:0:0:
207,370,206857,6,0,L|201:241,1,120,2|2,1:2|1:2,0:0:0:0:
197,190,207775,2,0,L|194:120,1,60,0|8,1:0|0:0,0:0:0:0:
191,69,208388,6,0,P|269:59|375:74,1,180,4|8,1:0|0:0,0:0:0:0:
453,157,209918,2,0,P|494:161|520:155,2,60,2|2|8,3:2|3:2|0:0,0:0:0:0:
334,174,211143,2,0,B|334:236|334:236|315:302,1,120,2|8,3:2|0:0,0:0:0:0:
194,291,212367,2,0,B|178:236|178:236|178:174,1,120,0|8,3:2|0:0,0:0:0:0:
176,113,213286,6,0,P|230:84|348:121,1,180,6|8,0:0|0:0,0:0:0:0:
390,144,214510,2,0,P|419:198|382:316,1,180,2|8,0:0|0:0,0:0:0:0:
330,300,215735,2,0,P|276:329|158:292,1,180,2|8,0:0|0:0,0:0:0:0:
113,192,217265,6,0,L|48:192,2,60,2|2|8,3:2|3:2|0:0,0:0:0:0:
149,144,218184,1,4,1:0:0:0:
200,113,218490,6,0,P|259:127|320:111,1,120,2|8,3:2|0:0,0:0:0:0:
428,72,219714,2,0,L|487:41,2,60,2|2|8,3:2|3:2|0:0,0:0:0:0:
384,185,220939,2,0,P|364:240|315:273,1,120,2|8,3:2|0:0,0:0:0:0:
195,272,222163,2,0,P|145:239|126:183,1,120,0|8,3:0|0:0,0:0:0:0:
196,85,223388,6,0,P|129:52|33:112,2,180,2|2|8,3:2|0:0|0:0,0:0:0:0:
256,89,225531,1,2,0:0:0:0:
311,260,226449,5,2,1:2:0:0:
208,321,227061,1,0,1:0:0:0:
166,277,227367,1,0,1:0:0:0:
123,234,227673,1,0,1:0:0:0:
80,191,227979,6,0,B|32:145|32:145|33:28,1,180,4|8,1:0|0:0,0:0:0:0:
153,30,229510,2,0,L|153:91,2,60,2|2|8,3:2|3:2|0:0,0:0:0:0:
273,32,230735,2,0,L|395:32,1,120,2|8,3:2|0:0,0:0:0:0:
444,140,231959,2,0,L|322:140,1,120,0|8,3:2|0:0,0:0:0:0:
302,196,232877,6,0,B|296:255|320:314|320:314|280:375,1,180,6|8,0:0|0:0,0:0:0:0:
227,364,234102,2,0,B|194:314|194:314|218:255|212:196,1,180,2|8,0:0|0:0,0:0:0:0:
194,138,235326,2,0,P|210:103|317:148,1,180,2|8,0:0|0:0,0:0:0:0:
353,252,236857,2,0,L|435:252,2,60,2|2|8,3:2|3:2|0:0,0:0:0:0:
298,277,237775,6,0,L|114:277,1,180,4|8,0:1|0:0,0:0:0:0:
56,173,239306,2,0,L|38:98,2,60,2|2|8,3:2|3:2|0:0,0:0:0:0:
113,191,240224,2,0,L|304:191,1,180,2|8,0:0|0:0,0:0:0:0:
413,189,241755,2,0,P|422:129|405:70,1,120,0|8,3:0|0:0,0:0:0:0:
297,21,242979,6,0,L|115:21,2,180,2|2|8,3:2|0:0|0:0,0:0:0:0:
342,60,245122,1,2,0:0:0:0:
325,237,246041,6,0,B|326:289|326:289|317:316|317:316|317:369,2,120,2|0|0,1:2|1:0|1:0,0:0:0:0:
325,177,247571,1,2,0:0:0:0:
256,192,247877,12,8,249714,0:0:0:0:
