osu file format v6

[General]
AudioFilename: Arashi - One Love.mp3
AudioLeadIn: 0
PreviewTime: 70355
Countdown: 1
SampleSet: Normal
StackLeniency: 0.7
Mode: 0
LetterboxInBreaks: 1

[Editor]
Bookmarks: 33060,70514,88850,98918,109988,119019,121908,158753,187151,207539
DistanceSpacing: 1
BeatDivisor: 4
GridSize: 8

[Metadata]
Title:One Love
Artist:Arashi
Creator:MaxwellDemon
Version:Normal
Source:hana yori dango
Tags:jpop F4 hana yori dango final

[Difficulty]
HPDrainRate:4
CircleSize:4
OverallDifficulty:3
SliderMultiplier:1.4
SliderTickRate:2

[Events]
//Background and Video events
0,0,"arashi01.jpg"
//Break Periods
2,106939,120445
2,176841,195300
//Storyboard Layer 0 (Background)
//Storyboard Layer 1 (Fail)
//Storyboard Layer 2 (Pass)
//Storyboard Layer 3 (Foreground)
//Storyboard Sound Samples
//Background Colour Transformations
3,100,163,162,255

[TimingPoints]
1012,582.52427184466,4,2,0,49,1,0
52128,-100,4,1,0,75,0,0
52419,-100,4,2,0,49,0,0
70223,-100,4,1,0,49,0,0
121471,-100,4,2,0,49,0,0
158753,-100,4,1,0,49,0,0
186568,-100,4,2,0,49,0,0
207102,-100,4,1,0,49,0,1
236497,-100,4,1,0,49,0,0

[Colours]
Combo1 : 192,192,192
Combo2 : 255,255,255
Combo3 : 3,3,167
Combo4 : 90,242,250

[HitObjects]
104,80,33342,1,0
176,80,33633,1,4
312,80,34215,1,4
416,80,34652,1,0
256,192,35380,5,4
256,328,35963,5,0
392,328,36545,1,4
392,184,37128,1,0
248,184,37711,1,4
176,184,38002,6,0,B|176:112,2,70,0|0|0
176,256,38876,1,4
312,256,39458,1,0
312,112,40041,1,4
192,184,40623,1,4
120,184,40914,1,4
48,184,41206,1,4
192,184,41788,1,0
48,184,42371,1,4
48,40,42953,6,0,B|216:40,1,140,4|4
328,40,44118,1,2
256,160,44701,1,4
256,232,44992,1,0
184,232,45283,1,4
40,232,45866,1,4
40,88,46448,1,4
176,88,47031,1,6
248,88,47322,5,2
320,88,47613,1,4
456,88,48196,1,4
456,224,48778,1,4
312,224,49361,1,4
312,296,49652,1,2
240,296,49944,1,4
96,296,50526,1,4
256,192,51109,5,4
328,192,51400,2,0,B|408:192,3,70,0|0|0|4
424,56,52856,1,4
352,56,53147,1,2
280,56,53439,1,4
280,192,54021,1,6
208,192,54312,1,0
208,120,54604,1,4
344,120,55186,1,4
344,48,55478,1,2
272,48,55769,1,4
256,184,56351,6,0,B|256:280,2,70,4|2|4
112,184,57516,1,4
112,256,57808,1,2
112,328,58099,1,4
248,328,58681,1,4
320,328,58973,1,2
392,328,59264,2,6,L|472:328|472:248,1,140,6|2
472,200,60138,2,2,L|400:200|400:128,1,140
400,64,61011,1,4
328,64,61303,2,2,L|240:64,1,70,2|6
256,192,62177,5,4
256,336,62759,1,4
184,336,63050,1,2
112,336,63342,1,4
112,264,63633,1,4
112,192,63924,1,4
112,40,64507,5,4
208,136,65089,5,4
312,232,65672,1,4
256,104,66254,1,4
256,208,66691,1,0
256,312,67128,1,2
152,312,67565,1,0
152,208,68002,1,0
256,192,68584,12,0,70332
256,48,70914,5,0
256,192,71497,1,4
256,264,71788,1,0
256,336,72079,1,4
256,192,72662,1,0
256,48,73245,2,0,L|256:144,4,70
64,192,74992,5,0
64,264,75283,1,0
136,264,75575,1,4
136,120,76157,2,4,L|208:120|208:24,1,140
280,56,77031,1,0
352,56,77322,1,4
352,128,77613,1,0
352,200,77905,2,0,B|360:272|248:328,2,140
256,96,79652,5,0
184,96,79944,1,4
184,168,80235,2,0,L|184:248|96:248,1,140
56,248,81109,2,0,L|56:160,1,70,0|4
56,40,81982,1,4
128,40,82274,1,0
200,40,82565,2,0,L|272:40,3,70
336,40,83730,1,4
256,152,84312,5,0
256,224,84604,2,0,L|256:304,1,70,0|4
104,192,85478,6,0,L|104:32,1,140
176,56,86351,1,2
216,112,86643,1,4
256,168,86934,1,0
296,224,87225,2,0,L|360:304,3,70
192,104,88973,6,4,B|264:64|336:112,1,140
256,224,90138,1,4
256,296,90429,2,0,L|256:368,1,70,0|4
256,224,91303,2,0,L|256:120,2,70,4|0|4
256,296,92177,1,0
184,296,92468,1,0
184,224,92759,2,0,L|184:152,1,70,0|4
184,16,93633,5,4
256,16,93924,2,0,L|352:16,1,70,0|4
432,192,94798,6,0,L|344:192,3,70,4|0|4|0
288,192,95963,2,0,L|208:192,1,70
144,192,96545,2,4,B|56:176|56:72,2,140
216,72,98293,5,0
288,72,98584,2,0,B|368:72,1,70
496,72,99458,1,0
496,144,99749,1,2
496,216,100041,1,0
496,352,100623,1,4
424,352,100914,1,4
352,352,101206,1,0
352,208,101788,1,0
280,208,102079,2,2,B|200:208,1,70
232,72,102953,6,0,B|400:72,1,140
456,184,104118,2,0,B|464:280|344:280,2,140
384,184,105575,1,0
384,112,105866,1,4
311,111,106157,2,0,B|223:109|231:205,1,140
408,80,121885,5,0
408,152,122176,1,4
264,152,122758,1,4
264,256,123195,1,0
56,256,123923,5,4
56,112,124506,5,0
192,112,125088,1,4
192,256,125671,1,0
56,256,126254,1,4
120,232,126545,6,0,B|120:160,2,70,0|0|0
120,304,127419,1,4
256,304,128001,1,0
256,160,128584,1,4
392,160,129166,1,4
392,232,129457,1,4
464,232,129749,1,4
464,88,130331,1,0
320,88,130914,1,4
176,88,131496,6,0,B|8:88,1,140,4|4
40,224,132661,1,2
176,224,133244,1,4
176,296,133535,1,0
248,296,133826,1,4
384,296,134409,1,4
384,152,134991,1,4
384,8,135574,1,6
352,80,135865,5,2
272,80,136156,1,4
136,80,136739,1,4
136,208,137321,1,4
272,208,137904,1,4
344,208,138195,1,2
344,280,138487,1,4
200,280,139069,1,4
200,136,139652,5,4
200,208,139943,2,0,B|120:208,3,70,0|0|0|4
128,344,141399,1,4
200,344,141690,1,2
272,344,141982,1,4
272,200,142564,1,6
344,200,142855,1,0
344,128,143147,1,4
200,128,143729,1,4
128,128,144021,1,2
128,200,144312,1,4
256,304,144894,6,0,B|256:208,2,70,4|2|4
256,160,146059,1,4
256,88,146351,1,2
256,16,146642,1,4
136,88,147224,1,4
64,88,147516,1,2
64,160,147807,2,6,L|64:240|144:240,1,140,6|2
128,168,148681,2,2,L|200:168|200:240,1,140
200,304,149554,1,4
272,304,149846,2,2,L|360:304,1,70,2|6
344,160,150720,5,4
248,56,151302,1,4
320,56,151593,1,2
392,56,151885,1,4
464,56,152176,1,4
464,128,152467,1,4
416,264,153050,5,4
256,264,153632,5,4
256,120,154215,1,4
112,120,154797,1,4
112,224,155234,1,0
216,224,155671,1,2
320,224,156108,1,0
424,224,156545,1,0
256,192,157127,12,0,158875
72,48,159457,5,0
168,152,160040,1,4
224,112,160331,1,0
280,72,160622,1,4
280,208,161205,1,0
424,208,161788,2,0,L|424:112,4,70
424,344,163535,5,0
352,344,163826,1,0
280,344,164118,1,4
280,200,164700,2,4,L|208:200|208:296,1,140
208,336,165574,1,0
136,336,165865,1,4
136,264,166156,1,0
136,192,166448,2,0,B|128:120|240:64,2,140
272,192,168195,5,0
272,264,168487,1,4
344,264,168778,2,0,L|424:264|424:176,1,140
424,136,169652,2,0,L|424:48,1,70,0|4
424,208,170525,1,4
352,208,170817,1,0
280,208,171108,2,0,L|208:208,3,70
136,208,172273,1,4
136,344,172855,5,0
208,344,173147,2,0,L|288:344,1,70,0|4
352,224,174021,2,0,L|192:224,1,140
144,224,174894,1,2
144,152,175186,1,4
216,152,175477,1,0
288,152,175768,2,0,L|368:88,3,70
256,192,196740,5,6
96,104,198487,6,0,B|128:40|240:56,1,140
256,184,199652,2,0,B|352:176|392:104,1,140
368,264,200817,1,0
304,296,201109,1,2
232,312,201400,1,0
160,304,201691,1,0
104,264,201982,2,0,B|48:208|48:120,1,140
184,168,203147,5,0
184,168,203439,1,2
184,168,203730,1,0
296,80,204312,1,0
368,88,204604,2,2,B|448:120|456:224,1,140
456,264,205478,2,0,B|448:312|384:320,1,70
256,192,206060,12,0,207225
48,192,207808,6,0,B|200:192,1,140
328,192,208973,1,0
328,120,209264,1,2
400,120,209555,1,0
400,256,210138,1,0
400,328,210429,1,2
328,328,210720,2,0,B|240:336|200:240,1,140
208,192,211594,1,0
136,192,211885,1,0
136,48,212468,5,0
208,48,212759,1,0
280,48,213050,1,4
424,48,213633,1,0
424,120,213924,2,0,B|424:192,2,70,0|6|0
352,120,214798,1,0
352,192,215089,1,0
352,264,215380,2,0,B|264:376|152:256,1,210
88,80,217128,5,0
136,136,217419,1,2
184,80,217711,1,0
312,136,218293,1,0
368,88,218584,1,2
424,136,218875,1,0
424,272,219458,2,0,B|336:272,2,70,4|0|4
424,344,220332,1,0
352,344,220623,1,6
280,344,220914,2,0,B|184:344,1,70
96,256,221788,6,0,B|96:160,2,70
232,224,222953,1,0
304,224,223244,1,0
304,152,223535,1,4
304,80,223826,1,0
376,80,224118,2,0,B|456:104|456:216,3,140,4|0|0|0
384,304,226448,5,0
336,248,226739,1,4
288,304,227031,1,0
288,160,227613,1,0
232,112,227905,1,2
288,64,228196,1,4
392,160,228778,2,0,B|480:160,2,70
392,232,229652,1,0
392,304,229944,2,0,B|296:304,2,70
256,192,231109,5,0
256,48,231691,1,6
256,192,232274,1,0
256,328,232856,2,0,B|256:240,4,70
256,192,234312,12,0,236351
