osu file format v5

[General]
AudioFilename: Arashi - Love So Sweet.mp3
AudioLeadIn: 0
PreviewTime: 73743
Countdown: 1
SampleSet: Soft

[Metadata]
Title:Love So Sweet
Artist:Arashi
Creator:Echo49
Version:Easy

[Difficulty]
HPDrainRate:3
CircleSize:1
OverallDifficulty:1
SliderMultiplier:1.2
SliderTickRate:1

[Events]
//Background and Video events
//Break Periods
//Storyboard Layer 0 (Background)
//Storyboard Layer 1 (Failing)
//Storyboard Layer 2 (Passing)
//Storyboard Layer 3 (Foreground)
4,3,1,"arrow.png",230,150 L,67700,3 S,0,0,400,1,1.05 R,0,0,400,0.1,-0.2 F,0,67700,68000,0,1 C,0,67700,70000,255,200,200,255,0,0
//Storyboard Sound Samples
//Background Colour Transformations
3,100,163,162,255

[TimingPoints]
15040,431.64284,4,2,1,100

[HitObjects]
64,128,8133,5,0
192,256,9860,1,0
320,256,11586,1,0
448,128,13313,1,0
192,64,15039,5,0
64,64,15471,1,2
64,320,16766,1,2
320,320,18493,5,0
448,320,18924,1,2
448,64,20219,1,2
192,320,21946,5,0
320,320,22377,1,2
256,64,23672,1,2
256,192,24536,12,4,29068
64,64,30579,5,0
192,192,32305,1,2
320,320,34032,1,0
448,192,35758,1,2
320,64,37485,5,0
192,64,38348,1,0
64,64,39211,1,2
64,320,40938,5,0
448,320,42665,1,2
448,192,43096,1,4
64,64,44391,5,0
192,64,45254,1,0
192,192,46118,1,2
448,320,47844,5,0
320,320,48708,1,0
320,192,49571,1,2
128,192,51297,5,2
256,320,52161,1,0
384,192,53024,1,0
256,64,53887,1,0
192,320,54751,5,2
320,320,55182,1,2
256,64,56477,1,4
384,64,58204,5,2
384,320,59930,1,2
128,320,61657,1,0
128,192,62520,1,0
128,64,63383,1,2
384,64,65110,5,0
384,192,65758,1,0
384,192,65973,1,2
128,320,66837,5,0
128,192,67484,1,0
128,192,67700,1,2
384,320,68563,5,0
256,320,68995,1,0
128,320,69426,1,0
256,104,70290,2,4,B|96:-24|0:72|160:264|256:328|256:328|352:264|512:72|416:-24|234:120,1,960
128,64,75469,5,2
384,64,76333,1,2
384,320,77196,1,0
256,320,77628,1,0
128,320,78059,1,2
128,64,78923,5,2
384,64,79786,1,2
384,320,80649,1,0
256,320,81081,1,0
128,320,81512,1,2
128,64,82376,5,4
384,64,83239,1,0
128,320,84102,5,4
384,320,84966,1,0
64,192,85829,5,2
192,192,86261,1,0
320,192,86692,1,0
448,192,87124,1,0
256,64,87555,5,2
256,320,88419,1,2
384,64,89282,5,2
128,64,90146,1,2
128,320,91009,1,0
256,320,91441,1,0
384,320,91872,1,2
384,64,92736,5,2
128,64,93599,1,2
128,320,94462,1,0
256,320,94894,1,0
384,320,95325,1,2
448,64,96188,5,4
448,320,97052,1,0
320,320,97483,1,0
192,320,97915,1,2
320,64,98778,1,0
192,64,99210,1,0
64,64,99641,5,4
64,320,100505,1,0
192,320,100936,1,0
320,320,101368,1,2
192,64,102231,1,0
320,64,102663,1,0
448,64,103095,5,4
448,320,103958,1,0
320,320,104390,1,0
192,320,104821,1,2
320,64,105684,1,0
192,64,106116,1,0
64,64,106548,5,4
64,256,107411,1,4
256,104,108274,2,4,B|96:-24|0:72|160:264|256:328|256:328|352:264|512:72|416:-24|234:120,1,960
256,192,112159,5,0
64,320,113453,1,4
256,192,115181,5,2
256,192,115612,1,0
448,320,116907,1,4
256,192,117770,12,6,122087
