osu file format v6

[General]
AudioFilename: Arashi - Kaze no Mukou e.mp3
AudioLeadIn: 0
PreviewTime: 48594
Countdown: 1
SampleSet: Soft
StackLeniency: 0.7
Mode: 0
LetterboxInBreaks: 1

[Editor]
DistanceSpacing: 1.60000002384186
BeatDivisor: 4
GridSize: 8

[Metadata]
Title:Kaze no Mukou e
Artist:Arashi
Creator:Sallad4ever
Version:Insane
Source:Arashi All The Best 1999-2009
Tags:discography jpop

[Difficulty]
HPDrainRate:7
CircleSize:5
OverallDifficulty:7
SliderMultiplier:1.7
SliderTickRate:2

[Events]
//Background and Video events
0,0,"wallpaper-arashi-cool.jpg"
Video,-1987,"PV.flv"
//Break Periods
2,117378,125420
2,144235,152849
//Storyboard Layer 0 (Background)
//Storyboard Layer 1 (Fail)
//Storyboard Layer 2 (Pass)
//Storyboard Layer 3 (Foreground)
//Storyboard Sound Samples
//Background Colour Transformations
3,100,255,255,255

[TimingPoints]
21178,571.428571428571,4,2,0,100,1,0
89749,-100,4,2,0,100,0,1
106749,-100,4,2,0,100,0,0
111177,-100,4,1,0,100,0,0
112606,-100,4,2,0,100,0,0
115749,-100,4,1,0,100,0,0
117177,-100,4,2,0,100,0,0
162892,-100,4,2,0,100,0,1
190035,-100,4,2,0,100,0,0
216463,-100,4,2,0,100,0,1

[Colours]
Combo1 : 128,0,128
Combo2 : 0,0,255
Combo3 : 0,0,64
Combo4 : 0,0,160

[HitObjects]
480,40,23177,5,0
480,40,23320,1,0
480,40,23463,1,2
400,120,23749,1,0
360,120,23892,1,0
288,40,24177,1,0
208,120,24463,1,0
128,192,24749,2,0,B|278:192,1,127.5,0|2
368,192,25463,6,0,B|368:88,1,85,0|2
296,192,26035,1,0
296,192,26177,1,0
184,192,26463,1,0
232,88,26749,2,0,B|384:88,1,127.5
472,88,27463,1,2
472,200,27749,5,0
440,232,27892,1,0
408,256,28035,1,2
304,288,28320,1,0
304,288,28463,2,0,B|136:288,1,127.5
136,288,29035,1,0
80,192,29320,1,0
152,112,29606,5,0
152,112,29749,1,2
264,192,30035,1,0
376,112,30320,1,2
488,192,30606,2,0,B|488:144,2,42.5,0|0|2
376,272,31177,1,0
376,272,31320,1,0
240,272,31606,5,0
224,312,31749,1,0
192,344,31892,1,0
56,344,32177,1,0
56,304,32320,1,0
56,192,32606,5,0
56,192,32749,2,0,B|176:192,1,85,0|0
248,192,33320,1,0
248,80,33606,1,0
376,80,33892,2,0,B|226:80,1,127.5,0|2
248,192,34606,5,0
352,240,34892,1,2
440,312,35177,1,0
440,312,35320,1,0
352,240,35606,1,0
440,168,35892,1,0
352,96,36177,1,0
352,96,36320,1,0
240,96,36606,1,2
104,64,36892,5,0
64,72,37035,1,0
48,112,37177,1,2
72,224,37463,1,0
112,224,37606,2,0,B|272:224,1,127.5,0|0
240,224,38177,1,0
240,336,38463,1,0
448,336,38892,5,2
368,224,39177,1,0
288,336,39463,1,2
208,224,39749,2,0,B|208:160,2,42.5,0|0|4
120,328,40320,1,0
120,328,40463,1,0
120,192,40749,1,0
120,192,40892,1,0
256,192,41177,1,4
184,72,41463,5,0
184,72,41749,1,2
320,72,42035,1,0
360,88,42177,1,0
400,104,42320,1,4
400,240,42606,1,0
360,224,42749,1,0
496,224,43035,1,0
384,152,43320,5,0
384,152,43463,1,6
248,152,43749,1,0
208,152,43892,1,0
168,152,44035,1,2
72,248,44320,2,0,B|29:248,2,42.5,0|0|4
328,336,45178,1,2
464,336,45463,2,0,B|507:336,2,42.5,0|0|4
256,32,46320,5,8
256,32,46463,1,0
152,120,46749,1,0
152,120,46892,1,8
256,208,47178,1,0
256,208,47320,1,0
360,120,47606,2,0,B|408:120,3,42.5,0|0|0|4
48,96,48606,6,0,B|104:96,3,42.5
136,96,49178,2,0,B|304:96,1,127.5,8|0
264,208,49892,1,0
264,208,50035,1,0
376,208,50320,2,0,B|461:208,1,85,8|0
496,312,50892,6,0,B|440:312,3,42.5,0|0|0|0
408,312,51463,2,0,B|264:312,1,127.5,8|0
280,200,52178,1,0
280,200,52320,1,0
144,200,52606,5,8
208,80,52892,1,0
280,200,53178,1,0
208,320,53463,1,0
72,320,53749,1,8
72,280,53892,1,0
72,144,54178,1,0
280,144,54606,5,0
280,144,54749,1,0
376,240,55035,1,0
472,336,55320,1,0
472,296,55463,2,0,B|472:144,1,127.5,8|0
376,72,56178,1,0
376,72,56320,1,0
240,72,56606,5,4
104,72,56892,1,0
0,152,57178,1,4
104,240,57463,1,0
240,240,57749,6,0,B|198:240,2,42.5
286,240,58178,1,0
326,240,58320,2,0,B|334:328|246:368,1,127.5,8|0
168,352,59035,1,0
168,352,59178,1,0
120,256,59463,1,8
120,144,59749,1,0
232,144,60035,6,0,B|190:144,2,42.5
278,144,60463,1,0
318,144,60606,2,0,B|350:64|254:8,1,127.5,8|0
176,32,61320,1,0
176,32,61463,1,0
56,96,61749,5,8
104,224,62035,1,0
216,144,62320,1,0
264,272,62606,1,0
376,200,62892,1,8
376,200,63035,1,0
432,328,63320,1,0
224,328,63749,5,0
224,328,63892,1,0
88,328,64178,2,0,B|8:296|48:224,1,127.5,0|8
176,192,64892,1,0
176,192,65035,1,4
312,192,65320,1,0
312,192,65463,1,4
96,208,66606,5,0
96,208,66749,1,0
96,208,66892,2,0,B|200:208,1,85,2|0
224,208,67320,1,0
304,280,67606,1,0
416,280,67892,1,0
304,280,68178,2,0,B|152:280,1,127.5,0|8
64,280,68892,5,0
64,240,69035,1,0
64,200,69178,1,2
152,128,69463,1,0
152,128,69606,1,0
264,128,69892,1,0
264,128,70178,1,0
376,128,70463,1,0
376,128,70606,1,0
456,200,70892,1,8
376,312,71178,5,0
336,312,71320,1,0
296,312,71463,1,2
192,272,71749,1,0
192,272,71892,1,0
80,272,72178,1,0
80,272,72463,1,0
192,272,72749,2,0,B|352:272,1,127.5,0|2
320,160,73463,5,0
344,120,73606,1,0
384,112,73749,1,2
448,208,74035,2,0,B|520:208,2,42.5,0|0|2
448,248,74463,1,0
336,248,74749,2,0,B|88:248,1,212.5,0|8
32,56,76035,5,2
64,80,76178,1,0
104,80,76320,1,0
128,40,76463,1,0
128,152,76749,1,0
224,96,77035,1,0
328,64,77320,1,0
432,96,77606,1,0
472,120,77749,1,8
472,232,78035,5,0
432,232,78178,1,0
392,232,78320,2,0,B|264:232,1,85,2|0
264,232,78749,1,0
176,304,79035,1,0
88,232,79320,1,0
176,88,79749,1,0
288,88,80035,1,8
376,192,80320,6,0,B|264:192,1,85,0|2
288,304,80892,2,0,B|336:304,2,42.5,0|0|2
400,304,81463,1,0
400,304,81606,1,0
400,304,81892,2,0,B|400:152,1,127.5,0|2
264,176,82606,5,0
168,272,82892,1,2
72,176,83178,1,0
32,160,83320,1,0
8,120,83463,1,2
120,48,83749,1,0
160,48,83892,2,0,B|224:16|288:48,1,127.5
280,184,84606,1,8
280,320,84892,6,0,B|336:320,2,42.5,0|0|2
416,288,85463,1,0
416,288,85606,1,0
504,184,85892,1,0
400,96,86178,1,0
296,184,86463,1,0
192,96,86749,2,0,B|93:102|88:176,1,127.5
200,240,87463,5,4
288,344,87749,1,0
288,344,87892,1,0
384,248,88178,1,0
488,160,88463,1,0
488,24,88749,1,0
488,24,88892,1,4
384,112,89178,2,0,B|341:112,2,42.5,4|0|0
280,24,89749,5,8
240,32,89892,1,0
216,64,90035,1,0
240,104,90178,1,0
280,112,90320,2,0,B|296:192|194:192,1,127.5,8|0
72,192,91035,1,0
32,192,91178,1,0
32,328,91463,1,8
168,328,91749,1,0
304,328,92035,5,8
344,312,92178,1,0
368,280,92320,1,0
376,240,92463,1,0
376,200,92606,2,0,B|368:128|264:128,1,127.5,8|0
152,128,93320,2,0,B|104:128,2,42.5
192,128,93749,6,0,B|240:128|248:216,1,85,8|0
368,128,94320,2,0,B|320:128|312:216,1,85,8|0
208,272,94892,1,8
208,272,95035,1,0
344,272,95320,1,0
488,128,95749,5,0
488,128,95892,1,0
376,128,96178,1,0
264,128,96463,1,0
264,128,96606,1,8
96,128,97035,1,0
96,240,97320,1,0
96,240,97463,2,0,B|216:208|208:104,1,170,0|0
344,128,98320,5,12
480,128,98606,1,4
480,264,98892,5,8
448,240,99035,1,0
408,232,99178,1,0
368,248,99320,1,0
328,264,99463,2,0,B|256:296|208:224,1,127.5,8|0
144,144,100178,1,0
144,144,100320,1,0
104,272,100606,2,0,B|-8:272,1,85,8|0
16,136,101178,5,8
40,104,101320,1,0
72,80,101463,1,0
112,72,101606,1,0
152,72,101749,2,0,B|208:72|256:144,1,127.5,8|0
392,144,102463,2,0,B|392:186,3,42.5,0|0|0|8
312,296,103178,5,0
232,184,103463,1,8
152,296,103749,1,0
72,184,104035,1,8
32,184,104178,1,0
72,56,104463,1,0
280,56,104892,5,0
312,32,105035,1,0
352,32,105178,1,8
392,56,105320,1,0
400,184,105749,2,0,B|344:200|272:184,1,127.5
136,184,106463,1,0
96,184,106606,1,0
136,312,106892,6,0,B|93:312,2,42.5,0|0|0
272,312,107463,1,0
312,296,107606,1,0
344,272,107749,1,0
368,240,107892,1,0
384,200,108035,1,4
24,192,108606,5,2
96,304,108892,1,0
96,304,109035,1,0
168,192,109320,1,0
232,72,109606,1,0
304,192,109892,1,0
384,304,110178,5,0
424,304,110320,1,4
496,192,110606,1,0
456,192,110749,1,0
424,56,111035,1,0
256,208,111320,12,4,112606
176,24,113035,5,0
216,24,113178,1,2
272,152,113463,1,0
312,152,113606,1,0
384,264,113892,1,0
424,264,114035,1,0
488,152,114320,1,4
336,288,114749,5,0
296,288,114892,2,0,B|208:288,1,85,2|0
168,288,115320,1,0
256,184,115606,1,0
256,208,115892,12,4,117178
24,40,126320,5,8
72,200,126606,1,0
176,72,126892,1,0
224,232,127178,1,0
352,344,127463,1,8
352,344,127606,1,0
480,232,127892,1,0
472,192,128035,1,0
456,152,128178,1,0
424,128,128320,1,0
256,128,128606,1,8
88,128,128892,6,0,B|88:80,2,42.5
24,288,129463,1,0
192,256,129749,1,8
304,128,130035,1,0
416,256,130320,1,0
456,248,130463,1,0
496,240,130606,1,0
504,72,130892,1,8
336,32,131178,5,0
336,32,131463,1,0
168,32,131749,2,0,B|168:80,2,42.5,0|0|8
16,104,132320,1,0
16,272,132606,1,0
24,312,132749,1,0
56,344,132892,1,0
168,192,133178,6,0,B|264:192,1,85,8|0
424,192,133749,2,0,B|328:192,1,85,0|0
288,32,134320,2,0,B|288:128,1,85,8|0
288,288,134892,2,0,B|288:184,2,85,0|0|8
160,176,135749,6,0,B|192:216|256:216,1,85,0|0
360,104,136320,2,0,B|328:64|272:64,1,85,0|8
160,176,136892,1,0
256,312,137178,2,0,B|256:256,2,42.5
352,176,137749,1,8
128,144,138606,5,0
128,144,138749,1,0
128,144,138892,2,0,B|232:144,1,85,8|0
384,144,139463,2,0,B|299:144,1,85,0|0
256,312,140035,1,8
112,216,140320,6,0,B|168:200|191:152,1,85,0|8
180,168,140892,2,0,B|215:123|214:75,1,85,0|8
213,90,141463,2,0,B|309:90,1,85,0|8
298,89,142035,2,0,B|298:136|338:177,1,85,0|8
364,192,142463,1,0
464,328,142749,5,0
464,328,142892,1,10
320,240,143178,1,0
288,264,143320,1,0
256,288,143463,1,8
256,120,143749,1,0
224,144,143892,1,0
192,168,144035,1,8
232,264,153749,5,8
272,264,153892,1,0
312,264,154035,1,0
424,264,154320,2,0,B|456:192|408:112,1,127.5,8|0
400,104,154892,2,0,B|320:80|240:112,1,127.5,8|0
232,112,155463,2,0,B|200:184|240:272,1,127.5,8|0
248,272,156035,2,0,B|320:296|392:264,1,127.5,8|0
416,256,156606,1,4
192,256,157177,5,8
80,256,157463,1,0
40,256,157606,1,0
40,168,157892,1,0
40,80,158177,1,0
80,80,158320,5,8
120,80,158463,1,0
160,80,158606,1,0
272,80,158892,2,0,B|304:152|256:232,1,127.5,8|0
248,240,159463,2,0,B|168:264|88:232,1,127.5,8|0
80,232,160035,2,0,B|48:160|88:72,1,127.5,8|0
96,72,160606,2,0,B|168:48|240:80,1,127.5,8|0
264,88,161177,1,4
256,32,162892,5,8
296,32,163035,1,0
336,32,163177,1,0
376,32,163320,1,0
416,32,163463,2,0,B|472:96|408:168,1,127.5,8|0
288,152,164177,1,0
288,152,164320,1,0
288,288,164606,1,8
288,152,164892,1,0
208,264,165177,5,8
248,280,165320,1,0
288,288,165463,1,0
328,280,165606,1,0
368,264,165749,2,0,B|440:200|352:144,1,127.5,8|0
280,56,166463,2,0,B|237:56,3,42.5,0|0|0|8
112,104,167177,5,0
240,160,167463,1,8
112,216,167749,1,0
240,272,168035,2,0,B|288:272,1,42.5,8|0
416,272,168463,1,0
408,64,168892,5,0
368,64,169035,2,0,B|256:64,1,85,0|0
280,200,169606,1,0
240,200,169749,1,12
232,64,170035,1,0
192,64,170177,1,4
168,200,170463,1,0
128,200,170606,1,4
256,256,170892,5,8
256,120,171177,1,0
368,200,171463,1,8
368,64,171749,1,0
232,64,172035,5,8
208,32,172177,1,0
184,64,172320,1,0
160,32,172463,1,0
136,64,172606,1,8
112,32,172749,1,0
24,136,173035,1,0
104,248,173320,1,0
104,248,173463,1,0
200,344,173749,2,0,B|242:344,2,42.5,8|0|0
296,248,174320,5,8
320,216,174463,1,0
344,248,174606,1,0
368,216,174749,1,0
392,248,174892,1,8
416,216,175035,1,0
512,120,175320,1,0
376,120,175606,2,0,L|432:120,2,42.5,0|0|0
336,120,176035,5,8
216,192,176320,1,0
216,56,176606,1,8
96,120,176892,1,0
96,256,177177,1,8
96,256,177320,1,0
216,328,177606,1,0
384,328,178035,5,0
384,328,178177,1,0
248,328,178463,1,0
112,328,178749,2,0,B|168:328,1,42.5,0|12
152,192,179177,2,0,B|104:192,1,42.5,0|4
112,56,179606,2,0,B|168:56,1,42.5,0|4
288,16,180035,6,0,B|224:16,2,42.5,2|0|0
424,16,180606,2,0,B|467:16,2,42.5,2|0|0
424,152,181177,6,0,B|424:208,2,42.5,2|0|0
296,192,181749,2,0,B|254:192,1,42.5,2|0
120,192,182177,5,0
200,304,182463,1,0
200,304,182606,1,0
280,192,182892,1,8
320,192,183035,1,0
488,304,183463,6,0,B|488:248,2,42.5,2|0|0
408,192,184035,2,0,B|464:192,1,42.5,2|0
328,128,184463,1,0
208,192,184749,2,0,B|256:192,3,42.5,0|0|0|8
481,336,185749,6,0,B|409:336,2,42.5,8|0|0
480,200,186320,1,8
480,200,186463,1,0
480,64,186749,1,0
344,64,187035,1,0
344,104,187177,1,0
248,200,187463,1,8
248,240,187606,2,0,B|256:344|144:320,1,127.5,0|8
176,192,188320,5,0
136,192,188463,1,0
96,192,188606,1,8
176,80,188892,1,0
216,80,189035,1,0
352,80,189320,2,0,B|408:80,3,42.5,0|0|0|8
128,32,190320,6,0,B|56:32,2,42.5,2|0|0
128,168,190892,1,2
240,336,191320,1,0
240,296,191463,1,2
440,288,191892,1,0
440,248,192035,1,2
296,104,192463,1,0
296,64,192606,1,2
24,64,193177,2,2,B|24:200|144:168,1,170,2|4
120,312,194035,5,0
120,312,194177,1,0
240,240,194463,1,0
240,240,194606,1,0
352,312,194892,6,0,B|400:312,2,42.5,2|0|0
240,240,195463,1,2
120,72,195892,1,0
80,72,196035,1,2
80,272,196463,1,2
120,272,196606,1,0
296,168,197035,1,0
336,168,197177,2,2,B|424:168|408:304,1,170,4|2
272,296,198035,5,0
272,296,198177,1,0
136,296,198463,1,0
104,272,198606,1,0
88,232,198749,1,0
88,192,198892,1,2
104,152,199035,1,0
136,128,199177,1,4
272,120,199463,6,0,B|344:120,5,42.5,8|0|0|0|0|0
448,120,200463,1,0
448,256,200749,1,0
448,256,200892,1,0
328,320,201177,1,8
288,320,201320,1,0
88,312,201749,6,0,B|16:312,5,42.5,8|0|0|0|0|0
56,176,202749,2,0,B|304:176,1,212.5,0|8
16,80,204035,6,0,B|16:8,5,42.5,8|0|0|0|2|0
144,80,205035,1,0
144,216,205320,1,0
144,216,205463,1,0
280,216,205749,1,8
320,216,205892,1,0
472,80,206320,6,0,B|472:32,5,42.5,8|0|0|0|2|0
472,176,207320,2,0,B|224:176,1,212.5,0|8
472,344,208606,5,2
336,320,208892,1,0
256,216,209177,1,2
72,128,209606,2,0,B|-24:224|72:336,1,212.5,0|2
256,128,210892,6,0,B|256:40,2,85,2|0|2
456,128,211892,2,0,B|552:224|456:336,1,212.5,0|2
256,152,213177,6,0,B|176:136|152:96,2,85,2|0|2
448,208,214177,1,0
288,336,214606,1,0
288,296,214749,1,0
288,256,214892,1,2
288,88,215177,1,0
288,256,215463,5,4
136,176,215749,1,0
136,136,215892,1,0
288,56,216177,1,0
408,176,216463,1,4
