osu file format v6

[General]
AudioFilename: Arashi - Kaze no Mukou e.mp3
AudioLeadIn: 0
PreviewTime: 48594
Countdown: 1
SampleSet: Soft
StackLeniency: 0.7
Mode: 0
LetterboxInBreaks: 1

[Editor]
DistanceSpacing: 1.29999995231628
BeatDivisor: 4
GridSize: 8

[Metadata]
Title:Kaze no Mukou e
Artist:Arashi
Creator:Sallad4ever
Version:Hard
Source:Arashi All The Best 1999-2009
Tags:discography jpop

[Difficulty]
HPDrainRate:4
CircleSize:4
OverallDifficulty:5
SliderMultiplier:1.7
SliderTickRate:2

[Events]
//Background and Video events
0,0,"wallpaper-arashi-cool.jpg"
Video,-1987,"PV.flv"
//Break Periods
2,44948,47406
2,117378,125120
2,144235,152549
//Storyboard Layer 0 (Background)
//Storyboard Layer 1 (Fail)
//Storyboard Layer 2 (Pass)
//Storyboard Layer 3 (Foreground)
//Storyboard Sound Samples
//Background Colour Transformations
3,100,255,255,255

[TimingPoints]
21178,571.428571428571,4,2,0,100,1,0
89606,-100,4,2,0,100,0,1
106749,-100,4,2,0,100,0,0
162749,-100,4,2,0,100,0,1
190035,-100,4,2,0,100,0,0
216463,-100,4,2,0,100,0,1

[Colours]
Combo1 : 0,0,128
Combo2 : 128,0,128
Combo3 : 0,0,255
Combo4 : 0,0,0

[HitObjects]
256,64,23177,1,0
256,176,23463,1,2
256,288,23749,1,0
256,288,23892,1,0
368,288,24177,1,0
480,288,24463,1,0
480,176,24749,2,0,B|480:40,1,127.5,0|2
368,48,25463,6,0,B|280:48,1,85,0|2
176,48,26035,1,2
176,48,26177,1,0
64,48,26463,1,0
64,160,26749,2,0,B|288:160,1,212.5,0|4
384,160,27749,6,0,B|456:160,2,42.5,0|0|2
384,272,28320,2,0,B|384:352,1,42.5,0|2
216,312,28892,1,0
216,312,29035,1,0
216,200,29320,2,0,B|80:200,1,127.5,0|2
88,312,30035,5,0
88,200,30320,1,2
88,32,30749,2,0,B|240:32,1,127.5
256,32,31320,2,0,B|352:112|336:240,1,212.5,0|4
160,344,32606,5,2
160,344,32749,1,0
48,344,33035,1,0
104,248,33320,1,0
48,152,33606,1,0
104,56,33892,2,0,B|240:56,1,127.5,0|2
344,56,34606,5,0
456,56,34892,1,2
456,168,35177,2,0,B|384:168,1,42.5
304,168,35606,1,0
192,168,35892,2,0,B|80:256|192:344,1,212.5,0|4
296,344,36892,5,0
408,344,37177,1,2
408,176,37606,1,0
240,176,38035,1,0
240,176,38177,1,0
128,176,38463,2,0,B|128:32,1,127.5,0|4
240,48,39177,5,0
352,48,39463,1,4
464,48,39749,1,4
464,88,39892,1,0
464,256,40320,2,0,B|416:256,1,42.5,0|4
24,272,41463,6,0,B|120:272,1,85,0|2
216,272,42035,1,0
328,272,42320,1,2
440,272,42606,1,0
440,272,42749,1,0
440,160,43035,2,0,B|288:160,1,127.5,0|4
200,160,43749,1,0
88,160,44035,2,0,B|40:144|48:72,1,85,4|0
56,48,44463,2,0,B|120:24|160:56,1,85,0|0
168,32,48606,5,8
56,32,48892,1,0
168,32,49178,1,8
56,152,49606,2,0,B|192:152,1,127.5
280,208,50320,2,0,B|280:96,1,85,10|0
392,120,50892,5,8
280,120,51178,1,0
392,120,51463,1,8
408,288,51892,2,0,B|240:288,1,127.5
168,288,52606,2,0,B|168:200,1,85,8|0
280,200,53178,2,0,B|280:104,1,85,8|0
256,32,54606,5,0
256,32,54749,1,0
368,32,55035,2,0,B|504:32,1,127.5,0|4
496,144,55749,2,0,B|424:144,1,42.5,0|4
344,144,56178,1,0
304,144,56320,2,0,B|128:144,1,170,4|8
80,240,57178,6,0,B|176:240,1,85,8|0
272,240,57749,1,8
272,352,58035,1,0
272,240,58320,1,8
440,240,58749,2,0,B|440:88,1,127.5
328,112,59463,2,0,B|232:112,1,85,8|0
136,112,60035,5,8
24,112,60320,1,0
136,112,60606,1,8
136,272,61035,2,0,B|296:272,1,127.5
376,272,61749,1,8
456,192,62035,1,0
376,112,62320,1,8
456,32,62606,1,0
144,344,63749,6,0,B|192:344,1,42.5
296,344,64178,1,0
408,344,64463,1,0
408,344,64606,1,4
464,248,64892,1,0
464,248,65035,1,4
352,248,65320,1,0
352,248,65463,1,4
64,336,66606,6,0,B|112:336,2,42.5,0|0|2
64,232,67178,2,0,B|112:232,1,42.5
216,232,67606,1,0
216,344,67892,1,0
328,344,68178,2,0,B|328:184,1,127.5,0|8
328,104,68892,6,0,B|285:104,2,42.5,0|0|2
440,61,69463,2,0,B|440:104,1,42.5
440,216,69892,1,0
329,216,70178,2,0,B|177:216,1,127.5
90,216,70892,1,8
114,324,71178,6,0,B|210:324,1,85,0|2
312,322,71749,1,0
312,322,71892,1,0
400,250,72178,1,0
312,178,72463,1,0
224,104,72749,2,0,B|96:104,1,127.5,0|2
96,216,73463,1,0
96,328,73749,5,2
208,328,74035,2,0,B|250:328,1,42.5
248,216,74463,1,0
248,104,74749,2,0,B|472:104,1,212.5,0|8
248,173,76035,6,0,B|304:173,3,42.5,2|0|0|0
400,173,76749,1,0
400,285,77035,1,0
512,285,77320,2,0,B|512:149,1,127.5,0|8
512,45,78035,5,0
400,45,78320,1,2
288,45,78606,1,0
288,45,78749,1,0
288,157,79035,1,0
400,157,79320,2,0,B|464:213|464:301|400:349,1,212.5,0|8
336,261,80320,6,0,B|248:261,1,85,0|2
144,261,80892,1,0
144,261,81035,1,0
16,157,81463,2,0,B|58:157,1,42.5
144,85,81892,1,0
280,173,82320,5,2
344,85,82606,1,0
408,173,82892,1,2
496,245,83178,1,0
496,245,83320,2,0,B|496:69,1,170,0|0
216,248,84892,5,0
328,248,85178,1,2
440,248,85463,1,0
440,248,85606,1,0
440,136,85892,1,0
328,136,86178,1,0
216,136,86463,1,0
104,136,86749,2,0,B|104:280,1,127.5
192,336,87463,5,4
304,336,87749,2,0,B|360:336,1,42.5,0|0
456,336,88178,1,4
456,224,88463,2,0,B|240:224,1,212.5,4|8
328,24,89749,5,8
416,96,90035,1,0
472,192,90320,1,8
304,192,90749,2,0,B|152:192,1,127.5
64,192,91463,1,8
120,288,91749,1,0
216,344,92035,5,8
312,288,92320,1,0
408,344,92606,1,8
408,176,93035,2,0,B|408:16,1,127.5
296,48,93749,2,0,B|192:48,1,85,8|0
104,48,94320,2,0,B|8:48,1,85,8|0
504,306,95749,6,0,B|448:306,1,42.5
368,306,96178,1,0
368,192,96463,1,0
368,192,96606,2,0,B|216:192,1,127.5,4|0
240,304,97320,2,0,B|184:304,1,42.5,0|4
8,32,98320,6,0,B|96:32,1,85,8|0
96,144,98892,1,0
8,216,99178,1,0
96,288,99463,1,8
248,216,99892,2,0,B|408:216,1,127.5
488,216,100606,2,0,B|488:128,1,85,8|0
488,24,101178,5,0
368,24,101463,1,0
368,136,101749,1,8
200,136,102178,2,0,B|64:136,1,127.5
96,232,102892,2,0,B|208:232,1,85,8|0
96,304,103463,2,0,B|181:304,1,85,8|0
488,304,104892,6,0,B|432:304,3,42.5,0|0|2|0
280,304,105749,1,4
280,136,106178,1,4
168,136,106463,2,0,B|168:56,1,42.5,0|4
272,328,108606,5,4
272,216,108892,1,0
272,176,109035,2,0,B|160:176,1,85
80,176,109606,1,0
80,64,109892,1,0
192,64,110178,1,0
232,64,110320,2,0,B|392:64,1,127.5,4|0
472,64,111035,1,0
472,176,111320,2,0,B|424:376|152:344,1,382.5,0|4
144,192,113035,6,0,B|208:192,1,42.5,0|2
144,88,113463,2,0,B|200:88,1,42.5
296,88,113892,2,0,B|352:88,1,42.5,0|2
480,328,114749,5,0
480,328,114892,1,2
400,248,115178,1,0
400,248,115320,1,0
320,328,115606,1,0
240,248,115892,1,0
256,208,116035,12,4,117178
120,216,126320,5,8
184,304,126606,1,0
256,216,126892,1,0
328,304,127178,1,0
400,216,127463,2,0,B|400:168,1,42.5,8|0
400,64,127892,2,0,B|248:64,1,127.5
56,64,128892,5,0
56,176,129178,1,8
152,120,129463,1,0
152,232,129749,1,0
248,176,130035,1,0
248,288,130320,2,0,B|344:288,1,85,8|0
480,144,131178,6,0,B|384:144,1,85,0|8
392,256,131749,2,0,B|288:256,1,85,0|0
304,144,132320,1,0
192,144,132606,2,0,B|64:144,1,85,8|0
24,224,133178,5,0
96,312,133463,1,0
168,224,133749,1,8
240,312,134035,1,0
312,224,134320,1,0
384,312,134606,1,0
456,224,134892,2,0,B|456:104,1,85,8|0
256,24,135749,5,0
168,96,136035,1,8
256,168,136320,1,0
328,256,136606,1,0
256,344,136892,1,0
184,256,137178,1,8
256,168,137463,1,0
88,344,138606,6,0,B|88:240,1,85,0|8
88,152,139178,1,0
88,40,139463,1,0
200,40,139749,1,0
424,32,140320,5,0
424,32,140606,1,8
424,144,140892,1,0
424,144,141178,1,0
424,256,141463,1,0
424,256,141749,1,8
312,256,142035,2,0,B|240:256,1,42.5
216,256,142320,2,0,B|168:256,1,42.5
24,144,142892,5,8
80,48,143178,1,0
128,144,143463,1,0
184,48,143749,1,0
240,144,144035,1,8
360,320,153749,6,0,B|440:320,2,42.5,2|0|0
248,320,154320,2,0,B|144:320|64:256,1,170,2|2
8,200,155177,1,0
88,120,155463,2,0,B|144:72|248:72,1,170,2|2
360,72,156320,1,0
464,112,156606,2,0,B|512:200|464:312,1,170,2|2
152,320,158320,6,0,B|72:320,2,42.5,2|0|0
264,320,158892,2,0,B|368:320|448:256,1,170,2|4
504,200,159749,1,4
424,120,160035,2,0,B|367:72|263:72,1,170,0|4
152,72,160892,1,4
48,112,161177,2,0,B|0:200|48:312,1,170,0|0
288,280,162892,6,0,B|224:280,4,42.5,8|0|0|0|8
120,280,163892,2,0,B|120:144,1,127.5
120,40,164606,1,8
232,40,164892,1,0
344,40,165177,6,0,B|408:40,4,42.5,8|0|0|0|8
344,208,166177,2,0,B|344:352,1,127.5
232,336,166892,1,8
232,224,167177,1,0
136,280,167463,1,8
136,168,167749,1,0
152,48,168892,6,0,B|96:48,1,42.5
0,48,169320,1,0
0,160,169606,2,0,B|64:160,1,42.5,0|4
104,256,170035,2,0,B|184:256,1,42.5,0|4
232,320,170463,2,0,B|288:320,1,42.5,0|4
168,64,171463,5,8
280,64,171749,1,0
392,64,172035,2,0,B|392:136,4,42.5,0|0|0|0|8
392,216,173035,2,0,B|224:216,1,127.5
152,216,173749,2,0,B|152:128,1,85,8|0
40,136,174320,6,0,B|40:208,4,42.5,0|0|0|0|8
40,288,175320,2,0,B|208:288,1,127.5
280,288,176035,2,0,B|376:288,1,85,8|0
384,176,176606,2,0,B|472:176,1,85,0|0
456,48,178035,6,0,B|400:48,1,42.5
304,48,178463,2,0,B|152:48,1,127.5,0|8
8,48,179320,1,0
8,160,179606,1,0
8,160,179749,1,4
208,352,181177,6,0,B|264:352,5,42.5,8|0|0|0|8|0
360,352,182177,1,0
80,344,182892,1,8
40,344,183035,1,0
40,176,183463,6,0,B|104:176,5,42.5,8|0|0|0|8|0
192,176,184463,1,0
408,192,185749,5,8
368,296,186035,1,0
272,344,186320,1,8
104,344,186749,2,0,B|104:200,1,127.5
104,104,187463,1,8
144,104,187606,1,0
296,32,188035,5,8
392,80,188320,1,0
448,176,188606,1,8
408,336,189035,2,0,B|160:336,1,212.5,0|8
240,64,190320,5,2
328,136,190606,1,0
240,208,190892,2,0,B|64:208,1,170,2|2
72,320,191749,1,0
184,320,192035,2,0,B|368:320,1,170,2|2
464,320,192892,1,0
464,208,193177,2,0,B|456:96|344:48,1,170,2|2
64,328,194892,6,0,B|128:328,2,42.5,2|0|0
176,328,195463,2,0,B|240:328|360:328,1,170,2|6
456,328,196320,1,4
456,216,196606,2,0,B|456:16,1,170,2|4
344,48,197463,1,4
344,160,197749,2,2,B|144:160,1,170,0|0
216,320,199463,6,0,B|288:320,5,42.5,8|0|0|0|8|0
368,320,200463,2,0,B|368:168,1,127.5
256,192,201177,2,0,B|208:192,1,42.5,8|0
32,192,201749,6,0,B|88:192,5,42.5,8|0|0|0|8|0
32,88,202749,2,0,B|256:88,1,212.5,0|8
464,88,204035,6,0,B|408:88,5,42.5,8|0|0|0|8|0
464,192,205035,2,0,B|304:192,1,127.5
224,192,205749,2,0,B|224:240,1,42.5,8|0
64,192,206320,6,0,B|120:192,5,42.5,8|0|0|0|8|0
64,296,207320,2,0,B|280:296,1,212.5,0|8
208,248,208606,5,8
320,248,208892,1,0
208,248,209177,1,8
208,80,209606,2,0,B|424:80,1,212.5,0|8
456,296,210892,5,8
456,184,211177,1,0
456,296,211463,1,8
288,296,211892,2,0,B|72:296,1,212.5,0|8
192,104,213177,5,8
304,104,213463,1,0
416,104,213749,1,8
416,272,214177,2,0,B|192:272,1,212.5,0|8
240,64,215463,5,4
352,192,215749,2,0,B|296:192,1,42.5,0|0
136,192,216177,1,0
240,328,216463,1,4
