osu file format v5

[General]
AudioFilename: Arashi - Beautiful Days.mp3
AudioLeadIn: 0
PreviewTime: 68605
Countdown: 1
SampleSet: Normal
StackLeniency: 0.7
Mode: 0
LetterboxInBreaks: 1
EditorBookmarks: 10585,37845,56355,68605,85605,97855,112605,127605,143605,155605,171605,183345

[Metadata]
Title:Beautiful Days
Artist:Arashi
Creator:MaxwellDemon
Version:Normal
Source:
Tags:

[Difficulty]
HPDrainRate:6
CircleSize:5
OverallDifficulty:6
SliderMultiplier:1.4
SliderTickRate:2

[Events]
//Background and Video events
0,0,"beautifuldays.jpg"
//Break Periods
2,26285,36895
2,97795,111645
//Storyboard Layer 0 (Background)
//Storyboard Layer 1 (Failing)
//Storyboard Layer 2 (Passing)
//Storyboard Layer 3 (Foreground)
//Storyboard Sound Samples
//Background Colour Transformations
3,100,0,0,0

[TimingPoints]
595,500,4,2,0,61,1
21970,-100,4,1,0,100,0
22220,-100,4,2,0,61,0
25825,-100,4,1,0,100,0
38075,-100,4,2,0,100,0
64345,-100,4,1,0,69,0
69845,-100,4,2,0,61,0
70345,-100,4,1,0,61,0
73470,-100,4,2,0,100,0
73720,-100,4,1,0,71,0
75970,-100,4,2,0,100,0
76720,-100,4,1,0,70,0
97345,-100,4,2,0,100,0
97845,-100,4,1,0,61,0
112595,-100,4,2,0,61,0
122220,-100,4,1,0,100,0
123595,-100,4,2,0,100,0
124720,-100,4,1,0,59,0
124970,-100,4,2,0,61,0
127595,-200,4,2,0,49,0
132970,-100,4,1,0,100,0
135095,-100,4,1,0,71,0
155345,-100,4,2,0,100,0
157970,-100,4,1,0,71,0
158345,-100,4,2,0,100,0
158970,-100,4,2,0,100,0
159970,-100,4,1,0,81,0
160220,-100,4,2,0,61,0
161720,-100,4,1,0,61,0
161970,-100,4,1,0,61,0
162345,-100,4,1,0,86,0
162845,-100,4,1,0,100,0
163845,-100,4,1,0,71,0

[Colours]
Combo1 : 255,191,0
Combo2 : 55,55,55
Combo3 : 5,5,240
Combo4 : 83,182,255

[HitObjects]
136,80,10595,2,0,B|80:64|88:136,2,70
200,80,11345,2,0,B|344:80,1,140,0|2
408,80,12095,1,4
384,216,12595,6,0,B|400:296|288:320,1,140
120,232,13845,5,0
176,192,14095,1,0
120,152,14345,1,0
64,112,14595,2,0,B|64:32|192:72,1,140
296,224,15845,5,0
344,272,16095,2,0,B|384:344|464:248,1,140
472,192,16845,1,0
440,128,17095,1,0
256,96,17595,5,2
256,232,18095,1,4
88,64,18595,6,0,B|88:216,1,140
88,288,19345,2,0,B|144:352|240:296,1,140,0|2
288,264,20095,1,2
288,184,20345,2,0,B|312:72|408:224|440:80,1,210,0|2
384,24,21345,2,0,B|248:24|208:128,1,210
256,192,22345,12,0,26095
256,56,38345,6,0,B|256:136,1,70
256,192,38845,2,0,B|256:344,1,140
360,248,39845,1,2
440,64,40595,6,0,B|360:64,1,70
304,64,41095,1,2
232,64,41345,2,0,B|80:64,1,140
72,312,42595,6,0,B|152:328|216:240,1,140
224,200,43345,2,0,B|264:128|376:160,1,140
416,160,44095,1,0
432,224,44345,2,0,B|448:272|496:272,3,70
464,336,45345,1,2
456,64,46345,6,0,B|376:64,3,70
320,64,47345,2,0,B|336:152|200:152,1,140
56,56,48595,6,0,B|56:152,2,70
120,56,49345,2,0,B|192:40|232:168,1,140
120,248,50345,5,0
184,296,50595,1,2
248,240,50845,2,0,B|280:320|392:264,1,140
432,224,51595,1,0
432,224,51845,1,2
104,168,52595,6,0,B|96:72|216:64,1,140
248,64,53345,1,0
312,88,53595,2,0,B|296:160|416:192,1,140
432,128,54345,2,0,B|512:184|448:272,1,140
416,304,55095,1,0
256,192,56345,5,0
256,120,56595,2,0,B|248:40|368:32,1,140,0|2
360,104,57345,2,0,B|336:176|456:216,1,140
496,224,58095,1,2
472,288,58345,1,0
256,192,59345,6,0,B|208:208|184:168|200:112|272:120|336:112|336:216|240:264,1,280,0|2
448,48,61345,6,0,B|360:48,3,70
312,48,62345,2,0,B|336:136|216:144,1,140
168,144,63095,1,2
96,144,63345,1,0
216,40,64345,6,0,B|304:40,2,70,0|0|0
256,352,65595,6,0,B|256:272,1,70
480,192,66595,6,0,B|392:192,1,70
32,192,67595,6,0,B|128:192,1,70
256,192,68595,12,0,69595
256,48,70095,5,4
256,240,70595,2,0,B|256:336,2,70
256,144,71345,2,0,B|256:48,1,70
256,264,72095,1,4
448,48,72845,6,0,B|472:128|352:160,1,140
280,152,73595,1,4
80,56,74095,5,4
64,344,74845,6,0,B|56:256|184:272,1,140
248,272,75595,2,0,B|328:280|288:224,1,70
320,152,76095,6,0,B|312:64|200:72,1,140,0|0
128,248,77095,1,0
328,336,77595,6,0,B|424:336|432:240,1,140,0|0
384,96,78595,1,0
224,56,79095,2,4,B|272:136|152:184,1,140
64,280,80095,2,0,B|128:344|192:272,1,140
264,136,81095,2,0,B|360:128|368:232,1,140
72,344,82345,6,0,B|96:256|200:240,1,140
200,336,83095,1,0
248,248,83345,1,4
312,312,83595,2,0,B|312:376|368:376|424:376|472:312,1,210
472,216,84595,2,0,B|464:120|344:136,1,140
256,32,85595,6,0,B|256:184,1,140
288,304,86595,2,0,B|192:304,2,70
256,168,87595,2,0,B|256:64,2,70
320,360,88845,6,0,B|256:408|160:344,1,140
152,296,89595,2,0,B|128:256|152:216,2,70
280,112,90845,5,0
288,184,91095,2,0,B|288:256|424:224,1,140
472,224,91845,2,0,B|504:192|480:152,1,70
256,56,92595,5,0
256,208,93095,1,2
40,208,93595,6,0,B|192:208,1,140
256,208,94345,1,4
400,344,94845,5,0
400,272,95095,1,0
400,200,95345,2,0,B|400:40,1,140
400,60,96095,1,0
336,96,96345,2,0,B|248:128|328:232|176:248,1,210
200,96,97595,1,0
248,128,112845,6,0,B|248:216,1,70
248,240,113345,1,0
256,192,113595,12,4,115595
216,192,116845,6,0,B|312:192,2,70
256,192,117595,12,2,119595
264,72,120095,6,0,B|168:40|128:112,1,140
104,160,120845,1,0
72,216,121095,1,0
96,280,121345,1,0
152,328,121595,2,4,B|232:360|296:280,1,140
264,200,122345,5,0
440,272,122845,1,4
416,80,123345,1,0
224,72,123845,6,0,C|152:64|96:144,1,140,4|4
128,248,124845,1,0
256,192,125345,12,0,127095
352,56,127595,5,0
296,88,128095,1,0
328,144,128595,2,0,B|360:168|352:224,1,70
288,216,129595,2,0,B|232:240|264:296,1,70
152,296,130845,6,0,B|88:288|88:240,1,70
112,232,131595,2,0,B|152:200|144:144,1,70
48,128,132845,5,0
192,128,133345,1,0
256,192,133595,12,0,135095
72,56,135595,6,0,B|72:216,1,140
224,144,136595,2,0,B|384:144,1,140
448,144,137345,1,4
448,336,138095,6,0,B|448:176,1,140
360,336,139095,1,0
280,336,139345,1,0
48,56,140345,6,0,B|16:128|128:160,1,140
192,160,141095,1,0
272,144,141345,1,4
336,96,141595,2,0,B|392:40|488:96,1,140
464,176,142345,1,0
392,240,142595,1,4
200,208,143095,5,0
80,56,143595,6,0,B|152:8|208:80,1,140
288,248,144595,2,0,B|360:240|408:168,1,140
208,144,145595,2,0,B|120:168|112:256,1,140
456,328,146845,6,0,B|352:352|336:248,1,140
424,224,147595,2,0,B|384:144|296:160,1,140
48,40,148845,6,0,B|48:136,2,70
112,112,149595,2,0,B|192:112,2,70
128,304,150595,5,0
280,192,151095,1,4
208,48,151595,6,0,B|280:8|360:64,1,140
296,120,152345,2,0,B|392:120|416:224,1,140
408,272,153095,1,0
328,248,153345,2,0,B|264:144|120:184,1,210
256,192,154345,12,0,155595
256,56,156095,6,0,B|256:136,1,70
256,192,156595,2,0,B|256:344,1,140
256,192,157345,12,0,158095
192,176,158595,6,0,B|264:88|320:200,1,140
256,192,159345,12,0,160095
432,328,160845,5,0
368,296,161095,2,0,B|280:272|256:184,1,140
240,128,161845,5,0
256,32,162095,5,0
360,24,162345,5,0
416,104,162595,5,0
360,184,162845,5,0
320,96,163095,5,0
320,96,163345,1,0
272,160,163595,6,0,B|264:248|176:264,1,140
80,136,164595,1,0
96,295,165095,2,0,B|122:323|162:299,1,70
256,72,166095,6,0,B|352:56|376:152,1,140
224,208,167095,2,0,B|112:312,1,140
256,32,168345,6,0,B|256:176,1,140
256,256,169095,1,0
256,336,169345,1,0
336,336,169595,2,0,B|392:240|336:112,1,210,0|0
344,56,170595,2,0,B|424:88|416:192,1,140
256,272,171595,6,0,B|96:272,1,140
64,224,172345,1,0
128,192,172595,1,0
192,160,172845,2,0,B|240:168|248:96,3,70
88,64,174095,5,0
328,104,174845,6,0,B|376:112|384:160,3,70
280,272,176095,5,0
88,120,176845,6,0,B|88:24,2,70
88,200,177595,2,0,B|88:288,1,70
88,352,178095,5,0
232,232,178595,1,0
336,64,179095,1,0
480,192,179595,6,0,B|488:272|384:304,1,140
368,224,180345,2,0,B|280:216|240:320,1,140
256,368,181095,1,0
192,312,181345,2,0,B|152:200|232:96,1,210
288,152,182345,2,0,B|400:216|480:80,1,210
256,192,183345,12,0,187095
