osu file format v5

[General]
AudioFilename: Arashi - Beautiful Days.mp3
AudioLeadIn: 0
PreviewTime: 68605
Countdown: 1
SampleSet: Normal
StackLeniency: 0.7
Mode: 0
LetterboxInBreaks: 1
EditorBookmarks: 10585,37845,56355,68605,85605,97855,105095,112605,127605,143605,155605,171605,183345

[Metadata]
Title:Beautiful Days
Artist:Arashi
Creator:MaxwellDemon
Version:Hard
Source:
Tags:

[Difficulty]
HPDrainRate:8
CircleSize:6
OverallDifficulty:7
SliderMultiplier:1.4
SliderTickRate:2

[Events]
//Background and Video events
0,0,"beautifuldays.jpg"
//Break Periods
2,26285,36895
2,98045,104445
//Storyboard Layer 0 (Background)
//Storyboard Layer 1 (Failing)
//Storyboard Layer 2 (Passing)
//Storyboard Layer 3 (Foreground)
//Storyboard Sound Samples
//Background Colour Transformations
3,100,0,0,0

[TimingPoints]
595,500,4,2,0,61,1
21470,-100,4,1,0,61,0
22220,-100,4,2,0,61,0
25825,-100,4,1,0,100,0
38075,-100,4,2,0,100,0
64095,-100,4,1,0,70,0
68470,-100,4,2,0,100,0
69845,-100,4,2,0,61,0
69970,-100,4,1,0,61,0
70220,-100,4,2,0,100,0
70470,-100,4,1,0,61,0
73470,-100,4,2,0,100,0
73720,-100,4,1,0,71,0
75970,-100,4,2,0,100,0
76720,-100,4,1,0,70,0
90220,-100,4,2,0,100,0
90720,-100,4,1,0,69,0
91220,-100,4,2,0,100,0
91470,-100,4,1,0,69,0
92220,-100,4,2,0,100,0
92470,-100,4,1,0,69,0
97345,-100,4,2,0,100,0
105095,-100,4,2,0,51,0
110345,-100,4,2,0,70,0
112595,-100,4,2,0,61,0
122220,-100,4,1,0,100,0
123595,-100,4,2,0,100,0
124720,-100,4,1,0,59,0
124970,-100,4,2,0,61,0
127595,-200,4,2,0,49,0
132970,-100,4,1,0,61,0
133220,-100,4,2,0,100,0
133470,-100,4,1,0,100,0
135095,-100,4,1,0,71,0
146220,-100,4,2,0,100,0
146720,-100,4,1,0,69,0
148345,-100,4,2,0,100,0
148720,-100,4,1,0,70,0
155345,-100,4,2,0,100,0
157970,-100,4,1,0,71,0
158345,-100,4,2,0,100,0
158970,-100,4,2,0,100,0
159970,-100,4,1,0,81,0
160220,-100,4,2,0,100,0
161720,-100,4,1,0,61,0
161970,-100,4,1,0,61,0
162345,-100,4,1,0,86,0
162845,-100,4,1,0,100,0
163845,-100,4,1,0,71,0

[Colours]
Combo1 : 255,191,0
Combo2 : 55,55,55
Combo3 : 5,5,240
Combo4 : 83,182,255

[HitObjects]
112,320,10595,2,0,B|96:280|152:248,1,70
192,224,11095,1,0
248,184,11345,1,0
192,144,11595,1,0
248,104,11845,1,0
304,136,12095,2,0,B|344:152|336:200,1,70
336,256,12595,2,0,B|360:296|424:256,2,70
424,120,13595,5,2
368,160,13845,1,0
336,104,14095,2,0,B|296:72|248:104,1,70
296,152,14595,2,0,B|320:192|264:216,1,70
224,168,15095,2,0,B|200:128|152:168,1,70
120,288,15845,5,0
88,224,16095,1,2
128,168,16345,1,0
80,120,16595,2,0,B|40:88|80:40,1,70
128,80,17095,1,2
288,40,17595,6,0,B|360:88|320:192,1,140,2|2
416,304,18595,6,0,B|344:360|264:304,1,140
232,264,19345,2,0,B|152:208|88:264,1,140
48,208,20095,1,4
80,144,20345,2,0,B|168:208|312:144,1,210
344,128,21345,1,4
408,72,21595,5,0
440,56,21720,1,0
464,80,21845,1,0
464,112,21970,1,0
448,144,22095,1,0
424,168,22220,1,0
392,184,22345,1,0
256,192,22595,12,0,26095
256,192,37595,5,0
448,40,38345,5,0
392,80,38595,2,0,B|352:104|368:168,1,70,0|0
384,200,39095,1,0
392,264,39345,2,0,B|328:336|240:288,1,140
176,48,40595,6,0,B|88:48|56:128,1,140
112,152,41345,2,0,B|104:224|24:264,1,140
256,344,42595,5,0
216,288,42845,1,0
256,232,43095,1,0
216,176,43345,2,0,B|240:88|344:160,1,140
392,168,44095,1,0
440,120,44345,1,2
384,80,44595,2,0,B|360:40|296:56,3,70
256,192,45845,5,2
256,192,45970,1,0
256,192,46095,1,2
200,272,46345,6,0,B|152:272|136:232,1,70,0|0
96,184,46845,1,0
88,112,47095,1,0
136,56,47345,2,0,B|200:128|288:64,1,140
320,56,48095,1,2
456,40,48595,6,0,B|424:64|456:128,1,70
464,168,49095,1,0
464,232,49345,2,0,B|416:312|320:264,1,140
288,208,50095,5,2
240,136,50345,5,0
192,184,50595,2,0,B|128:240,1,70
120,160,51095,2,0,B|64:104,1,70,4|0
128,72,51595,2,4,B|184:16,1,70
256,72,52095,5,0
256,72,52220,1,0
256,72,52345,1,2
336,24,52595,6,0,B|376:24|384:80,1,70
352,128,53095,1,0
408,160,53345,1,0
424,224,53595,2,0,B|464:304|336:328,1,140,0|4
344,256,54345,2,0,B|272:192|200:264,1,140,0|2
256,160,55095,6,0,B|256:8,2,140
176,104,56345,5,0
128,48,56595,2,0,B|40:32|40:112,1,140
104,136,57345,2,0,B|184:192|104:256,1,140
64,296,58095,1,2
24,352,58345,1,4
104,344,58595,6,0,B|176:368|216:240,1,140
216,192,59345,6,0,B|200:72|368:240|328:80,1,210
288,32,60345,1,0
256,192,60845,6,0,B|256:264,1,70
296,328,61345,5,0
352,296,61595,1,0
376,232,61845,1,0
336,176,62095,1,2
400,152,62345,2,0,B|496:128|480:32,1,140,4|0
416,48,63095,2,0,B|336:8|264:64,1,140
256,192,64095,5,0
256,192,64220,1,0
256,192,64345,1,0
256,96,64595,6,0,B|256:16,1,70
256,288,65595,6,0,B|256:360,1,70
424,192,66595,6,0,B|496:192,1,70
96,192,67595,6,0,B|8:192,1,70
256,192,68595,12,0,69595
256,192,70095,5,4
256,272,70345,1,0
184,240,70595,2,0,B|96:208|104:112,1,140
256,192,71345,12,0,72095
256,48,72595,6,0,B|256:200,1,140
256,192,73345,12,0,74095
256,192,74345,5,4
176,48,74845,1,0
256,32,75095,1,0
336,48,75345,1,0
256,72,75595,1,0
256,168,75845,5,0
272,264,76095,2,0,B|264:312|304:328,1,70
400,336,76595,2,0,B|496:328|456:216,1,140
448,56,77595,6,0,B|352:72|336:168,1,140
472,232,78595,2,0,B|408:240|392:344,1,140
344,264,79345,1,0
184,72,80095,2,0,B|96:80|72:176,1,140
192,264,81095,2,0,B|112:256|104:352,1,140
256,192,82095,5,4
312,136,82345,2,0,B|408:112|424:208,1,140
408,272,83095,1,0
360,336,83345,1,0
304,272,83595,2,0,B|240:264|192:232|200:168|272:192|232:288|192:312,1,210
120,344,84595,5,0
64,160,85095,1,0
224,48,85595,5,0
264,120,85845,1,0
328,64,86095,2,0,B|416:72|432:184,1,140
424,232,86845,1,0
384,312,87095,1,0
336,240,87345,1,0
296,168,87595,2,0,B|296:128|224:120,1,70
168,136,88095,1,4
256,368,88845,6,0,B|256:216,1,140
256,144,89595,2,0,B|256:64,1,70
256,74,90095,1,4
256,8,90345,5,2
256,8,90470,1,0
256,8,90595,1,4
256,72,90845,6,0,B|256:168,1,70
256,208,91345,1,0
256,280,91595,2,0,B|256:360,2,70
160,248,92345,5,0
168,152,92595,2,0,B|88:104|32:208,1,140
224,64,93595,6,0,B|272:8|384:64,1,140
400,112,94345,2,0,B|288:80|272:184,1,140,0|0
264,224,95095,1,4
272,296,95345,2,0,B|352:192|488:296,1,210,0|4
456,200,96345,2,0,B|480:88|320:24,1,210
256,192,97157,12,0,97845
256,40,105345,5,0
256,72,105470,2,0,B|256:136,1,35
264,136,105720,1,0
296,144,105845,1,2
320,168,105970,1,0
336,200,106095,1,6
336,232,106220,1,0
328,264,106345,1,2
304,288,106470,1,0
272,296,106595,1,2
240,288,106720,1,0
208,264,106845,1,2
200,232,106970,1,0
208,200,107095,1,4
256,32,107595,6,2,B|256:96,1,35
256,104,107845,1,2
248,136,107970,1,0
216,144,108095,1,2
192,168,108220,1,0
176,200,108345,1,6
176,232,108470,1,0
184,264,108595,1,2
208,288,108720,1,0
240,296,108845,1,2
272,288,108970,1,0
304,264,109095,1,2
312,232,109220,1,0
304,200,109345,1,4
280,128,109595,6,0,B|320:40|408:80,1,140
384,112,110220,1,2
368,144,110345,1,2
376,184,110470,1,2
400,208,110595,2,2,B|488:232|472:328,1,140,2|6
256,352,111595,5,0
256,352,111720,1,2
256,352,111845,1,2
256,272,112095,2,0,B|256:184,2,70
328,312,112845,5,0
384,272,113095,1,0
392,200,113345,1,2
256,192,113595,12,0,115095
256,192,115345,5,0
256,192,115595,1,4
256,40,116845,6,0,B|256:136,2,70
256,192,117595,12,0,119095
256,192,119345,5,0
256,192,119595,1,4
432,48,120095,6,0,B|392:64|376:104,1,70,0|0
360,160,120595,1,0
400,216,120845,2,0,B|424:248|400:304,1,70,0|4
360,336,121345,1,0
280,304,121595,5,0
144,208,122095,1,0
192,136,122345,1,4
64,32,122845,1,0
232,56,123345,2,0,B|304:16|384:64,1,140
424,112,124095,1,4
432,192,124345,2,0,B|464:280|360:304,1,140
296,280,125095,1,4
256,192,125345,12,0,127345
160,96,127595,5,0
192,120,127845,2,0,B|208:136|208:168,1,35
208,192,128345,1,0
184,224,128595,1,0
144,240,128845,1,0
168,272,129095,2,0,B|176:296|200:312,1,35
224,320,129595,2,0,B|248:328|272:312,1,35
296,304,130095,1,2
296,216,130595,5,0
328,184,130845,2,0,B|344:168|352:136,1,35
344,112,131345,1,0
328,72,131595,2,0,B|320:40|368:24,1,35
376,16,132095,1,2
488,128,132595,5,2
384,264,133095,5,0
312,312,133345,1,0
232,272,133595,1,0
200,168,133845,6,0,B|136:120,1,70
240,64,134345,1,0
328,128,134595,2,0,B|408:184,1,70
448,32,135595,6,0,B|504:104|440:184,1,140
344,240,136595,1,0
208,208,137095,2,0,B|176:200|152:160,1,70
48,40,138095,6,0,B|0:104|72:184,1,140
160,72,139095,1,0
224,56,139345,1,0
416,256,140345,5,0
416,328,140595,1,0
352,296,140845,1,0
352,224,141095,2,0,B|352:136,1,70
352,72,141595,5,4
160,184,142095,1,0
304,352,142595,1,0
80,344,143095,1,0
80,136,143595,6,0,B|88:88|136:72,1,70
200,56,144095,1,0
232,128,144345,1,0
312,152,144595,2,0,B|352:152|384:104,1,70
408,40,145095,2,0,B|448:56|480:112,1,70
456,168,145595,2,0,B|448:216|392:224,1,70
336,248,146095,1,4
256,192,146345,5,0
256,192,146470,1,0
256,192,146595,1,2
184,120,146845,5,0
136,48,147095,1,0
88,120,147345,1,0
48,48,147595,2,0,B|8:64|24:128,1,70
48,184,148095,1,4
120,248,148345,5,0
120,248,148470,1,0
120,248,148595,1,2
192,184,148845,5,0
256,240,149095,1,4
312,176,149345,1,0
376,232,149595,2,0,B|424:176,1,70
432,96,150095,1,4
224,48,150595,5,0
56,176,151095,1,0
160,304,151595,6,0,B|152:216|248:192,1,140
312,184,152345,1,0
416,40,152845,1,0
496,32,153095,1,0
472,112,153345,2,0,B|392:144|376:176|400:304,1,210
336,344,154345,2,0,B|216:280|256:136,1,210
256,40,155595,5,0
224,80,155845,1,0
192,120,156095,1,0
136,128,156345,1,0
88,160,156595,2,0,C|32:216|80:288,1,140
96,312,157345,1,0
256,192,157407,12,0,158095
256,48,158845,5,0
256,104,159095,1,0
256,160,159345,1,0
256,192,159407,12,0,160095
256,112,160845,5,0
256,184,161095,1,0
256,256,161345,1,0
256,336,161595,6,0,C|352:296,1,70
320,192,162095,2,0,C|400:160,1,70
368,64,162595,2,0,C|464:24,1,70
440,144,163095,2,0,C|376:176,1,70,0|0
256,128,163595,5,0
112,224,164095,1,0
248,320,164595,1,0
368,200,165095,2,0,C|448:184,1,70
320,104,166095,5,0
464,200,166595,1,0
328,296,167095,2,0,B|240:272|208:200,1,140
40,32,168345,6,0,B|136:8|168:104,1,140
160,160,169095,1,4
120,232,169345,1,0
64,296,169595,2,0,B|112:360|280:312,1,210
248,232,170595,2,0,B|312:168|248:72,1,140
472,40,171595,5,0
440,120,171845,1,4
368,168,172095,1,0
288,184,172345,1,0
208,152,172595,2,0,B|160:144|144:104,1,70
144,200,173095,2,0,B|128:240|160:280,1,70
224,304,173595,2,0,B|288:360|360:304,1,140,0|4
256,32,174595,5,4
288,152,174845,6,0,B|248:176|208:144,1,70
160,96,175345,1,0
168,176,175595,2,0,B|192:256|280:280,1,140
344,224,176345,5,0
472,40,176845,5,0
448,112,177095,1,0
376,72,177345,1,0
368,144,177595,2,0,B|400:184|368:224,1,70
344,280,178095,1,0
256,104,178595,6,0,B|256:264,1,140
80,336,179595,6,0,B|0:264|72:184,1,140
128,232,180345,2,0,B|192:296|272:216,1,140
304,176,181095,1,4
232,136,181345,2,0,B|128:176|56:32,1,210
144,56,182345,2,0,B|256:104|360:8,1,210
256,192,183345,12,0,187095
