osu file format v5

[General]
AudioFilename: Arashi - Beautiful Days.mp3
AudioLeadIn: 0
PreviewTime: 68605
Countdown: 1
SampleSet: Normal
StackLeniency: 0.7
Mode: 0
LetterboxInBreaks: 1
EditorBookmarks: 10585,37845,56355,68605,85605,97855,112605,127605,143605,155605,171605

[Metadata]
Title:Beautiful Days
Artist:Arashi
Creator:MaxwellDemon
Version:Easy
Source:
Tags:

[Difficulty]
HPDrainRate:2
CircleSize:5
OverallDifficulty:3
SliderMultiplier:1.2
SliderTickRate:2

[Events]
//Background and Video events
0,0,"beautifuldays.jpg"
//Break Periods
2,26285,36895
2,97805,112165
//Storyboard Layer 0 (Background)
//Storyboard Layer 1 (Failing)
//Storyboard Layer 2 (Passing)
//Storyboard Layer 3 (Foreground)
//Storyboard Sound Samples
//Background Colour Transformations
3,100,0,0,0

[TimingPoints]
595,500,4,2,0,61,1
25825,-100,4,1,0,100,0
38075,-100,4,2,0,100,0
64345,-100,4,1,0,100,0
69720,-100,4,2,0,100,0
70470,-100,4,1,0,71,0
73470,-100,4,2,0,100,0
73720,-100,4,1,0,71,0
75970,-100,4,2,0,100,0
76720,-100,4,1,0,70,0
112595,-100,4,2,0,100,0
127595,-100,4,2,0,49,0
132970,-100,4,1,0,100,0
135095,-100,4,1,0,71,0
155345,-100,4,2,0,100,0
157970,-100,4,1,0,71,0
158970,-100,4,2,0,100,0
159970,-100,4,1,0,70,0
162345,-100,4,1,0,86,0
162845,-100,4,1,0,100,0
163845,-100,4,1,0,71,0

[Colours]
Combo1 : 255,191,0
Combo2 : 55,55,55
Combo3 : 5,5,240
Combo4 : 83,182,255

[HitObjects]
288,248,10595,1,0
400,160,11345,2,0,B|440:144|456:208,2,60,0|0|0
264,120,12595,2,0,B|224:112|216:168,2,60
328,56,13595,1,2
216,208,14595,6,0,B|191:224|159:200,2,60
224,344,15845,2,0,B|136:392|48:312,1,180
24,200,17095,1,0
168,192,17595,5,0
168,192,18095,1,2
216,56,18595,5,0
304,88,19095,2,0,B|392:144|336:224|256:184|336:128|448:144,2,240
392,72,21595,1,4
256,192,22095,12,0,26095
360,88,38595,5,0
296,224,40595,5,0
392,344,42595,5,0
448,232,43345,1,0
392,80,44345,1,2
352,152,44845,2,4,B|320:232|232:184,1,120,0|4
56,40,46095,5,2
56,120,46595,1,0
128,280,47345,2,0,B|192:272|192:168,1,120
272,48,48595,5,0
280,128,49095,2,0,B|256:176|368:168|392:184|368:264,1,180
264,328,50345,5,0
160,256,50845,1,0
104,152,51345,2,2,B|88:120|128:88,2,60
296,32,52595,6,0,B|384:112|344:168|272:152|320:80|424:64,1,240
448,176,54095,1,0
408,280,54595,1,4
304,336,55095,2,0,B|248:384|184:304,2,120
264,224,56595,5,0
264,104,57095,1,0
440,80,57845,2,0,B|440:40|384:32,2,60,0|0|0
256,32,59345,5,0
256,168,60095,1,0
256,248,60345,1,0
416,336,61095,6,2,C|456:336|456:256,1,120,2|2
408,152,62095,1,0
248,80,62845,2,0,B|200:72|232:24|224:16,2,60
8,200,64595,6,0,C|80:200,1,60
256,368,65595,2,0,C|256:288,1,60
472,200,66595,2,0,C|392:200,1,60
256,16,67595,2,0,C|256:96,1,60
256,192,68595,12,0,69595
256,192,70095,5,0
376,120,70595,1,0
408,256,71095,1,2
272,296,71595,2,0,C|240:344|176:304,1,120
104,200,72595,6,0,C|56:144|152:88,1,180
208,64,73595,1,0
280,208,74095,1,4
480,352,74845,6,0,C|416:352|384:288,1,120
424,56,76095,6,0,C|288:56,1,120
184,56,77095,1,0
136,216,77595,6,0,B|160:272|240:264,1,120
352,248,78595,1,0
432,168,79095,2,0,B|456:136|416:96,1,60
256,32,80095,6,0,B|184:24|144:96,1,120
104,184,81095,2,0,B|64:232|144:280,1,120
368,328,82345,6,0,B|448:312|408:264|408:264|496:200,1,180
408,88,83595,1,0
264,176,84095,1,4
136,72,84595,2,0,B|56:112|120:192,1,120
256,336,85595,6,0,B|256:200,1,120
256,96,86595,1,0
256,96,87095,1,0
256,208,87595,2,0,B|256:288,2,60
64,208,88595,6,0,B|192:208,1,120,0|0
328,208,89595,2,0,B|408:208,2,60
432,64,90845,6,0,B|360:64,1,60
256,64,91595,2,0,B|184:64,2,60
136,64,92595,1,4
16,64,93095,1,2
16,192,93595,6,0,B|88:184|112:264,1,120
120,320,94345,1,0
248,256,94845,2,0,B|248:216|296:192,2,60
256,192,96095,12,0,97595
256,192,113595,12,4,115595
256,192,116845,12,2,119595
56,56,120095,6,0,B|144:56,2,60
192,56,121095,1,4
312,128,121595,1,0
144,288,122345,5,4
144,120,122845,1,2
288,192,123345,2,0,B|360:312|264:328|248:248|416:240,1,240
440,80,124845,2,0,B|384:144,2,60
256,192,125595,12,0,127595
256,72,129595,5,2
256,336,131595,5,2
256,192,133095,12,4,134845
256,48,135595,5,0
256,208,136095,1,0
344,344,136595,2,0,B|408:400|488:280,1,180,0|4
448,40,138095,5,0
360,176,138595,2,0,B|296:192|272:200|200:96,1,180
72,336,140345,6,0,B|112:320|136:280,3,60
216,168,141595,1,4
464,40,142595,5,4
424,224,143095,1,4
256,40,143595,6,0,B|256:176,1,120
256,296,144595,2,0,B|120:296,1,120
128,152,145595,2,0,B|128:72,2,60
320,240,146845,6,0,B|392:240,2,60
320,168,147595,2,0,B|320:80,2,60
480,32,148845,6,0,B|400:32,2,60
480,104,149595,2,0,B|480:168,2,60,0|0|0
256,48,151595,5,0
64,192,152845,5,0
256,344,154095,5,4
464,192,155095,5,4
448,48,155595,5,0
376,104,156095,1,2
328,184,156595,2,0,B|272:224|304:312,1,120,0|4
224,232,157595,2,0,B|224:192|192:160,2,60,0|0|4
256,96,158845,6,0,B|280:72|320:88,3,60
392,128,160095,1,0
328,280,160845,6,0,B|344:304|392:304,3,60
464,192,162095,1,4
336,88,162595,1,4
200,136,163095,2,4,B|152:144|152:192,1,60
144,240,163595,1,0
256,336,164095,5,0
376,264,164595,1,0
368,120,165095,2,4,C|360:56|288:72,1,120
168,56,166095,1,0
256,192,166595,5,0
144,280,167095,6,0,C|80:256|120:176|40:128,1,240
168,64,168595,5,0
280,152,169095,1,4
312,296,169595,6,0,B|160:280|192:208|304:240|152:352,1,240
256,192,171095,1,4
256,32,171595,5,0
376,96,172095,1,0
400,232,172595,2,0,B|352:296|312:320|184:248,1,240
304,168,174095,1,4
104,48,174845,6,4,B|56:56|72:104,2,60
168,64,175595,2,0,B|200:96|184:144,2,60
256,320,176845,6,0,B|256:176,1,120
256,128,177595,2,0,B|256:56,2,60
456,40,178595,5,0
376,184,179095,1,2
256,40,179595,6,0,B|176:40|160:128,1,120
152,176,180345,1,4
256,320,181095,5,0
464,216,182095,5,4
256,192,183095,12,0,187095
