osu file format v9

[General]
AudioFilename: Arash ft. Helena - Broken Angel.mp3
AudioLeadIn: 1290
PreviewTime: 50139
Countdown: 0
SampleSet: Soft
StackLeniency: 0.7
Mode: 0
LetterboxInBreaks: 0
EpilepsyWarning: 1

[Editor]
DistanceSpacing: 0.8
BeatDivisor: 4
GridSize: 8

[Metadata]
Title:Broken Angel
Artist:Arash ft Helena
Creator:florianu
Version:Hard
Source:
Tags:

[Difficulty]
HPDrainRate:8
CircleSize:5
OverallDifficulty:5
ApproachRate:8
SliderMultiplier:1.4
SliderTickRate:1

[Events]
//Background and Video events
0,0,"bg.jpg"
//Break Periods
2,18308,32292
2,64976,78959
2,113509,126559
2,144776,150359
2,152242,157826
//Storyboard Layer 0 (Background)
//Storyboard Layer 1 (Fail)
//Storyboard Layer 2 (Pass)
//Storyboard Layer 3 (Foreground)
//Storyboard Sound Samples
//Background Colour Transformations
3,100,163,162,255

[TimingPoints]
2242,466.671851909466,4,2,1,100,1,0
158619,-100,4,2,1,100,0,1
172882,-100,4,2,1,5,0,0

[Colours]
Combo1 : 255,128,64
Combo2 : 5,240,5
Combo3 : 5,5,240
Combo4 : 240,5,5

[HitObjects]
256,192,3175,1,8
368,192,3642,1,2
368,136,3875,1,2
368,80,4108,1,2
464,16,4575,1,2
352,16,5042,1,2
240,16,5508,1,2
184,24,5742,2,2,B|72:200,1,210
232,360,7375,5,2
288,360,7608,1,2
344,360,7842,1,2
288,264,8308,1,2
288,208,8542,1,2
288,152,8775,1,2
232,152,9008,1,2
176,152,9242,1,2
120,152,9475,2,2,B|120:104|48:120,1,70
72,64,9942,2,2,B|-16:64,1,70
8,120,10408,1,2
8,176,10642,1,2
128,112,11108,5,2
128,168,11342,1,2
128,224,11575,1,2
184,320,12042,1,2
296,336,12508,1,2
352,240,12975,1,2
296,224,13208,2,2,B|384:16,1,210
200,16,14842,5,2
256,32,15075,1,2
256,88,15308,1,2
336,160,15775,1,2
304,208,16009,2,2,B|240:360,1,140
200,368,16709,1,2
152,336,16942,1,2
256,80,18108,1,4
256,192,33042,12,4,34909
256,192,35375,5,0
256,192,35842,1,0
272,216,35959,1,0
288,240,36075,1,0
304,264,36192,1,0
320,288,36309,1,0
352,336,36542,1,0
392,296,36775,1,0
416,184,37242,1,0
392,72,37709,5,0
368,72,37825,1,0
344,72,37942,1,0
320,72,38059,1,0
296,72,38175,1,0
240,72,38409,1,0
184,72,38642,1,0
72,88,39109,1,0
72,200,39575,5,0
72,224,39691,1,0
72,248,39808,1,0
72,272,39925,1,0
72,296,40041,1,0
80,320,40159,1,0
152,280,40509,1,0
240,208,40975,1,0
240,208,41442,1,0
240,208,41909,1,0
368,192,42375,5,0
376,168,42492,1,0
384,144,42609,1,0
392,120,42725,1,0
400,96,42842,1,0
292,64,43309,1,0
184,56,43775,1,0
72,56,44242,1,0
184,56,44709,1,0
184,56,45175,5,0
212,56,45292,1,0
236,56,45409,1,0
260,56,45525,1,0
284,56,45642,1,0
313,103,45875,1,0
301,157,46109,1,0
251,257,46575,1,0
129,297,47042,1,0
129,273,47159,1,0
129,249,47275,1,0
129,225,47392,1,0
129,201,47509,1,0
256,192,47625,12,12,49842
256,192,50309,5,0
256,192,50775,1,0
144,192,51242,1,0
256,192,51709,1,0
368,192,52175,1,0
384,168,52292,1,0
392,144,52409,1,0
392,120,52525,1,0
384,96,52642,1,0
288,48,53109,1,2
280,168,53575,1,4
280,280,54042,5,0
360,352,54509,2,0,B|264:352,2,70
440,272,55442,1,0
448,248,55559,1,0
456,224,55675,1,0
464,200,55792,1,0
472,176,55909,1,0
416,160,56142,1,0
248,160,56842,1,2
248,216,57075,1,0
248,272,57309,1,4
192,192,57775,22,0,B|152:192,4,35
304,192,58709,1,0
416,192,59175,1,0
416,304,59642,1,0
392,304,59759,1,0
368,304,59875,1,0
344,304,59992,1,0
320,304,60109,1,0
208,304,60575,1,2
96,304,61042,1,4
96,192,61509,6,0,B|96:112,2,70
96,192,62442,1,0
152,192,62676,1,0
208,192,62909,1,0
320,192,63376,1,0
376,192,63609,1,0
376,160,63726,1,0
376,128,63843,1,0
376,96,63959,1,0
376,72,64076,1,0
320,64,64309,1,0
208,64,64776,1,4
256,192,79709,12,8,82976
256,192,83442,5,8
256,192,83908,1,8
256,304,84376,1,0
256,280,84492,1,0
256,256,84609,1,0
256,232,84726,1,0
256,208,84842,1,0
256,176,84959,1,0
256,144,85076,1,0
256,120,85192,1,0
256,88,85309,1,4
344,16,85775,1,0
344,80,86242,5,0
344,192,86708,1,0
344,160,86825,1,0
344,136,86942,1,0
344,112,87058,1,0
344,80,87175,1,4
232,72,88108,5,0
120,72,88575,1,0
63,72,88809,1,0
8,72,89042,1,4
120,72,89508,1,0
120,72,89975,1,0
120,72,90442,1,0
208,144,90908,6,0,B|320:256,1,140
351,277,91609,1,0
392,312,91842,1,0
395,255,92076,1,0
392,200,92308,1,0
392,176,92425,1,0
392,152,92542,1,0
392,128,92659,1,0
392,104,92775,2,0,B|392:56,4,35
280,104,93709,5,0
160,96,94175,1,0
103,99,94409,1,0
75,105,94526,1,0
58,127,94642,1,0
58,159,94759,1,0
58,191,94875,1,0
58,223,94992,1,0
58,255,95109,1,0
152,264,95576,5,0
272,224,96042,1,0
296,240,96159,1,0
320,224,96275,1,0
344,208,96392,1,0
368,192,96509,1,0
392,208,96625,1,0
416,224,96742,1,0
440,240,96859,1,0
464,256,96975,1,0
488,112,97442,5,0
464,112,97559,1,0
440,112,97675,1,0
416,112,97792,1,0
392,112,97909,1,0
280,112,98376,1,8
280,112,98842,37,6
280,112,99309,1,0
168,112,99775,1,0
56,112,100242,1,0
56,224,100709,1,0
80,224,100825,1,0
112,224,100942,1,0
144,224,101059,1,0
168,224,101175,1,0
280,224,101642,1,2
392,224,102109,1,4
368,112,102575,5,0
256,112,103042,1,0
144,112,103509,1,0
32,112,103975,1,0
32,136,104092,1,0
32,168,104209,1,0
32,192,104325,1,0
32,216,104442,1,0
32,272,104676,1,0
32,328,104909,2,2,B|144:328|144:328|168:296,2,140,2|2|6
120,264,106309,5,0
208,192,106775,1,0
296,128,107242,1,0
408,120,107709,1,0
408,120,108175,1,0
408,144,108292,1,0
408,168,108409,1,0
408,192,108525,1,0
408,216,108642,1,0
408,328,109109,1,2
408,328,109575,1,4
296,336,110042,37,0
192,336,110509,1,0
80,336,110975,1,0
136,336,111209,1,0
136,336,111442,1,0
248,336,111909,1,0
304,336,112142,1,0
304,312,112259,1,0
304,288,112376,1,0
304,264,112492,1,0
304,240,112609,1,0
360,240,112843,1,0
472,240,113309,1,4
256,192,127309,12,0,128242
256,192,128709,5,2
256,192,128942,1,2
256,192,129176,1,2
368,192,129642,1,8
256,192,130576,5,2
256,192,130809,1,2
256,192,131042,1,2
144,192,131509,1,8
336,312,132442,6,2,B|336:224,2,70
337,199,133376,2,0,B|336:115,2,70
280,200,134076,5,0
168,200,134426,1,0
280,200,134776,1,0
168,200,135126,1,0
280,200,135476,1,2
112,200,136176,5,2
112,200,136410,1,0
112,200,136643,1,2
224,200,137109,1,8
256,192,138042,5,2
256,192,138276,1,2
256,192,138509,1,2
144,192,138976,1,8
64,112,139442,5,0
88,112,139559,1,0
112,112,139676,1,0
136,112,139793,1,0
160,120,139909,1,0
184,112,140026,1,0
208,104,140142,1,0
232,104,140259,1,0
256,104,140376,1,0
368,112,140842,1,8
424,112,141076,1,8
480,112,141309,1,12
256,192,141776,12,4,143176
256,192,143642,5,0
144,192,144109,1,0
256,192,144576,1,4
256,192,151109,37,0
368,192,151576,1,0
256,192,152042,1,4
256,192,158576,5,0
320,104,159043,1,0
224,48,159509,1,0
224,160,159976,1,0
104,160,160443,1,0
104,136,160559,1,0
104,104,160676,1,0
104,80,160793,1,0
104,56,160909,1,0
216,56,161376,1,2
328,56,161843,1,4
216,56,162309,5,0
328,56,162776,1,0
328,168,163243,1,0
216,176,163709,1,0
96,176,164176,1,0
128,176,164293,1,0
160,176,164409,1,0
192,176,164526,1,0
216,176,164643,1,0
328,176,165109,2,2,B|400:176,1,70
441,140,165577,2,4,B|513:140,1,70,4|0
440,64,166043,5,0
312,56,166509,1,0
192,56,166976,1,0
80,56,167443,1,0
80,167,167909,1,0
78,195,168026,1,0
78,223,168143,1,0
78,250,168259,1,0
78,278,168376,1,0
192,272,168843,1,2
192,272,169309,1,4
304,272,169776,5,0
304,152,170243,1,0
304,264,170709,1,0
304,207,170943,1,0
305,151,171176,1,0
248,249,171643,1,0
248,224,171759,1,0
248,195,171876,1,0
249,166,171993,1,0
247,138,172109,1,0
256,192,173043,12,0,176310
