osu file format v13

[General]
AudioFilename: Arash feat. Helena - Broken Angel (Kritikally Akklaimed Remix).mp3
AudioLeadIn: 0
PreviewTime: 89316
Countdown: 1
SampleSet: Normal
StackLeniency: 0.5
Mode: 0
LetterboxInBreaks: 1
WidescreenStoryboard: 0

[Editor]
Bookmarks: 0,21316,29316,37316,53316,71316,79316,87316,89316,121316,137316,145316,161316,177316,193316,209316
DistanceSpacing: 0.6
BeatDivisor: 4
GridSize: 4
TimelineZoom: 0.5999999

[Metadata]
Title:Broken Angel (Kritikally Akklaimed Remix)
TitleUnicode:Broken Angel (Kritikally Akklaimed Remix)
Artist:Arash feat. Helena
ArtistUnicode:Arash feat. Helena
Creator:Kritikally
Version:Normal
Source:
Tags:Remix Kritikally Akklaimed Club Dance Electronic Euro English Farsi
BeatmapID:454170
BeatmapSetID:190760

[Difficulty]
HPDrainRate:4.5
CircleSize:3.5
OverallDifficulty:3.5
ApproachRate:5
SliderMultiplier:1.5
SliderTickRate:2

[Events]
//Background and Video events
0,0,"bgi.jpg",0,0
//Break Periods
2,29520,32120
2,105520,120120
2,137520,140120
//Storyboard Layer 0 (Background)
//Storyboard Layer 1 (Fail)
//Storyboard Layer 2 (Pass)
//Storyboard Layer 3 (Foreground)
//Storyboard Sound Samples
//Background Colour Transformations
3,100,190,255,255

[TimingPoints]
0,500,4,1,1,85,1,0
1,600,4,1,1,85,1,0
19320,500,4,1,1,85,1,0
21320,500,4,1,1,85,1,0
53320,-100,4,1,1,85,0,1
71320,-100,4,1,1,85,0,0
79320,-100,4,1,1,85,0,1
87320,-100,4,1,1,85,0,0
89320,-100,4,1,1,85,0,1
105321,-100,4,1,1,85,0,0
145321,-100,4,1,1,85,0,1
161319,-100,4,1,1,85,0,0
161320,-100,4,1,1,85,0,1
177321,-100,4,1,1,85,0,0
209320,-100,4,1,1,85,0,0

[Colours]
Combo1 : 255,128,64
Combo2 : 68,94,142
Combo3 : 192,26,26
Combo4 : 68,142,70
Combo5 : 68,124,142
Combo6 : 124,68,142

[HitObjects]
393,207,21320,5,0,0:0:0:0:
340,280,21820,2,0,P|320:316|286:336,2,75,0|0|0,0:0|0:0|0:0,0:0:0:0:
256,252,22820,1,0,0:0:0:0:
172,280,23320,2,0,P|60:204|124:80,1,300,0|0,0:0|0:0,0:0:0:0:
200,32,24820,1,0,0:0:0:0:
200,120,25320,5,0,0:0:0:0:
288,104,25820,2,8,P|302:66|356:36,2,75,0|0|0,0:0|0:0|0:0,0:0:0:0:
376,124,26820,1,0,0:0:0:0:
428,196,27320,6,0,P|428:276|388:352,1,150,0|0,0:0|0:0,0:0:0:0:
356,352,28070,2,0,B|316:328|300:278|393:308|362:241|360:200|314:157|412:148,1,225,0|8,0:0|0:3,0:0:0:0:
416,127,29070,2,0,P|451:123|477:148,1,75,4|4,0:3|0:0,0:0:0:0:
256,192,33320,12,0,36320,0:0:0:0:
328,112,37320,6,0,P|381:161|383:234,1,150,0|8,0:0|0:0,0:0:0:0:
339,313,38320,2,0,P|267:296|228:221,1,150,0|8,0:0|0:0,0:0:0:0:
234,191,39070,2,0,P|250:157|308:141,1,75
324,221,39820,1,8,0:0:0:0:
417,201,40320,2,0,P|381:142|297:129,1,150,0|8,0:0|0:0,0:0:0:0:
264,140,41070,2,0,P|233:160|221:195,1,75
132,180,41820,5,8,0:0:0:0:
52,220,42320,2,0,P|46:179|67:118,2,75,0|0|8,0:0|0:0|0:0,0:0:0:0:
36,264,43070,2,0,P|14:294|8:330,1,75
100,328,43820,1,8,0:0:0:0:
190,328,44320,1,2,0:2:0:0:
253,264,44820,1,8,0:0:0:0:
190,200,45320,5,4,0:2:0:0:
253,264,45820,1,8,0:0:0:0:
317,200,46320,2,0,L|205:84,1,150,0|8,0:0|0:0,0:0:0:0:
168,104,47070,2,0,P|150:75|106:55,1,75
84,140,47820,1,8,0:0:0:0:
16,204,48320,2,0,L|144:336,1,150,0|8,0:0|0:0,0:0:0:0:
159,332,49070,2,0,P|181:361|215:379,1,75
248,296,49820,5,8,0:0:0:0:
309,224,50320,2,0,P|338:269|336:317,2,75,0|0|8,0:3|0:0|0:3,0:0:0:0:
274,195,51070,1,4,0:3:0:0:
229,200,51320,1,4,0:0:0:0:
256,192,51570,12,0,52820,0:0:0:0:
408,180,53820,6,0,L|332:257,1,75,8|0,0:0|0:0,0:0:0:0:
312,244,54320,1,0,0:0:0:0:
224,244,54820,1,8,0:0:0:0:
140,212,55320,1,0,0:0:0:0:
100,132,55820,2,8,P|176:50|300:88,1,225,8|0,0:0|0:0,0:0:0:0:
316,96,56820,2,0,P|368:164|352:236,1,150,8|0,0:0|0:0,0:0:0:0:
380,312,57820,6,8,P|340:312|296:288,1,75,8|0,0:0|0:0,0:0:0:0:
264,289,58320,1,0,0:0:0:0:
172,280,58820,1,8,0:0:0:0:
94,244,59320,2,0,P|159:196|224:213,1,150,0|8,0:0|0:0,0:0:0:0:
276,140,60320,1,0,0:0:0:0:
344,200,60820,2,0,P|366:159|352:102,2,75,8|0|4,0:0|0:0|0:0,0:0:0:0:
296,272,61820,5,8,0:0:0:0:
256,296,62070,1,0,0:0:0:0:
212,308,62320,2,0,P|124:284|62:216,1,150,0|8,0:0|0:0,0:0:0:0:
64,156,63320,2,0,P|122:86|210:58,1,150,0|8,0:0|0:0,0:0:0:0:
216,80,64070,2,0,B|236:120|216:172|160:92|144:164|116:180|132:260|56:212,1,225,0|8,0:0|0:0,0:0:0:0:
34,296,65320,1,4,0:2:0:0:
125,298,65820,6,0,P|118:335|69:376,2,75,8|0|0,0:0|0:0|0:0,0:0:0:0:
212,268,66820,1,8,0:0:0:0:
256,188,67320,1,4,0:2:0:0:
344,208,67820,1,8,0:0:0:0:
344,296,68320,1,4,0:2:0:0:
436,302,68820,2,0,P|420:347|392:374,2,75,8|4|4,0:3|0:3|0:0,0:0:0:0:
436,212,69820,5,0,0:0:0:0:
436,122,70320,2,0,P|400:58|328:26,1,150,4|0,0:2|0:2,0:2:0:0:
240,24,71320,6,0,P|211:95|243:164,1,150,4|8,0:0|0:0,0:0:0:0:
295,88,72320,2,0,P|324:159|292:228,1,150,0|8,0:0|0:0,0:0:0:0:
264,256,73070,2,0,P|232:276|172:248,1,75
132,202,73820,1,8,0:0:0:0:
56,167,74320,6,0,P|128:120|194:144,1,150,0|8,0:0|0:0,0:0:0:0:
224,156,75070,2,0,P|257:173|296:156,1,75
264,76,75820,1,8,0:0:0:0:
352,88,76320,2,0,P|384:172|356:232,1,150,0|8,0:0|0:0,0:0:0:0:
328,252,77070,2,0,P|296:271|260:267,1,75
176,228,77820,1,8,0:0:0:0:
136,60,78820,1,8,0:0:0:0:
226,60,79320,5,4,0:2:0:0:
317,88,79820,1,8,0:0:0:0:
384,28,80320,2,0,P|444:100|456:180,1,150,0|8,0:0|0:0,0:0:0:0:
464,200,81070,2,0,P|442:306|352:376,1,225,0|8,0:0|0:0,0:0:0:0:
283,311,82320,6,0,P|359:291|393:223,1,150,0|8,0:0|0:0,0:0:0:0:
304,224,83320,1,0,0:0:0:0:
392,232,83820,1,8,0:0:0:0:
392,143,84320,2,0,P|434:153|473:199,2,75,0|0|8,0:0|0:0|0:0,0:0:0:0:
346,142,85070,1,0,0:0:0:0:
301,142,85320,2,0,P|149:198|113:328,2,300,4|4|4,0:2|0:3|0:2,0:0:0:0:
256,192,87570,12,4,89320,0:2:0:0:
420,176,89820,6,0,L|344:253,1,75,8|0,0:0|0:0,0:0:0:0:
340,264,90320,1,0,0:0:0:0:
268,320,90820,1,8,0:0:0:0:
180,296,91320,1,0,0:0:0:0:
90,296,91820,2,0,P|133:216|186:205,1,150,8|0,0:0|0:0,0:0:0:0:
275,204,92820,2,0,P|368:199|413:243,1,150,8|0,0:0|0:0,0:0:0:0:
328,284,93820,6,0,P|304:316|252:336,1,75,8|0,0:0|0:0,0:0:0:0:
228,332,94320,1,0,0:0:0:0:
138,332,94820,1,8,0:0:0:0:
75,268,95320,2,0,B|145:253|95:175|189:173,1,150,0|8,0:0|0:0,0:0:0:0:
242,110,96320,1,0,0:0:0:0:
332,112,96820,2,0,P|325:71|275:33,2,75,8|0|4,0:0|0:0|0:0,0:0:0:0:
288,192,97820,5,8,0:0:0:0:
256,223,98070,1,0,0:0:0:0:
216,240,98320,2,0,P|113:220|58:183,1,150,0|8,0:0|0:0,0:0:0:0:
48,112,99320,2,0,P|116:33|176:4,1,150,0|8,0:0|0:0,0:0:0:0:
200,24,100070,2,0,B|224:61|211:115|145:42|144:128|96:124|128:208|44:168,1,225,0|8,0:0|0:0,0:0:0:0:
96,264,101320,1,0,0:0:0:0:
182,232,101820,54,0,P|188:272|158:328,2,75,8|0|0,0:0|0:0|0:0,0:0:0:0:
108,176,102820,1,8,0:0:0:0:
96,264,103320,1,4,0:2:0:0:
159,327,103820,1,8,0:0:0:0:
249,327,104320,1,4,0:2:0:0:
313,264,104820,5,8,0:3:0:0:
344,232,105070,1,4,0:3:0:0:
344,187,105320,37,4,0:0:0:0:
59,177,121320,5,4,0:0:0:0:
88,93,121820,1,8,0:0:0:0:
144,163,122320,2,0,P|169:133|176:80,3,75,0|0|8|0,0:0|0:0|0:0|0:0,0:0:0:0:
217,76,123320,1,0,0:0:0:0:
296,33,123820,1,8,0:0:0:0:
296,124,124320,1,0,0:0:0:0:
377,84,124820,2,0,P|388:128|368:176,1,75,8|0,0:0|0:0,0:0:0:0:
408,192,125320,5,0,0:0:0:0:
328,232,125820,1,8,0:0:0:0:
389,302,126320,2,0,P|351:323|286:313,3,75,0|0|8|0,0:0|0:0|0:0|0:0,0:0:0:0:
280,348,127320,1,0,0:0:0:0:
190,349,127820,1,8,0:0:0:0:
224,264,128320,1,0,0:0:0:0:
259,179,128820,2,0,P|291:198|308:232,2,75,8|0|0,0:0|0:0|0:0,0:0:0:0:
224,264,129820,5,8,0:0:0:0:
171,186,130320,2,0,P|144:216|129:260,3,75,0|0|8|0,0:0|0:0|0:0|0:0,0:0:0:0:
88,256,131320,1,0,0:0:0:0:
44,176,131820,1,8,0:0:0:0:
122,149,132320,1,0,0:0:0:0:
127,55,132820,2,0,P|163:65|192:87,1,75,8|0,0:0|0:0,0:0:0:0:
216,128,133320,5,0,0:0:0:0:
191,218,133820,1,8,0:0:0:0:
276,191,134320,2,0,L|368:222,3,75,0|0|8|0,0:0|0:0|0:0|0:0,0:0:0:0:
391,221,135320,1,4,0:2:0:0:
404,132,135820,5,8,0:0:0:0:
340,68,136320,1,8,0:3:0:0:
276,132,136820,1,4,0:3:0:0:
276,222,137320,5,4,0:0:0:0:
256,192,141320,12,0,144820,0:0:0:0:
160,100,145820,6,0,L|260:60,1,75,8|0,0:0|0:0,0:0:0:0:
265,105,146320,1,0,0:0:0:0:
343,146,146820,1,8,0:0:0:0:
328,228,147320,1,0,0:0:0:0:
410,239,147820,2,0,P|332:312|276:292,1,150,8|0,0:0|0:0,0:0:0:0:
244,232,148820,2,0,P|296:152|348:147,1,150,8|0,0:0|0:0,0:0:0:0:
368,60,149820,6,0,L|464:104,1,75,8|0,0:0|0:0,0:0:0:0:
452,132,150320,1,0,0:0:0:0:
464,220,150820,1,8,0:0:0:0:
432,304,151320,2,0,P|337:365|293:355,1,150,0|8,0:0|0:0,0:0:0:0:
244,297,152320,1,0,0:0:0:0:
192,224,152820,2,0,P|161:261|153:309,2,75,8|0|4,0:0|0:0|0:0,0:0:0:0:
180,136,153820,5,8,0:0:0:0:
211,104,154070,1,0,0:0:0:0:
243,136,154320,2,0,B|283:180|136:200|204:288,1,150,0|8,0:0|0:0,0:0:0:0:
188,260,155320,2,0,P|279:221|359:245,1,150,0|8,0:0|0:0,0:0:0:0:
408,188,156320,2,0,P|282:146|114:229,1,300,0|0,0:0|0:0,0:0:0:0:
44,188,157820,6,0,P|43:231|78:281,2,75,8|0|0,0:0|0:0|0:0,0:0:0:0:
116,128,158820,1,8,0:0:0:0:
160,202,159320,1,0,0:0:0:0:
212,124,159820,1,8,0:0:0:0:
300,100,160320,1,0,0:0:0:0:
372,156,160820,1,8,0:3:0:0:
368,200,161070,1,4,0:3:0:0:
332,228,161320,1,4,0:0:0:0:
244,228,161820,6,0,P|264:173|300:148,1,75,8|0,0:0|0:0,0:0:0:0:
293,121,162320,1,0,0:0:0:0:
228,60,162820,1,8,0:0:0:0:
204,144,163320,1,0,0:0:0:0:
114,144,163820,2,0,P|126:102|166:57,2,75,8|0|0,0:0|0:2|0:0,0:0:0:0:
144,228,164820,2,0,P|216:248|282:204,1,150,8|0,0:0|0:0,0:0:0:0:
292,300,165820,6,0,L|234:349,1,75,8|0,0:0|0:0,0:0:0:0:
202,316,166320,1,0,0:0:0:0:
160,226,166820,1,8,0:0:0:0:
124,144,167320,2,0,B|216:128|248:216,1,150,0|8,0:0|0:0,0:0:0:0:
328,248,168320,1,0,0:0:0:0:
420,228,168820,2,0,P|459:229|503:254,2,75,8|0|4,0:0|0:0|0:2,0:0:0:0:
396,140,169820,5,8,0:0:0:0:
364,108,170070,1,0,0:0:0:0:
332,76,170320,2,0,B|228:108|360:188|368:212,1,150,0|8,0:0|0:0,0:0:0:0:
408,252,171320,2,0,P|339:278|296:352,1,150,0|8,0:0|0:0,0:0:0:0:
228,284,172320,2,0,P|268:224|352:180,1,150,0|8,0:0|0:0,0:0:0:0:
416,160,173320,1,4,0:2:0:0:
468,88,173820,6,0,P|439:72|386:79,2,75,8|0|0,0:0|0:0|0:0,0:0:0:0:
500,172,174820,1,8,0:0:0:0:
416,160,175320,1,4,0:2:0:0:
348,220,175820,1,8,0:0:0:0:
284,283,176320,5,4,0:2:0:0:
239,283,176570,1,2,0:2:0:0:
198,262,176820,1,8,0:3:0:0:
175,220,177070,1,4,0:3:0:0:
175,175,177320,5,4,0:0:0:0:
84,168,177820,2,0,P|134:97|222:101,1,150,8|0,0:0|0:0,0:0:0:0:
174,177,178820,1,8,0:0:0:0:
212,96,179320,1,0,0:0:0:0:
284,36,179820,2,0,L|360:36,1,75,8|0,0:0|0:0,0:0:0:0:
390,67,180320,1,0,0:0:0:0:
454,131,180820,1,8,0:0:0:0:
468,220,181320,1,0,0:0:0:0:
412,308,181820,6,0,L|304:308,1,75,8|0,0:0|0:0,0:0:0:0:
292,308,182320,1,0,0:0:0:0:
202,308,182820,2,0,P|98:265|136:100,1,300,8|8,0:0|0:0,0:0:0:0:
192,44,184320,1,0,0:0:0:0:
283,49,184820,1,8,0:0:0:0:
304,136,185320,5,0,0:0:0:0:
400,140,185820,2,0,P|426:185|420:224,2,75,8|0|0,0:0|0:0|0:0,0:0:0:0:
332,208,186820,1,8,0:0:0:0:
276,280,187320,1,0,0:0:0:0:
200,332,187820,2,0,P|161:322|112:276,2,75,8|0|0,0:0|0:0|0:0,0:0:0:0:
196,244,188820,1,8,0:0:0:0:
232,160,189320,5,0,0:0:0:0:
304,100,189820,2,0,P|440:152|374:270,1,300,8|8,0:0|0:0,0:0:0:0:
256,192,191320,12,0,192570,0:0:0:0:
168,192,193320,5,4,0:0:0:0:
256,192,193820,1,8,0:0:0:0:
345,197,194320,2,0,P|336:233|312:262,3,75,0|0|8|0,0:0|0:0|0:0|0:0,0:0:0:0:
291,304,195320,1,0,0:0:0:0:
216,351,195820,1,8,0:0:0:0:
216,260,196320,1,0,0:0:0:0:
134,300,196820,2,0,P|124:256|144:207,1,75,8|0,0:0|0:0,0:0:0:0:
104,192,197320,5,0,0:0:0:0:
184,152,197820,1,8,0:0:0:0:
123,82,198320,2,0,P|161:61|226:71,3,75,0|0|8|0,0:0|0:0|0:0|0:0,0:0:0:0:
232,36,199320,1,0,0:0:0:0:
321,35,199820,1,8,0:0:0:0:
287,120,200320,1,0,0:0:0:0:
252,204,200820,2,0,P|220:185|204:151,2,75,8|0|0,0:0|0:0|0:0,0:0:0:0:
287,120,201820,5,8,0:0:0:0:
340,198,202320,2,0,P|368:167|383:124,3,75,0|0|8|0,0:0|0:0|0:0|0:0,0:0:0:0:
423,128,203320,1,0,0:0:0:0:
468,207,203820,1,8,0:0:0:0:
389,234,204320,1,0,0:0:0:0:
384,328,204820,2,0,P|348:318|319:296,1,75,8|0,0:0|0:0,0:0:0:0:
296,256,205320,5,0,0:0:0:0:
320,165,205820,1,8,0:0:0:0:
236,192,206320,6,0,L|144:162,3,75,0|0|8|0,0:0|0:0|0:0|0:0,0:0:0:0:
121,163,207320,1,4,0:2:0:0:
256,192,207570,12,4,209320,0:0:0:0:
