osu file format v9

[General]
AudioFilename: audio.mp3
AudioLeadIn: 0
PreviewTime: 50396
Countdown: 0
SampleSet: Soft
StackLeniency: 0.3
Mode: 0
LetterboxInBreaks: 1

[Editor]
DistanceSpacing: 1
BeatDivisor: 2
GridSize: 4

[Metadata]
Title:Broken Angel (DJ Aligator Remix)
Artist:Arash feat. Helena
Creator:-Bakari-
Version:Easy
Source:
Tags:Black_Cherry_Ita bci

[Difficulty]
HPDrainRate:2
CircleSize:3
OverallDifficulty:2
ApproachRate:3
SliderMultiplier:1.1
SliderTickRate:1

[Events]
//Background and Video events
0,0,"bg.jpg"
//Break Periods
//Storyboard Layer 0 (Background)
//Storyboard Layer 1 (Fail)
//Storyboard Layer 2 (Pass)
//Storyboard Layer 3 (Foreground)
//Storyboard Sound Samples
//Background Colour Transformations
3,100,163,162,255

[TimingPoints]
3285,466.653704063776,4,2,0,45,1,0
35017,-100,4,1,0,36,0,0
49951,-100,4,1,0,35,0,1
64883,-100,4,2,0,49,0,0
98482,-100,4,1,0,48,0,1
113415,-100,4,2,0,47,0,0

[Colours]
Combo1 : 162,184,196
Combo2 : 38,77,15
Combo3 : 210,210,210
Combo4 : 71,97,85

[HitObjects]
160,352,3751,2,0,B|192:304|256:288|320:304|352:352,1,220,8|8
440,288,5151,2,0,B|392:256|376:192|392:128|440:96,2,220,4|0|4
328,288,7484,5,8
256,200,7951,1,0
188,288,8418,1,8
144,188,8884,2,0,B|88:208|68:280|76:348|128:376,2,220,4|0|4
256,200,11218,6,0,B|256:80,2,110,8|0|8
256,312,12618,1,4
164,252,13084,1,8
256,200,13551,2,0,B|336:200|368:252|384:324|352:356,1,220,0|4
460,320,14951,6,0,B|488:200,1,110,8|0
384,168,15884,1,8
356,61,16351,1,4
256,96,16817,2,0,B|200:124|136:96,2,110,8|0|8
208,196,18217,1,4
254,295,18684,6,0,B|308:331|370:301,2,110,8|0|8
316,192,20084,1,4
112,272,21017,1,0
188,192,21484,1,8
112,112,21951,1,4
272,68,22651,6,0,B|328:192|328:192|276:332,1,275,0|4
116,292,24517,2,0,B|20:272|24:144,1,165,0|8
124,128,25684,2,0,B|188:160,1,55,4|0
220,252,26384,2,0,B|272:192,1,55,0|0
336,136,27084,1,8
392,140,27317,2,0,B|460:156|484:228,1,110,0|0
384,272,28250,6,0,B|196:248,1,165,0|8
156,161,29417,1,4
96,68,29884,1,8
204,40,30350,2,0,B|304:132|428:64,1,220,0|4
256,192,31750,12,0,34084
188,136,35017,5,4
100,204,35484,2,0,B|168:220|192:292,2,110,8|0|8
104,92,36884,1,4
200,36,37350,2,0,B|312:36,1,110,8|0
376,124,38284,1,8
436,216,38750,6,0,B|388:272|408:328,1,110,4|8
296,320,39683,1,0
200,268,40150,1,8
300,220,40617,1,4
204,168,41083,2,0,B|140:152|120:96,1,110,8|0
224,56,42017,1,8
332,80,42483,6,0,B|468:116,1,110,4|8
388,208,43417,2,0,B|340:332,2,110,0|8|4
284,172,44817,1,8
180,204,45283,1,0
128,300,45750,1,8
228,340,46217,2,0,B|296:336|316:268,1,110,4|8
408,332,47150,6,0,B|456:260|360:204|412:120,2,220
308,284,49483,1,0
236,368,49950,5,0
204,264,50417,2,0,B|76:216|96:72,1,220,8|8
200,60,51816,2,0,B|247:161,1,110,4|8
325,85,52750,2,0,B|376:188,2,110,0|8|4
432,62,54150,5,8
479,161,54616,1,0
373,183,55083,1,8
336,288,55550,2,0,B|320:352|256:368|192:352|176:288,2,220,4|0|4
256,212,57883,5,8
176,136,58350,2,0,B|132:84|52:108,1,110,0|8
96,212,59283,2,0,B|124:336,2,110,4|8|0
204,220,60683,1,8
256,316,61150,1,4
308,220,61616,5,8
416,212,62083,2,0,B|391:319,2,110,0|8|4
432,104,63483,2,0,B|372:92|333:138,1,110,8|0
256,60,64416,1,8
256,172,64883,1,4
176,316,65816,6,0,B|92:268|124:172,2,165,0|0|8
220,216,67683,1,0
300,140,68149,1,8
396,88,68616,1,4
404,308,69549,6,0,B|472:188,2,110,0|8|4
296,324,70949,1,8
216,248,71416,1,0
280,160,71883,1,8
388,136,72349,6,0,B|372:72|304:48,1,110,4|8
212,84,73283,1,0
120,148,73749,2,0,B|128:208|76:252,2,110,8|4|8
221,191,75149,2,0,B|252:234|252:234|322:234,1,110,0|8
304,124,76082,5,4
384,48,76549,2,0,B|440:120|412:156|376:204|404:268,2,220,8|8|8
304,124,78882,1,0
236,208,79349,1,8
144,156,79816,5,4
152,48,80282,2,0,B|284:52,2,110,8|0|8
52,92,81682,1,4
144,156,82149,1,8
160,264,82616,1,0
270,257,83082,1,8
268,148,83549,6,0,B|294:81|370:89,1,110,4|8
360,192,84482,2,0,B|392:312,1,110,0|8
300,364,85416,2,0,B|268:248,1,110,4|8
172,304,86349,5,0
178,194,86816,1,8
255,116,87282,1,4
332,196,87749,1,8
356,88,88215,6,0,B|400:40|400:40|468:40,2,110,0|8|4
256,40,89615,1,8
152,88,90082,2,0,B|108:40|108:40|40:40,1,110,0|8
72,148,91015,1,4
172,192,91482,1,8
176,304,91949,6,0,B|192:368|256:384|320:368|336:304,2,220,0|4|0
256,228,94282,1,8
304,128,94749,2,0,B|356:168|356:168|356:228,1,110,4|8
464,192,95682,21,0
444,84,96149,2,0,B|376:92|356:24,1,110,8|4
256,76,97082,1,8
153,31,97549,2,0,B|136:92|68:84,1,110
60,192,98482,5,0
172,140,98949,2,0,B|176:264,2,110,8|0|8
280,128,100348,1,4
328,28,100815,1,8
436,52,101282,2,0,B|352:136|404:268,1,220,0|4
309,319,102682,22,0,B|262:218,1,110,8|0
184,298,103615,2,0,B|133:195,2,110,8|4|8
77,321,105015,1,0
30,222,105482,1,8
136,200,105948,1,4
173,95,106415,6,0,B|189:31|253:15|317:31|333:95,2,220,8|8|8
253,171,108748,1,0
333,247,109215,2,0,B|377:299|457:275,1,110,8|4
413,171,110148,6,0,B|385:47,2,110,8|0|8
312,164,111548,1,4
256,72,112015,1,8
201,163,112481,1,0
93,171,112948,2,0,B|118:64,2,110,8|4|8
171,248,114348,6,0,B|129:299|74:281,2,110,0|8|4
256,176,115748,1,8
356,132,116215,2,0,B|476:88,2,110,0|8|4
380,240,117615,5,8
476,296,118081,2,0,B|476:180,2,110,0|8|4
380,240,119481,1,8
308,324,119948,2,0,B|256:280|192:332,2,110,0|8|4
380,240,121348,1,8
452,156,121815,6,0,B|320:140|276:32,1,220,0|4
196,112,123215,1,8
120,192,123681,2,0,B|108:316,2,110,0|8|4
228,216,125081,1,8
308,140,125548,2,0,B|348:188|332:252,2,110,0|8|4
256,192,126948,12,0,128348
