osu file format v12

[General]
AudioFilename: Sound Horizon - Stardust - Elysion.mp3
AudioLeadIn: 0
PreviewTime: 191476
Countdown: 0
SampleSet: Normal
StackLeniency: 0.7
Mode: 0
LetterboxInBreaks: 1
WidescreenStoryboard: 0

[Editor]
DistanceSpacing: 0.3
BeatDivisor: 8
GridSize: 8

[Metadata]
Title:StarDust
TitleUnicode:StarDust
Artist:Aramary
ArtistUnicode:Aramary
Creator:Melt
Version:StarDust
Source:
Tags:
BeatmapID:366133
BeatmapSetID:147960

[Difficulty]
HPDrainRate:6
CircleSize:4
OverallDifficulty:7
ApproachRate:8
SliderMultiplier:1.4
SliderTickRate:1

[Events]
//Background and Video events
0,0,"bg.jpg",0,0
//Break Periods
2,162160,177178
2,189498,195081
//Storyboard Layer 0 (Background)
//Storyboard Layer 1 (Fail)
//Storyboard Layer 2 (Pass)
//Storyboard Layer 3 (Foreground)
//Storyboard Sound Samples
//Background Colour Transformations
3,100,163,162,255

[TimingPoints]
1799,483.870967741935,4,2,0,20,1,0
5669,-200,4,2,0,20,0,0
21153,-80,4,1,0,20,0,0
85024,-100,4,1,0,20,0,1
100387,-100,4,1,0,20,0,0
100508,-100,4,1,0,20,0,1
115992,-100,4,1,0,20,0,0
146960,-100,4,1,0,20,0,1
147202,-100,4,1,0,20,0,0
195831,483.870967741935,4,1,0,20,1,1
226798,-100,4,1,0,20,0,0

[Colours]
Combo1 : 181,106,106
Combo2 : 198,0,0
Combo3 : 255,255,164
Combo4 : 125,190,255
Combo5 : 230,230,230

[HitObjects]
296,176,5670,2,0,L|248:160,2,35
396,264,6395,2,0,P|432:272|477:258,1,70
296,294,7121,2,0,L|250:304,1,35
153,332,7605,1,0,0:0:0:0:
121,290,7968,1,0,0:0:0:0:
90,247,8331,1,0,0:0:0:0:
114,107,8815,2,0,L|123:68,2,35
239,162,9540,1,0,0:0:0:0:
114,107,9782,1,0,0:0:0:0:
229,31,10024,1,0,0:0:0:0:
239,162,10266,2,0,B|243:172|243:172|235:221|235:221|241:233,1,70
248,359,10992,2,0,L|231:320,1,35
145,246,11476,2,0,P|111:253|75:243,1,70
344,239,12202,2,0,P|378:232|414:242,1,70
512,296,12928,1,0,0:0:0:0:
344,239,13411,2,0,L|341:196,1,35
333,112,13895,1,0,0:0:0:0:
239,32,14137,2,0,B|226:30|226:30|181:36|181:36|164:33,1,70
37,26,14863,1,0,0:0:0:0:
96,130,15105,1,0,0:0:0:0:
170,34,15347,1,0,0:0:0:0:
167,49,15710,1,0,0:0:0:0:
164,64,16073,1,0,0:0:0:0:
0,253,16557,1,0,0:0:0:0:
96,335,16799,1,0,0:0:0:0:
172,236,17040,1,0,0:0:0:0:
258,330,17282,2,0,B|295:335|295:335|339:329,1,70
418,234,18008,1,0,0:0:0:0:
292,255,18250,2,0,B|289:229|289:229|293:196,2,52.5
256,192,19218,12,0,20669,0:0:0:0:
39,131,21153,6,0,P|78:142|143:122,1,87.5
248,92,21637,2,0,P|294:86|340:104,1,87.5
374,38,22000,2,0,L|361:187,1,131.25
401,230,22484,1,0,0:0:0:0:
327,233,22605,2,0,P|316:275|334:322,1,87.5
477,315,23089,2,0,P|488:273|470:226,1,87.5
445,92,23573,1,0,0:0:0:0:
374,117,23694,1,0,0:0:0:0:
315,76,23815,1,0,0:0:0:0:
245,98,23936,2,0,P|205:111|132:69,1,131.25
29,17,24541,2,0,L|44:127,1,87.5
0,216,25024,2,0,L|7:265,2,43.75
82,268,25508,6,0,L|90:330,1,43.75
98,384,25750,1,0,0:0:0:0:
158,336,25871,2,0,P|201:327|253:347,1,87.5
310,368,26234,2,0,L|371:369,1,43.75
413,325,26476,2,0,L|508:328,1,87.5
503,212,26960,2,0,L|411:209,1,87.5
322,110,27444,2,0,L|335:68,1,43.75
361,0,27686,1,0,0:0:0:0:
393,68,27807,2,0,L|351:184,1,87.5
369,227,28169,1,0,0:0:0:0:
340,294,28290,1,0,0:0:0:0:
314,225,28412,2,0,L|401:227,1,87.5
489,338,28895,2,0,L|401:335,1,87.5
279,337,29379,1,0,0:0:0:0:
208,357,29500,1,0,0:0:0:0:
179,288,29621,1,0,0:0:0:0:
106,294,29742,2,0,P|59:283|5:308,1,87.5
25,338,30105,2,0,L|23:291,1,43.75
64,238,30347,2,0,L|61:149,1,87.5
0,19,30831,2,0,L|3:108,1,87.5
61,150,31194,1,0,0:0:0:0:
115,101,31315,2,0,L|112:12,1,87.5
190,7,31678,2,0,P|237:58|322:27,1,131.25
425,0,32282,1,0,0:0:0:0:
495,32,32403,1,0,0:0:0:0:
370,53,32524,1,0,0:0:0:0:
403,122,32645,1,0,0:0:0:0:
294,53,32766,2,0,L|268:149,1,87.5
354,236,33250,2,0,B|398:228|398:228|477:245,1,87.5
511,256,33613,1,0,0:0:0:0:
350,311,33855,2,0,L|395:302,2,43.75
296,358,34218,2,0,B|254:366|254:366|201:355,1,87.5
84,371,34702,2,0,B|77:328|77:328|87:267,1,87.5
15,166,35186,2,0,B|22:209|22:209|12:270,1,87.5
15,252,35549,1,0,0:0:0:0:
97,126,35790,1,0,0:0:0:0:
97,126,35911,2,0,L|145:133,1,43.75
204,172,36154,2,0,P|248:181|312:161,1,87.5
399,121,36637,1,0,0:0:0:0:
431,134,36879,1,0,0:0:0:0:
463,146,37121,1,0,0:0:0:0:
361,254,37363,1,0,0:0:0:0:
381,282,37484,1,0,0:0:0:0:
209,272,37726,1,0,0:0:0:0:
217,238,37847,1,0,0:0:0:0:
290,308,38089,2,0,L|294:361,1,43.75
125,307,38331,2,0,L|116:377,1,43.75
225,202,38573,2,0,P|176:212|119:188,1,87.5
127,130,38936,2,0,P|81:120|28:141,1,87.5
13,201,39298,1,0,0:0:0:0:
88,197,39419,2,0,P|51:95|156:62,1,218.75
273,42,40266,2,0,L|238:42,2,21.875
323,97,40508,2,0,L|369:95,2,43.75
257,131,40871,2,0,P|248:176|269:220,1,87.5
329,251,41234,1,0,0:0:0:0:
399,224,41355,2,0,B|438:240|438:240|502:239,1,87.5
512,310,41718,2,0,B|436:312|436:312|376:335,1,131.25
320,368,42202,1,0,0:0:0:0:
251,332,42323,1,0,0:0:0:0:
251,332,42444,2,0,B|243:287|243:287|253:229,1,87.5
286,186,42807,2,0,L|161:203,1,87.5
134,230,43169,1,0,0:0:0:0:
126,158,43290,2,0,B|159:131|159:131|266:116,1,131.25
440,79,43895,2,0,L|439:135,1,43.75
366,44,44137,2,0,L|366:99,1,43.75
288,57,44379,2,0,P|243:66|188:45,1,87.5
123,19,44742,1,0,0:0:0:0:
56,83,44863,2,0,L|49:147,1,43.75
0,201,45105,2,0,L|11:262,1,43.75
28,327,45347,1,0,0:0:0:0:
197,306,45589,1,0,0:0:0:0:
197,306,45710,1,0,0:0:0:0:
308,236,45831,2,0,L|409:248,1,70
450,127,46315,2,0,L|354:106,1,70
331,53,46678,2,0,L|224:26,1,105
168,76,47161,2,0,L|-9:46,1,175
98,180,47887,2,0,L|37:189,2,35
143,244,48250,1,0,0:0:0:0:
143,244,48371,1,0,0:0:0:0:
143,244,48492,1,0,0:0:0:0:
201,313,48613,2,0,L|281:314,1,70
346,311,48976,1,0,0:0:0:0:
280,211,49097,2,0,L|370:213,1,70
172,100,49460,2,0,L|316:103,1,140
414,120,50065,1,0,0:0:0:0:
479,207,50186,2,0,L|399:200,1,70
496,293,50548,2,0,L|394:281,1,70
364,351,50911,1,0,0:0:0:0:
275,359,51032,2,0,L|274:240,1,105
275,359,51637,1,0,0:0:0:0:
275,359,51879,1,0,0:0:0:0:
186,370,52121,2,0,L|116:322,1,70
186,191,52605,2,0,L|168:106,1,70
288,124,53089,1,0,0:0:0:0:
288,124,53331,1,0,0:0:0:0:
288,124,53452,1,0,0:0:0:0:
288,124,53573,2,0,L|377:108,1,70
473,334,54057,2,0,L|394:330,1,70
273,326,54420,2,0,L|196:326,1,70
122,323,54782,1,0,0:0:0:0:
32,331,54903,2,0,L|7:143,1,175
59,150,55629,1,0,0:0:0:0:
59,150,55750,1,0,0:0:0:0:
59,150,55871,1,0,0:0:0:0:
166,44,55992,2,0,L|189:140,1,70
266,50,56355,2,0,L|349:57,1,70
370,116,56718,1,0,0:0:0:0:
348,195,56839,2,0,L|417:202,1,70
485,284,57202,2,0,L|363:280,1,105
321,333,57686,1,0,0:0:0:0:
321,333,57807,1,0,0:0:0:0:
214,345,57928,2,0,L|120:342,1,70
29,271,58291,2,0,L|125:271,1,70
171,228,58653,1,0,0:0:0:0:
229,156,58774,2,0,L|346:154,1,105
417,81,59379,2,0,L|451:63,1,35
358,46,59621,2,0,L|314:73,1,35
242,58,59863,2,0,L|156:60,1,70
103,57,60226,1,0,0:0:0:0:
102,58,60347,1,0,0:0:0:0:
136,201,60589,1,0,0:0:0:0:
136,201,60710,1,0,0:0:0:0:
197,306,60952,1,0,0:0:0:0:
197,306,61073,1,0,0:0:0:0:
197,306,61194,1,0,0:0:0:0:
308,236,61315,2,0,L|409:248,1,70
450,127,61799,2,0,L|354:106,1,70
331,53,62161,1,0,0:0:0:0:
287,113,62403,2,0,L|223:120,1,35
168,76,62645,2,0,L|-68:136,1,218.75
56,174,63371,1,0,0:0:0:0:
56,174,63492,1,0,0:0:0:0:
56,174,63613,1,0,0:0:0:0:
61,245,63734,2,0,L|143:241,1,70
201,313,64097,2,0,L|281:314,1,70
280,211,64581,2,0,L|370:213,1,70
172,100,64944,2,0,L|316:103,1,140
414,120,65549,1,0,0:0:0:0:
479,207,65670,2,0,L|399:200,1,70
496,293,66032,2,0,L|394:281,1,70
364,351,66395,1,0,0:0:0:0:
275,359,66516,2,0,L|274:240,1,105
275,359,67121,1,0,0:0:0:0:
275,359,67242,1,0,0:0:0:0:
275,359,67363,1,0,0:0:0:0:
275,359,67484,1,0,0:0:0:0:
186,370,67605,2,0,L|116:322,1,70
186,191,68089,2,0,L|168:106,1,70
187,199,68573,2,0,L|147:107,1,70
288,124,69057,2,0,L|377:108,1,70
114,99,69540,1,0,0:0:0:0:
208,49,69782,1,0,0:0:0:0:
208,49,69903,1,0,0:0:0:0:
208,49,70024,2,0,L|307:49,1,70
316,134,70387,2,0,L|401:138,1,70
466,209,70750,2,0,L|384:215,1,70
325,280,71234,1,0,0:0:0:0:
217,338,71476,2,0,L|181:244,1,70
113,240,71839,1,0,0:0:0:0:
38,183,71960,2,0,L|61:89,1,70
106,56,72323,2,0,L|206:57,1,70
196,135,72686,2,0,L|206:177,1,35
314,229,72928,2,0,L|421:231,1,105
467,160,73411,1,0,0:0:0:0:
467,160,73532,1,0,0:0:0:0:
467,160,73653,1,0,0:0:0:0:
467,160,73774,1,0,0:0:0:0:
467,160,73895,2,0,L|371:142,1,70
426,67,74258,2,0,L|337:71,1,70
276,77,74621,2,0,L|217:84,1,35
190,49,74863,2,0,L|130:144,1,105
72,207,75347,1,0,0:0:0:0:
72,207,75468,1,0,0:0:0:0:
72,207,75589,1,0,0:0:0:0:
72,207,75710,1,0,0:0:0:0:
61,298,75831,2,0,L|139:314,1,70
235,250,76194,2,0,L|316:262,1,70
438,340,76557,2,0,L|438:153,1,175
385,80,77282,1,0,0:0:0:0:
385,80,77403,1,0,0:0:0:0:
385,80,77524,1,0,0:0:0:0:
385,80,77645,1,0,0:0:0:0:
385,80,77766,2,0,L|305:83,1,70
258,83,78129,1,0,0:0:0:0:
104,90,78371,1,0,0:0:0:0:
104,90,78492,2,0,L|113:186,1,70
124,267,78976,1,0,0:0:0:0:
238,322,79218,2,0,L|241:364,1,35
310,274,79460,2,0,L|303:210,1,35
368,198,79702,2,0,L|357:95,1,70
354,77,80065,1,0,0:0:0:0:
230,46,80307,1,0,0:0:0:0:
230,46,80428,2,0,L|132:62,2,70
42,144,81153,1,0,0:0:0:0:
42,144,81274,1,0,0:0:0:0:
42,144,81395,1,0,0:0:0:0:
42,144,81516,1,0,0:0:0:0:
42,144,81637,2,0,L|125:159,1,70
30,231,82000,2,0,L|116:249,1,70
98,245,82363,1,0,0:0:0:0:
81,328,82605,2,0,L|208:333,1,105
297,293,83089,2,0,L|428:300,1,105
366,206,83573,2,0,L|462:207,1,70
357,69,84057,1,0,0:0:0:0:
357,69,84298,1,0,0:0:0:0:
357,69,84540,1,0,0:0:0:0:
357,69,84782,1,0,0:0:0:0:
193,157,85024,2,0,L|99:147,1,70
28,144,85508,1,0,0:0:0:0:
97,249,85750,1,0,0:0:0:0:
97,249,85871,1,0,0:0:0:0:
325,295,86113,1,0,0:0:0:0:
325,295,86234,2,0,L|417:300,2,70
397,201,86960,1,0,0:0:0:0:
397,201,87202,1,0,0:0:0:0:
397,201,87323,1,0,0:0:0:0:
397,201,87444,1,0,0:0:0:0:
397,201,87686,1,0,0:0:0:0:
397,201,87807,1,0,0:0:0:0:
455,104,88169,2,0,L|483:69,1,35
455,104,88411,2,0,L|483:69,1,35
455,104,88653,2,0,L|483:69,1,35
372,77,88895,2,0,L|278:78,1,70
273,77,89379,2,0,L|220:128,1,70
222,125,89742,1,0,0:0:0:0:
103,138,89984,1,0,0:0:0:0:
103,138,90105,1,0,0:0:0:0:
103,138,90226,1,0,0:0:0:0:
103,138,90347,2,0,L|115:228,1,70
80,271,90831,2,0,L|57:357,1,70
86,300,91194,2,0,L|165:318,1,70
242,269,91557,2,0,L|386:273,1,140
443,189,92282,1,0,0:0:0:0:
443,189,92524,1,0,0:0:0:0:
434,71,92766,2,0,L|342:66,1,70
307,55,93250,1,0,0:0:0:0:
201,91,93492,1,0,0:0:0:0:
201,91,93613,1,0,0:0:0:0:
67,105,93855,2,0,L|68:62,2,35
18,184,94218,2,0,L|14:268,1,70
148,231,94702,1,0,0:0:0:0:
148,231,94944,1,0,0:0:0:0:
148,231,95065,1,0,0:0:0:0:
148,231,95186,1,0,0:0:0:0:
148,231,95428,1,0,0:0:0:0:
148,231,95548,1,0,0:0:0:0:
345,242,95790,1,0,0:0:0:0:
345,242,95911,1,0,0:0:0:0:
345,242,96153,2,0,L|426:240,1,70
496,329,96637,2,0,L|343:327,1,140
257,347,97363,2,0,L|190:348,1,35
56,282,97605,2,0,L|150:280,1,70
56,282,97968,2,0,L|150:280,1,70
56,282,98331,1,0,0:0:0:0:
132,171,98573,1,0,0:0:0:0:
132,171,98815,1,0,0:0:0:0:
132,171,98936,1,0,0:0:0:0:
132,171,99057,2,0,L|234:168,1,70
281,164,99419,1,0,0:0:0:0:
421,134,99661,1,0,0:0:0:0:
421,134,99782,1,0,0:0:0:0:
421,134,100024,1,0,0:0:0:0:
412,242,100266,1,0,0:0:0:0:
193,157,100508,6,0,L|99:147,1,70
28,144,100992,1,0,0:0:0:0:
97,249,101234,1,0,0:0:0:0:
97,249,101355,1,0,0:0:0:0:
325,295,101597,1,0,0:0:0:0:
325,295,101718,2,0,L|417:300,2,70
397,201,102444,1,0,0:0:0:0:
397,201,102686,1,0,0:0:0:0:
397,201,102807,1,0,0:0:0:0:
397,201,102928,1,0,0:0:0:0:
397,201,103169,2,0,L|310:223,1,70
455,104,103653,2,0,L|483:69,1,35
455,104,103895,2,0,L|483:69,1,35
455,104,104137,2,0,L|483:69,1,35
372,77,104379,2,0,L|278:78,1,70
222,125,104863,1,0,0:0:0:0:
273,77,105105,2,0,L|261:221,1,140
103,138,105710,1,0,0:0:0:0:
103,138,105831,2,0,L|115:228,1,70
80,271,106315,2,0,L|57:357,1,70
86,300,106678,2,0,L|165:318,1,70
242,269,107041,2,0,L|386:273,1,140
443,189,107766,1,0,0:0:0:0:
443,189,108008,1,0,0:0:0:0:
434,71,108250,2,0,L|342:66,1,70
307,55,108734,1,0,0:0:0:0:
201,91,108976,1,0,0:0:0:0:
201,91,109097,1,0,0:0:0:0:
67,105,109339,1,0,0:0:0:0:
67,105,109460,1,0,0:0:0:0:
67,105,109581,1,0,0:0:0:0:
18,184,109702,2,0,L|28:277,1,70
148,231,110186,1,0,0:0:0:0:
148,231,110428,1,0,0:0:0:0:
148,231,110549,1,0,0:0:0:0:
148,231,110670,1,0,0:0:0:0:
148,231,110912,1,0,0:0:0:0:
148,231,111032,1,0,0:0:0:0:
345,242,111274,1,0,0:0:0:0:
345,242,111395,1,0,0:0:0:0:
345,242,111516,1,0,0:0:0:0:
345,242,111637,2,0,L|426:240,1,70
496,329,112121,2,0,L|314:308,1,175
257,347,112847,2,0,L|190:348,1,35
56,282,113089,2,0,L|150:280,1,70
56,282,113452,2,0,L|150:280,1,70
56,282,113815,1,0,0:0:0:0:
224,224,114057,1,0,0:0:0:0:
132,171,114298,1,0,0:0:0:0:
132,171,114419,1,0,0:0:0:0:
132,171,114540,1,0,0:0:0:0:
132,171,114782,1,0,0:0:0:0:
281,164,115024,1,0,0:0:0:0:
350,89,115992,5,0,0:0:0:0:
350,89,116355,1,0,0:0:0:0:
350,89,116718,1,0,0:0:0:0:
350,89,116960,1,0,0:0:0:0:
350,89,117323,1,0,0:0:0:0:
350,89,117686,1,0,0:0:0:0:
350,89,117928,1,0,0:0:0:0:
350,89,118290,1,0,0:0:0:0:
350,89,118653,1,0,0:0:0:0:
350,89,118895,1,0,0:0:0:0:
350,89,119258,1,0,0:0:0:0:
350,89,119621,1,0,0:0:0:0:
350,89,119863,1,0,0:0:0:0:
350,89,120226,1,0,0:0:0:0:
350,89,120589,1,0,0:0:0:0:
350,89,120831,1,0,0:0:0:0:
350,89,121194,1,0,0:0:0:0:
350,89,121557,1,0,0:0:0:0:
350,89,121798,1,0,0:0:0:0:
350,89,122161,1,0,0:0:0:0:
350,89,122524,1,0,0:0:0:0:
350,89,122766,1,0,0:0:0:0:
350,89,123129,1,0,0:0:0:0:
350,89,123492,1,0,0:0:0:0:
350,89,123734,1,0,0:0:0:0:
350,89,124097,1,0,0:0:0:0:
350,89,124460,1,0,0:0:0:0:
350,89,124702,1,0,0:0:0:0:
350,89,125065,1,0,0:0:0:0:
350,89,125428,1,0,0:0:0:0:
350,89,125669,1,0,0:0:0:0:
350,89,126032,1,0,0:0:0:0:
350,89,126395,1,0,0:0:0:0:
350,89,126637,1,0,0:0:0:0:
350,89,127000,1,0,0:0:0:0:
350,89,127363,1,0,0:0:0:0:
350,89,127605,1,0,0:0:0:0:
350,89,127968,1,0,0:0:0:0:
350,89,128331,1,0,0:0:0:0:
350,89,128573,1,0,0:0:0:0:
350,89,128936,1,0,0:0:0:0:
350,89,129298,1,0,0:0:0:0:
350,89,129540,1,0,0:0:0:0:
350,89,129903,1,0,0:0:0:0:
350,89,130266,1,0,0:0:0:0:
350,89,130508,1,0,0:0:0:0:
350,89,130871,1,0,0:0:0:0:
350,89,131234,1,0,0:0:0:0:
131,85,131476,2,0,L|54:118,1,70
49,217,131839,2,0,L|128:178,1,70
350,89,132202,1,0,0:0:0:0:
131,85,132444,2,0,L|54:118,1,70
49,217,132807,2,0,L|128:178,1,70
350,89,133170,1,0,0:0:0:0:
131,85,133411,2,0,L|54:118,1,70
49,217,133774,2,0,L|128:178,1,70
350,89,134137,1,0,0:0:0:0:
131,85,134379,2,0,L|54:118,1,70
49,217,134742,2,0,L|128:178,1,70
350,89,135105,1,0,0:0:0:0:
131,85,135347,2,0,L|54:118,1,70
49,217,135710,2,0,L|128:178,1,70
350,89,136073,1,0,0:0:0:0:
131,85,136315,2,0,L|54:118,1,70
49,217,136678,2,0,L|128:178,1,70
350,89,137041,1,0,0:0:0:0:
131,85,137282,2,0,L|54:118,1,70
49,217,137645,2,0,L|128:178,1,70
350,89,138008,1,0,0:0:0:0:
131,85,138250,2,0,L|54:118,1,70
49,217,138613,2,0,L|128:178,1,70
350,89,138976,1,0,0:0:0:0:
131,85,139218,2,0,L|54:118,1,70
49,217,139581,2,0,L|128:178,1,70
350,89,139944,1,0,0:0:0:0:
131,85,140186,2,0,L|54:118,1,70
49,217,140549,2,0,L|128:178,1,70
350,89,140912,1,0,0:0:0:0:
131,85,141153,2,0,L|54:118,1,70
49,217,141516,2,0,L|128:178,1,70
350,89,141879,1,0,0:0:0:0:
131,85,142121,2,0,L|54:118,1,70
49,217,142484,2,0,L|128:178,1,70
350,89,142847,1,0,0:0:0:0:
131,85,143089,2,0,L|54:118,1,70
49,217,143452,2,0,L|128:178,1,70
350,89,143815,1,0,0:0:0:0:
131,85,144057,2,0,L|54:118,1,70
49,217,144420,2,0,L|128:178,1,70
350,89,144783,1,0,0:0:0:0:
131,85,145024,2,0,L|54:118,1,70
49,217,145387,2,0,L|128:178,1,70
350,89,145750,1,0,0:0:0:0:
131,85,145992,2,0,L|54:118,1,70
49,217,146355,2,0,L|128:178,1,70
350,89,146718,1,0,0:0:0:0:
131,85,146960,2,0,L|54:118,1,70
49,217,147323,2,0,L|128:178,1,70
206,154,147686,2,0,L|212:211,1,35
131,85,147928,2,0,L|54:118,1,70
49,217,148291,2,0,L|128:178,1,70
206,154,148654,2,0,L|212:211,1,35
131,85,148895,2,0,L|54:118,1,70
49,217,149258,2,0,L|128:178,1,70
206,154,149621,2,0,L|212:211,1,35
131,85,149863,2,0,L|54:118,1,70
49,217,150226,2,0,L|128:178,1,70
206,154,150589,2,0,L|212:211,1,35
131,85,150831,2,0,L|54:118,1,70
49,217,151194,2,0,L|128:178,1,70
206,154,151557,2,0,L|212:211,1,35
131,85,151798,2,0,L|54:118,1,70
49,217,152161,2,0,L|128:178,1,70
206,154,152524,2,0,L|212:211,1,35
131,85,152766,2,0,L|54:118,1,70
49,217,153129,2,0,L|128:178,1,70
206,154,153492,2,0,L|212:211,1,35
131,85,153734,2,0,L|54:118,1,70
49,217,154097,2,0,L|128:178,1,70
206,154,154460,1,0,0:0:0:0:
206,154,154581,1,0,0:0:0:0:
131,85,154702,2,0,L|54:118,1,70
49,217,155065,2,0,L|128:178,1,70
206,154,155428,2,0,L|212:211,1,35
131,85,155669,2,0,L|54:118,1,70
49,217,156032,2,0,L|128:178,1,70
206,154,156395,2,0,L|212:211,1,35
131,85,156637,2,0,L|54:118,1,70
49,217,157000,2,0,L|128:178,1,70
206,154,157363,2,0,L|212:211,1,35
131,85,157605,2,0,L|54:118,1,70
49,217,157968,2,0,L|128:178,1,70
206,154,158331,2,0,L|212:211,1,35
131,85,158573,2,0,L|54:118,1,70
49,217,158936,2,0,L|128:178,1,70
206,154,159299,2,0,L|212:211,1,35
131,85,159540,2,0,L|54:118,1,70
49,217,159903,2,0,L|128:178,1,70
206,154,160266,2,0,L|212:211,1,35
131,85,160508,2,0,L|54:118,1,70
49,217,160871,2,0,L|128:178,1,70
206,154,161234,2,0,L|212:211,1,35
131,85,161476,1,0,0:0:0:0:
49,217,161960,1,0,0:0:0:0:
296,176,177928,6,0,L|218:175,2,70
265,253,178653,2,0,L|412:254,1,140
313,320,179379,2,0,L|235:318,1,70
180,331,179863,1,0,0:0:0:0:
96,224,180226,1,0,0:0:0:0:
123,102,180589,1,0,0:0:0:0:
203,40,181073,2,0,L|277:41,2,70
238,127,181798,1,0,0:0:0:0:
238,127,182040,1,0,0:0:0:0:
238,127,182282,1,0,0:0:0:0:
238,127,182524,2,0,L|389:97,1,140
474,131,183250,1,0,0:0:0:0:
474,131,183492,1,0,0:0:0:0:
271,202,183734,2,0,L|431:208,1,140
285,260,184460,2,0,L|134:267,1,140
318,309,185186,1,0,0:0:0:0:
219,329,185669,2,0,L|143:339,1,70
177,260,186153,1,0,0:0:0:0:
161,190,186395,2,0,L|8:192,1,140
31,120,187121,1,0,0:0:0:0:
31,120,187363,1,0,0:0:0:0:
165,54,187605,1,0,0:0:0:0:
165,54,187968,1,0,0:0:0:0:
165,54,188331,1,0,0:0:0:0:
289,102,188815,1,0,0:0:0:0:
289,102,189057,1,0,0:0:0:0:
289,102,189298,1,0,0:0:0:0:
193,157,195831,6,0,L|99:147,1,70
28,144,196315,1,0,0:0:0:0:
97,249,196557,1,0,0:0:0:0:
97,249,196678,1,0,0:0:0:0:
325,295,196920,1,0,0:0:0:0:
325,295,197041,2,0,L|417:300,2,70
397,201,197767,1,0,0:0:0:0:
397,201,198009,1,0,0:0:0:0:
397,201,198130,1,0,0:0:0:0:
397,201,198251,1,0,0:0:0:0:
397,201,198493,1,0,0:0:0:0:
397,201,198613,2,0,L|400:280,1,70
397,201,198614,1,0,0:0:0:0:
455,104,198976,2,0,L|483:69,1,35
455,104,199218,2,0,L|483:69,1,35
455,104,199460,2,0,L|483:69,1,35
372,77,199702,2,0,L|278:78,1,70
273,77,200186,2,0,L|220:128,1,70
222,125,200549,1,0,0:0:0:0:
103,138,200791,1,0,0:0:0:0:
103,138,200912,1,0,0:0:0:0:
103,138,201033,1,0,0:0:0:0:
103,138,201154,2,0,L|115:228,1,70
80,271,201638,2,0,L|57:357,1,70
86,300,202001,2,0,L|165:318,1,70
242,269,202364,2,0,L|386:273,1,140
443,189,203089,1,0,0:0:0:0:
443,189,203331,1,0,0:0:0:0:
434,71,203573,2,0,L|342:66,1,70
307,55,204057,1,0,0:0:0:0:
201,91,204299,1,0,0:0:0:0:
201,91,204420,1,0,0:0:0:0:
67,105,204662,2,0,L|68:62,2,35
18,184,205025,2,0,L|14:268,1,70
148,231,205509,1,0,0:0:0:0:
148,231,205751,1,0,0:0:0:0:
148,231,205872,1,0,0:0:0:0:
148,231,205993,1,0,0:0:0:0:
148,231,206234,2,0,L|206:331,1,105
148,231,206235,1,0,0:0:0:0:
345,242,206718,2,0,L|426:240,2,70
496,329,207444,2,0,L|343:327,1,140
257,347,208170,2,0,L|190:348,1,35
56,282,208412,2,0,L|150:280,1,70
56,282,208775,2,0,L|150:280,1,70
56,282,209138,1,0,0:0:0:0:
132,171,209380,1,0,0:0:0:0:
132,171,209622,1,0,0:0:0:0:
132,171,209743,1,0,0:0:0:0:
132,171,209864,2,0,L|234:168,1,70
281,164,210226,1,0,0:0:0:0:
281,164,210347,2,0,L|441:166,1,140
414,68,211072,5,0,0:0:0:0:
414,68,211193,1,0,0:0:0:0:
414,68,211314,2,0,L|221:68,1,175
152,54,212040,2,0,L|152:107,1,35
43,58,212282,2,0,L|45:151,1,70
55,233,212645,2,0,L|92:339,1,105
171,269,213250,1,0,0:0:0:0:
360,304,213492,1,0,0:0:0:0:
360,304,213613,1,0,0:0:0:0:
360,304,213734,2,0,L|450:319,1,70
459,211,214097,2,0,L|455:120,1,70
459,75,214460,2,0,L|338:71,1,105
256,40,214943,1,0,0:0:0:0:
256,40,215064,1,0,0:0:0:0:
138,61,215185,2,0,L|15:167,1,140
193,160,215911,1,0,0:0:0:0:
193,160,216032,1,0,0:0:0:0:
132,237,216153,2,0,L|217:265,1,70
175,344,216516,2,0,L|266:350,1,70
329,348,216879,1,0,0:0:0:0:
450,353,217121,2,0,L|454:238,1,105
443,142,217605,1,0,0:0:0:0:
443,142,217726,1,0,0:0:0:0:
446,47,217968,2,0,L|350:55,1,70
228,78,218330,1,0,0:0:0:0:
228,78,218451,2,0,L|130:77,1,70
64,78,218814,1,0,0:0:0:0:
64,78,218935,1,0,0:0:0:0:
64,78,219056,2,0,L|63:235,1,140
51,326,219782,1,0,0:0:0:0:
51,326,219903,1,0,0:0:0:0:
51,326,220024,1,0,0:0:0:0:
245,328,220266,1,0,0:0:0:0:
245,328,220387,2,0,L|370:335,1,105
221,160,220992,2,0,L|308:164,1,70
474,248,221355,2,0,L|413:246,1,35
359,248,221597,2,0,L|238:246,1,105
185,244,222080,1,0,0:0:0:0:
70,244,222201,2,0,L|81:128,1,105
110,70,222685,1,0,0:0:0:0:
110,70,222806,1,0,0:0:0:0:
110,70,222927,2,0,L|204:72,2,70
326,69,223653,1,0,0:0:0:0:
326,69,223774,1,0,0:0:0:0:
326,69,223895,2,0,L|339:161,1,70
421,117,224258,2,0,L|448:233,1,105
428,280,224863,2,0,L|259:289,1,140
220,270,225589,1,0,0:0:0:0:
155,139,225830,1,0,0:0:0:0:
155,139,225951,1,0,0:0:0:0:
239,54,226193,1,0,0:0:0:0:
239,54,226314,1,0,0:0:0:0:
378,113,226556,1,0,0:0:0:0:
39,131,226798,6,0,L|129:129,1,70
97,215,227282,2,0,L|176:212,1,70
278,210,227645,2,0,L|388:212,1,105
441,212,228129,1,0,0:0:0:0:
434,297,228250,2,0,L|359:295,1,70
39,131,228734,6,0,L|129:129,1,70
226,261,229218,1,0,0:0:0:0:
143,242,229339,1,0,0:0:0:0:
59,273,229460,1,0,0:0:0:0:
278,210,229581,2,0,L|388:212,1,105
434,297,230186,2,0,L|359:295,1,70
145,66,230669,2,0,L|194:69,2,35
69,169,231153,6,0,L|61:221,1,35
143,202,231395,1,0,0:0:0:0:
157,316,231516,2,0,L|248:318,1,70
252,266,231879,2,0,L|310:269,1,35
444,262,232121,2,0,L|358:260,1,70
158,63,232605,2,0,L|256:64,1,70
69,169,233089,2,0,L|61:221,1,35
143,202,233331,1,0,0:0:0:0:
157,316,233452,2,0,L|248:318,1,70
252,266,233814,1,0,0:0:0:0:
313,266,233935,1,0,0:0:0:0:
444,262,234057,2,0,L|358:260,1,70
230,84,234540,2,0,L|312:84,1,70
331,163,235024,1,0,0:0:0:0:
331,163,235145,1,0,0:0:0:0:
331,163,235266,1,0,0:0:0:0:
329,163,235387,2,0,L|246:175,1,70
85,191,235750,1,0,0:0:0:0:
150,184,235871,1,0,0:0:0:0:
216,258,235992,2,0,L|126:269,1,70
439,330,236476,2,0,L|360:330,1,70
462,233,236960,2,0,L|364:233,1,70
448,138,237323,2,0,L|330:140,1,105
259,98,237927,1,0,0:0:0:0:
259,98,238048,1,0,0:0:0:0:
259,98,238169,1,0,0:0:0:0:
259,98,238411,2,0,L|158:102,1,70
128,147,238895,2,0,L|28:148,1,70
0,148,239258,1,0,0:0:0:0:
79,257,239500,2,0,L|26:255,2,35
59,329,239863,2,0,L|156:329,1,70
259,98,240347,2,0,L|158:102,1,70
128,147,240831,2,0,L|28:148,1,70
0,148,241194,1,0,0:0:0:0:
79,257,241435,1,0,0:0:0:0:
166,255,241556,2,0,L|216:255,1,35
59,329,241799,2,0,L|156:329,1,70
39,131,242282,6,0,L|129:129,1,70
97,215,242766,2,0,L|176:212,1,70
278,210,243129,2,0,L|388:212,1,105
441,212,243613,1,0,0:0:0:0:
434,297,243734,2,0,L|359:295,1,70
39,131,244218,6,0,L|129:129,1,70
226,261,244702,1,0,0:0:0:0:
143,242,244823,1,0,0:0:0:0:
59,273,244944,1,0,0:0:0:0:
278,210,245065,2,0,L|388:212,1,105
434,297,245670,2,0,L|359:295,1,70
145,66,246153,2,0,L|194:69,2,35
69,169,246637,6,0,L|61:221,1,35
143,202,246879,1,0,0:0:0:0:
157,316,247000,2,0,L|248:318,1,70
252,266,247363,2,0,L|310:269,1,35
444,262,247605,2,0,L|358:260,1,70
158,63,248089,2,0,L|256:64,1,70
69,169,248573,2,0,L|61:221,1,35
143,202,248815,1,0,0:0:0:0:
157,316,248936,2,0,L|248:318,1,70
252,266,249298,1,0,0:0:0:0:
313,266,249419,1,0,0:0:0:0:
444,262,249541,2,0,L|358:260,1,70
230,84,250024,2,0,L|312:84,1,70
331,163,250508,1,0,0:0:0:0:
331,163,250629,1,0,0:0:0:0:
331,163,250750,1,0,0:0:0:0:
329,163,250871,2,0,L|246:175,1,70
85,191,251234,1,0,0:0:0:0:
150,184,251355,1,0,0:0:0:0:
216,258,251476,2,0,L|126:269,1,70
439,330,251960,2,0,L|360:330,1,70
462,233,252444,2,0,L|364:233,1,70
448,138,252807,2,0,L|330:140,1,105
259,98,253411,1,0,0:0:0:0:
259,98,253532,1,0,0:0:0:0:
259,98,253653,1,0,0:0:0:0:
259,98,253774,1,0,0:0:0:0:
259,98,253895,2,0,L|158:102,1,70
128,147,254379,2,0,L|28:148,1,70
0,148,254742,1,0,0:0:0:0:
79,257,254984,2,0,L|26:255,2,35
59,329,255347,2,0,L|156:329,1,70
259,98,255831,2,0,L|158:102,1,70
128,147,256315,2,0,L|28:148,1,70
0,148,256678,1,0,0:0:0:0:
79,257,256919,1,0,0:0:0:0:
166,255,257040,2,0,L|216:255,1,35
59,329,257283,2,0,L|156:329,1,70
255,214,257766,1,0,0:0:0:0:
255,214,258008,1,0,0:0:0:0:
255,214,258250,1,0,0:0:0:0:
258,109,258492,1,0,0:0:0:0:
258,109,258613,1,0,0:0:0:0:
257,23,258855,1,0,0:0:0:0:
257,23,258976,1,0,0:0:0:0:
421,98,259218,2,0,L|417:191,1,70
270,193,263935,1,0,0:0:0:0:
