osu file format v14

[General]
AudioFilename: 123.mp3
AudioLeadIn: 0
PreviewTime: 95667
Countdown: 0
SampleSet: Soft
StackLeniency: 0.7
Mode: 0
LetterboxInBreaks: 0
WidescreenStoryboard: 1

[Editor]
Bookmarks: 91647,147897,186736,231468
DistanceSpacing: 1.2
BeatDivisor: 4
GridSize: 4
TimelineZoom: 1.4

[Metadata]
Title:Snow Drive (01.23)
TitleUnicode:スノウドライヴ(01.23)
Artist:Araki
ArtistUnicode:Araki
Creator:jieusieu
Version:Lemur
Source:
Tags:Omoi
BeatmapID:831241
BeatmapSetID:379783

[Difficulty]
HPDrainRate:4.4
CircleSize:4
OverallDifficulty:8
ApproachRate:9.8
SliderMultiplier:1.7
SliderTickRate:1

[Events]
//Background and Video events
0,0,"snow.jpg",0,0
//Break Periods
2,113276,117552
2,189347,190811
2,191490,192954
2,193633,195097
2,195776,196704
//Storyboard Layer 0 (Background)
//Storyboard Layer 1 (Fail)
//Storyboard Layer 2 (Pass)
//Storyboard Layer 3 (Foreground)
//Storyboard Sound Samples

[TimingPoints]
576,267.857142857143,4,2,0,85,1,0
39951,-133.333333333333,4,2,0,85,0,0
40218,-100,4,2,0,85,0,0
48388,-66.6666666666667,4,2,0,85,0,0
48790,-100,4,2,0,85,0,0
58834,-90.9090909090909,4,2,0,85,0,0
59906,-83.3333333333333,4,2,0,85,0,0
61379,-133.333333333333,4,2,0,85,0,0
61647,-100,4,2,0,85,0,0
69951,-66.6666666666667,4,2,0,85,0,0
70218,-100,4,2,0,85,0,0
91647,-200,4,2,0,85,0,0
91915,-100,4,2,0,85,0,0
93790,-66.6666666666667,4,2,0,85,0,0
94861,-200,4,2,0,85,0,0
95665,-133.333333333333,4,2,0,85,0,0
95933,-83.3333333333333,4,2,0,85,0,1
113076,-100,4,2,0,85,0,0
118165,-133.333333333333,4,2,0,85,0,0
118433,-100,4,2,0,85,0,0
126468,-66.6666666666667,4,2,0,85,0,0
127004,-100,4,2,0,85,0,0
150576,-200,4,2,0,85,0,0
150843,-100,4,2,0,85,0,0
152718,-66.6666666666667,4,2,0,85,0,0
153790,-200,4,2,0,85,0,0
154593,-133.333333333333,4,2,0,85,0,0
154861,-83.3333333333333,4,2,0,85,0,1
170933,-200,4,2,0,85,0,0
171201,-50,4,2,0,85,0,0
171468,-100,4,2,0,85,0,0
172004,-90.9090909090909,4,2,0,85,0,0
180576,-71.4285714285714,4,2,0,85,0,0
182451,-90.9090909090909,4,2,0,85,0,0
182718,-71.4285714285714,4,2,0,85,0,0
184593,-90.9090909090909,4,2,0,85,0,0
186736,-200,4,2,0,85,0,0
187004,-100,4,2,0,85,0,0
197317,-66.6666666666667,4,2,0,85,0,0
197718,-100,4,2,0,85,0,0
202004,-200,4,2,0,85,0,0
202272,-100,4,2,0,85,0,0
204147,-58.8235294117647,4,2,0,85,0,0
205486,-200,4,2,0,85,0,0
206290,-71.4285714285714,4,2,0,85,0,1
222361,-200,4,2,0,85,0,0
222629,-50,4,2,0,85,0,0
222897,-100,4,2,0,85,0,0
223433,-71.4285714285714,4,2,0,85,0,1
239504,-100,4,2,0,85,0,0

[Colours]
Combo1 : 200,199,198
Combo2 : 165,216,254
Combo3 : 198,164,255
Combo4 : 102,171,255

[HitObjects]
232,92,39817,5,0,0:0:0:0:
100,288,39951,2,0,P|100:230|72:193,1,95.6250036478044
12,144,40218,6,0,L|192:164,1,170
404,188,40620,1,0,0:0:0:0:
332,28,40754,2,0,L|340:128,1,85
360,324,41022,1,0,0:0:0:0:
472,132,41156,1,0,0:0:0:0:
248,12,41290,6,0,P|217:89|267:153,1,170
472,44,41692,1,0,0:0:0:0:
352,244,41826,2,0,P|392:248|436:255,1,85
304,76,42093,1,0,0:0:0:0:
496,196,42227,1,0,0:0:0:0:
276,324,42361,6,0,P|200:332|107:346,1,170
0,200,42763,1,0,0:0:0:0:
216,88,42897,2,0,L|204:196,1,85
32,48,43165,1,0,0:0:0:0:
196,252,43299,1,0,0:0:0:0:
368,104,43433,6,0,P|449:88|509:144,1,170
312,176,43834,1,0,0:0:0:0:
148,32,43968,2,0,P|105:27|63:20,1,85
0,72,44169,1,0,0:0:0:0:
0,72,44236,1,0,0:0:0:0:
236,48,44370,1,0,0:0:0:0:
36,312,44504,6,0,P|41:227|49:142,1,170
124,364,44906,1,0,0:0:0:0:
312,176,45040,2,0,P|273:181|217:193,1,85
40,228,45308,1,0,0:0:0:0:
276,284,45442,1,0,0:0:0:0:
48,142,45576,6,0,P|-7:82|15:4,1,170
120,276,45977,1,0,0:0:0:0:
304,120,46111,2,0,P|296:161|290:203,1,85
264,364,46379,1,0,0:0:0:0:
212,136,46513,1,0,0:0:0:0:
464,200,46647,6,0,P|474:284|479:369,1,170
512,128,47049,1,0,0:0:0:0:
276,36,47183,2,0,P|320:44|392:48,1,85
408,268,47451,1,0,0:0:0:0:
220,104,47584,1,0,0:0:0:0:
444,24,47718,5,0,0:0:0:0:
360,336,47852,1,0,0:0:0:0:
300,264,48120,5,0,0:0:0:0:
180,344,48254,1,0,0:0:0:0:
180,344,48321,1,0,0:0:0:0:
180,344,48388,2,0,P|208:320|248:308,1,63.7500024318696
120,212,48522,2,0,P|96:188|60:172,1,63.7500024318696
248,112,48656,2,0,P|284:124|316:124,1,63.7500024318696
84,4,48790,6,0,P|92:72|95:103,1,85
120,308,49058,1,0,0:0:0:0:
152,152,49192,1,0,0:0:0:0:
4,272,49326,1,0,0:0:0:0:
168,384,49459,1,0,0:0:0:0:
68,176,49593,1,0,0:0:0:0:
264,116,49727,1,0,0:0:0:0:
28,76,49861,5,0,0:0:0:0:
228,196,49995,1,0,0:0:0:0:
316,8,50129,1,0,0:0:0:0:
152,152,50263,2,0,P|160:212|168:292,1,127.5
180,368,50531,1,0,0:0:0:0:
36,224,50665,1,0,0:0:0:0:
272,276,50799,1,0,0:0:0:0:
188,76,50933,5,0,0:0:0:0:
166,278,51067,1,0,0:0:0:0:
344,224,51201,1,0,0:0:0:0:
152,152,51334,1,0,0:0:0:0:
316,356,51468,1,0,0:0:0:0:
424,132,51602,1,0,0:0:0:0:
272,276,51736,1,0,0:0:0:0:
504,236,51870,1,0,0:0:0:0:
248,196,52004,5,0,0:0:0:0:
392,380,52138,1,0,0:0:0:0:
512,104,52272,2,0,P|504:144|496:208,1,85
172,92,52540,2,0,P|260:65|319:121,1,170
396,328,52942,1,0,0:0:0:0:
436,164,53076,5,0,0:0:0:0:
240,148,53209,1,0,0:0:0:0:
456,84,53343,1,0,0:0:0:0:
268,228,53477,1,0,0:0:0:0:
120,40,53611,1,0,0:0:0:0:
216,296,53745,1,0,0:0:0:0:
288,72,53879,1,0,0:0:0:0:
248,372,54013,1,0,0:0:0:0:
152,180,54147,5,0,0:0:0:0:
300,308,54281,1,0,0:0:0:0:
56,368,54415,1,0,0:0:0:0:
268,228,54549,1,0,0:0:0:0:
32,132,54683,1,0,0:0:0:0:
137,349,54817,2,0,P|144:260|152:179,1,170
444,264,55218,6,0,P|372:324|292:296,1,170
344,68,55620,2,0,P|352:148|359:237,1,170
137,349,56022,2,0,L|149:222,1,127.5
112,100,56290,6,0,P|58:113|82:163,1,127.5
148,222,56558,2,0,B|188:212|188:212|232:210,1,85
388,276,56826,1,0,0:0:0:0:
292,140,56959,1,0,0:0:0:0:
512,188,57093,2,0,B|472:200|472:200|428:200,1,85
348,356,57361,5,0,0:0:0:0:
344,68,57495,1,0,0:0:0:0:
388,276,57629,1,0,0:0:0:0:
160,280,57763,2,0,B|215:276|215:276|229:278|229:278|300:272,1,127.5
300,284,58031,1,0,0:0:0:0:
512,188,58165,2,0,B|457:184|457:184|444:180|444:180|372:176,1,127.5
332,116,58433,5,0,0:0:0:0:
272,360,58567,1,0,0:0:0:0:
136,200,58701,1,0,0:0:0:0:
384,228,58834,2,0,B|376:280|376:280|377:294|377:294|372:308|372:308|364:372,1,140.25000428009
352,380,59102,1,0,0:0:0:0:
220,188,59236,2,0,B|228:136|228:136|227:122|227:122|232:108|232:108|240:44,1,140.25000428009
312,8,59504,5,0,0:0:0:0:
88,132,59638,1,0,0:0:0:0:
272,248,59772,1,0,0:0:0:0:
164,24,59906,2,0,B|104:16|104:16|90:18|90:18|76:12|76:12|8:4,1,152.999995330811
0,16,60174,1,0,0:0:0:0:
52,212,60308,1,0,0:0:0:0:
52,212,60375,1,0,0:0:0:0:
52,212,60442,1,0,0:0:0:0:
231,73,60576,5,0,0:0:0:0:
192,312,60709,1,0,0:0:0:0:
4,140,60843,1,0,0:0:0:0:
64,384,60977,1,0,0:0:0:0:
64,384,61245,5,0,0:0:0:0:
4,140,61379,2,0,P|12:196|16:252,1,95.6250036478044
64,300,61647,6,0,P|124:348|228:312,1,170
308,180,62049,1,0,0:0:0:0:
116,88,62183,2,0,P|88:88|16:76,1,85
148,260,62451,1,0,0:0:0:0:
212,36,62584,1,0,0:0:0:0:
396,180,62718,6,0,P|384:252|372:368,1,170
356,104,63120,1,0,0:0:0:0:
164,184,63254,2,0,P|160:144|152:96,1,85
96,240,63522,1,0,0:0:0:0:
276,304,63656,1,0,0:0:0:0:
212,36,63790,6,0,P|131:19|69:73,1,170
260,108,64192,1,0,0:0:0:0:
196,340,64326,2,0,P|200:300|208:252,1,85
72,156,64593,1,0,0:0:0:0:
128,384,64727,1,0,0:0:0:0:
331,232,64861,6,0,P|440:216|504:212,1,170
276,304,65263,1,0,0:0:0:0:
336,72,65397,2,0,P|293:71|252:62,1,85
181,16,65598,1,0,0:0:0:0:
181,16,65665,1,0,0:0:0:0:
216,248,65799,1,0,0:0:0:0:
401,12,65933,6,0,P|420:91|369:155,1,170
164,108,66334,1,0,0:0:0:0:
412,248,66468,2,0,P|456:240|500:236,1,85
276,304,66736,1,0,0:0:0:0:
336,72,66870,1,0,0:0:0:0:
132,196,67004,6,0,P|120:284|116:365,1,170
0,200,67406,1,0,0:0:0:0:
208,144,67540,2,0,P|204:96|192:44,1,85
220,232,67808,1,0,0:0:0:0:
116,24,67942,1,0,0:0:0:0:
344,92,68076,6,0,P|432:108|492:48,1,170
408,276,68477,1,0,0:0:0:0:
208,144,68611,2,0,P|260:152|308:164,1,85
364,352,68879,1,0,0:0:0:0:
344,92,69013,1,0,0:0:0:0:
136,192,69147,5,0,0:0:0:0:
408,276,69281,1,0,0:0:0:0:
408,276,69348,1,0,0:0:0:0:
408,276,69415,1,0,0:0:0:0:
88,340,69549,1,0,0:0:0:0:
84,324,69616,1,0,0:0:0:0:
80,308,69683,1,0,0:0:0:0:
76,292,69750,1,0,0:0:0:0:
72,276,69817,1,0,0:0:0:0:
68,260,69884,1,0,0:0:0:0:
64,244,69951,2,0,B|60:172|-4:140|-4:140|24:160|72:156,1,191.250007295609
100,92,70218,6,0,P|140:88|199:81,1,85
404,80,70486,1,0,0:0:0:0:
324,276,70620,1,0,0:0:0:0:
256,40,70754,1,0,0:0:0:0:
492,104,70888,1,0,0:0:0:0:
284,196,71022,1,0,0:0:0:0:
464,20,71156,1,0,0:0:0:0:
412,288,71290,6,0,P|420:216|427:161,1,127.5
492,104,71558,1,0,0:0:0:0:
300,112,71692,1,0,0:0:0:0:
500,224,71826,1,0,0:0:0:0:
256,40,71959,1,0,0:0:0:0:
324,276,72093,1,0,0:0:0:0:
404,80,72227,1,0,0:0:0:0:
176,208,72361,6,0,P|156:284|208:351,1,170
412,288,72763,1,0,0:0:0:0:
240,268,72897,1,0,0:0:0:0:
404,376,73031,1,0,0:0:0:0:
380,164,73165,1,0,0:0:0:0:
496,300,73299,1,0,0:0:0:0:
292,336,73433,1,0,0:0:0:0:
508,168,73567,5,0,0:0:0:0:
292,64,73701,2,0,P|296:96|302:148,1,85
364,384,73968,2,0,P|276:372|168:364,1,170
0,344,74370,1,0,0:0:0:0:
176,204,74504,5,0,0:0:0:0:
112,384,74638,1,0,0:0:0:0:
32,132,74772,1,0,0:0:0:0:
252,232,74906,1,0,0:0:0:0:
84,304,75040,1,0,0:0:0:0:
240,148,75174,1,0,0:0:0:0:
24,212,75308,1,0,0:0:0:0:
232,357,75442,6,0,P|240:294|252:232,1,127.5
240,148,75709,1,0,0:0:0:0:
80,60,75843,1,0,0:0:0:0:
192,288,75977,1,0,0:0:0:0:
400,168,76111,2,0,P|419:88|368:24,1,170
328,204,76513,1,0,0:0:0:0:
124,32,76647,6,0,P|196:48|296:60,1,170
195,312,77049,2,0,P|110:319|26:330,1,170
36,20,77451,2,0,P|44:72|48:152,1,127.5
26,330,77718,6,0,P|80:376|160:360,1,127.5
195,312,77986,2,0,P|199:269|207:227,1,85
352,136,78254,1,0,0:0:0:0:
128,192,78388,1,0,0:0:0:0:
408,356,78522,2,0,P|403:313|395:271,1,85
292,72,78790,6,0,P|384:88|488:100,1,170
312,260,79192,1,0,0:0:0:0:
148,132,79326,1,0,0:0:0:0:
368,192,79459,1,0,0:0:0:0:
152,288,79593,1,0,0:0:0:0:
112,52,79727,1,0,0:0:0:0:
0,248,79861,6,0,P|42:242|84:238,1,85
288,180,80129,2,0,P|245:185|203:189,1,85
16,164,80397,1,0,0:0:0:0:
172,368,80531,1,0,0:0:0:0:
236,104,80665,1,0,0:0:0:0:
0,248,80799,1,0,0:0:0:0:
288,180,80933,6,0,P|324:104|284:24,1,170
200,188,81334,1,0,0:0:0:0:
416,260,81468,1,0,0:0:0:0:
236,104,81602,1,0,0:0:0:0:
288,380,81736,1,0,0:0:0:0:
488,212,81870,1,0,0:0:0:0:
256,292,82004,6,0,P|296:296|368:308,1,85
164,64,82272,2,0,P|121:70|79:74,1,85
16,344,82540,1,0,0:0:0:0:
240,208,82674,1,0,0:0:0:0:
56,152,82808,1,0,0:0:0:0:
256,292,82942,1,0,0:0:0:0:
368,64,83076,6,0,P|355:104|351:146,1,85
192,352,83343,2,0,P|184:304|172:248,1,85
32,60,83611,2,0,P|73:79|120:80,1,85
368,64,83879,1,0,0:0:0:0:
164,16,84013,1,0,0:0:0:0:
304,264,84147,6,0,P|380:252|476:240,1,170
296,136,84549,1,0,0:0:0:0:
276,344,84683,1,0,0:0:0:0:
504,160,84817,1,0,0:0:0:0:
304,264,84951,1,0,0:0:0:0:
228,72,85084,1,0,0:0:0:0:
12,268,85218,6,0,P|52:260|116:252,1,85
228,72,85486,2,0,P|180:68|116:36,1,85
380,236,85754,2,0,P|396:272|388:348,1,85
48,184,86022,6,0,P|64:92|72:-8,1,170
100,252,86424,1,0,0:0:0:0:
272,136,86558,1,0,0:0:0:0:
280,368,86692,1,0,0:0:0:0:
136,172,86826,1,0,0:0:0:0:
356,112,86959,1,0,0:0:0:0:
224,292,87093,1,0,0:0:0:0:
128,84,87227,1,0,0:0:0:0:
420,176,87361,6,0,P|440:96|392:29,1,170
352,228,87763,1,0,0:0:0:0:
128,84,87897,2,0,P|156:92|236:96,1,85
192,340,88165,1,0,0:0:0:0:
428,264,88299,6,0,P|332:272|256:284,1,170
72,308,88701,1,0,0:0:0:0:
276,368,88834,1,0,0:0:0:0:
136,172,88968,2,0,P|144:220|148:264,1,85
128,84,89236,1,0,0:0:0:0:
340,144,89370,1,0,0:0:0:0:
56,132,89504,6,0,P|52:44|120:-4,1,170
224,204,89906,1,0,0:0:0:0:
416,72,90040,2,0,P|373:68|332:60,1,85
352,312,90308,1,0,0:0:0:0:
488,128,90442,6,0,P|500:212|508:300,1,170
280,216,90843,1,0,0:0:0:0:
416,72,90977,1,0,0:0:0:0:
352,312,91111,2,0,P|355:269|362:227,1,85
176,44,91379,2,0,P|182:85|186:128,1,85
40,280,91647,6,0,L|36:260|32:216,1,63.75
0,143,91915,5,0,0:0:0:0:
17,104,91982,1,0,0:0:0:0:
52,81,92049,1,0,0:0:0:0:
94,80,92116,1,0,0:0:0:0:
131,99,92183,1,0,0:0:0:0:
148,137,92250,1,0,0:0:0:0:
143,179,92317,1,0,0:0:0:0:
119,214,92384,1,0,0:0:0:0:
78,230,92451,1,0,0:0:0:0:
120,236,92518,1,0,0:0:0:0:
154,261,92584,1,0,0:0:0:0:
171,300,92651,1,0,0:0:0:0:
172,344,92718,5,0,0:0:0:0:
181,294,92785,1,0,0:0:0:0:
204,249,92852,1,0,0:0:0:0:
241,215,92919,1,0,0:0:0:0:
291,206,92986,1,0,0:0:0:0:
341,215,93053,1,0,0:0:0:0:
380,244,93120,1,0,0:0:0:0:
428,256,93187,1,0,0:0:0:0:
474,238,93254,1,0,0:0:0:0:
504,199,93321,1,0,0:0:0:0:
512,148,93388,1,0,0:0:0:0:
484,104,93455,1,0,0:0:0:0:
439,80,93522,1,0,0:0:0:0:
387,90,93589,1,0,0:0:0:0:
351,126,93656,5,0,0:0:0:0:
351,126,93723,1,0,0:0:0:0:
351,126,93790,2,0,P|354:159|360:203,1,63.7500024318696
192,64,93924,5,0,0:0:0:0:
192,64,93991,1,0,0:0:0:0:
192,64,94058,2,0,P|204:28|203:-4,1,63.7500024318696
30,160,94192,5,0,0:0:0:0:
30,160,94259,1,0,0:0:0:0:
30,160,94326,2,0,P|78:152|93:149,1,63.7500024318696
268,292,94459,5,0,0:0:0:0:
268,292,94526,1,0,0:0:0:0:
268,292,94593,2,0,P|240:288|200:284,1,63.7500024318696
12,348,94727,5,0,0:0:0:0:
12,348,94794,1,0,0:0:0:0:
12,348,94861,2,0,B|20:308|20:308|16:284|16:284|20:264|20:264|20:252|20:252|28:232|28:232|24:208|24:208|32:148,1,191.25
8,76,95531,1,0,0:0:0:0:
196,184,95665,6,0,P|216:144|212:84,1,95.6250036478044
140,56,95933,6,0,P|152:144|168:276,1,203.999993774414
312,356,96334,1,0,0:0:0:0:
432,88,96468,2,0,P|376:80|331:73,1,101.999996887207
52,200,96736,2,0,P|60:152|68:88,1,101.999996887207
436,208,97004,6,0,P|465:300|397:369,1,203.999993774414
432,88,97406,1,0,0:0:0:0:
276,296,97540,2,0,P|320:288|388:280,1,101.999996887207
136,192,97808,1,0,0:0:0:0:
396,369,97942,1,0,0:0:0:0:
504,52,98076,6,0,P|396:40|302:25,1,203.999993774414
192,296,98477,1,0,0:0:0:0:
428,116,98611,2,0,P|420:172|412:240,1,101.999996887207
124,112,98879,2,0,P|120:60|112:10,1,101.999996887207
116,344,99147,5,0,0:0:0:0:
380,288,99281,1,0,0:0:0:0:
380,288,99348,1,0,0:0:0:0:
380,288,99415,1,0,0:0:0:0:
204,68,99549,1,0,0:0:0:0:
296,364,99683,6,0,P|248:368|188:388,1,101.999996887207
22,102,99951,2,0,P|62:106|150:114,1,101.999996887207
508,92,100218,6,0,P|413:115|348:44,1,203.999993774414
192,236,100620,1,0,0:0:0:0:
10,0,100754,2,0,P|18:56|22:124,1,101.999996887207
276,300,101022,2,0,P|280:240|300:192,1,101.999996887207
200,376,101290,5,0,0:0:0:0:
372,172,101424,1,0,0:0:0:0:
123,111,101558,1,0,0:0:0:0:
360,268,101692,1,0,0:0:0:0:
56,336,101826,2,0,P|52:232|40:120,1,203.999993774414
264,28,102227,1,0,0:0:0:0:
276,300,102361,6,0,P|224:288|156:276,1,101.999996887207
392,108,102629,2,0,P|440:100|492:89,1,101.999996887207
440,360,102897,1,0,0:0:0:0:
240,208,103031,1,0,0:0:0:0:
512,296,103165,1,0,0:0:0:0:
212,372,103299,1,0,0:0:0:0:
180,56,103433,6,0,P|172:100|168:168,1,101.999996887207
348,352,103701,2,0,P|356:308|360:240,1,101.999996887207
80,132,103968,5,0,0:0:0:0:
88,148,104035,1,0,0:0:0:0:
84,172,104102,1,0,0:0:0:0:
88,192,104169,1,0,0:0:0:0:
80,220,104236,1,0,0:0:0:0:
92,240,104303,1,0,0:0:0:0:
88,260,104370,1,0,0:0:0:0:
96,284,104437,1,0,0:0:0:0:
96,308,104504,5,0,0:0:0:0:
240,208,104638,1,0,0:0:0:0:
88,108,104772,1,0,0:0:0:0:
176,344,104906,5,0,0:0:0:0:
248,88,105040,1,0,0:0:0:0:
8,276,105174,1,0,0:0:0:0:
312,276,105308,5,0,0:0:0:0:
232,0,105442,1,0,0:0:0:0:
476,204,105576,1,0,0:0:0:0:
180,144,105709,5,0,0:0:0:0:
504,28,105843,1,0,0:0:0:0:
368,344,105977,1,0,0:0:0:0:
320,32,106111,5,0,0:0:0:0:
444,292,106245,1,0,0:0:0:0:
80,220,106379,1,0,0:0:0:0:
468,116,106513,5,0,0:0:0:0:
160,252,106647,1,0,0:0:0:0:
456,384,106781,1,0,0:0:0:0:
96,308,106915,5,0,0:0:0:0:
320,32,107049,1,0,0:0:0:0:
292,384,107183,1,0,0:0:0:0:
420,40,107317,5,0,0:0:0:0:
88,108,107451,1,0,0:0:0:0:
444,292,107584,1,0,0:0:0:0:
20,276,107718,6,0,P|28:328|36:396,1,101.999996887207
208,116,107986,2,0,P|216:52|224:-4,1,101.999996887207
460,196,108254,2,0,P|466:246|442:291,1,101.999996887207
160,372,108522,1,0,0:0:0:0:
88,108,108656,1,0,0:0:0:0:
308,312,108790,6,0,P|216:300|100:288,1,203.999993774414
304,200,109192,1,0,0:0:0:0:
112,24,109326,2,0,P|176:20|236:12,1,101.999996887207
20,244,109593,2,0,P|12:292|44:364,1,101.999996887207
304,200,109861,2,0,P|272:196|200:188,1,101.999996887207
32,4,110129,1,0,0:0:0:0:
424,88,110263,6,0,P|445:183|376:252,1,203.999993774414
232,140,110665,1,0,0:0:0:0:
512,64,110799,1,0,0:0:0:0:
300,8,110933,2,0,P|312:72|324:132,1,101.999996887207
216,352,111201,2,0,P|216:296|235:251,1,101.999996887207
28,44,111468,1,0,0:0:0:0:
136,288,111602,1,0,0:0:0:0:
405,188,111736,2,0,P|354:193|303:200,1,101.999996887207
392,368,112004,5,0,0:0:0:0:
424,88,112138,1,0,0:0:0:0:
276,280,112272,1,0,0:0:0:0:
492,148,112406,1,0,0:0:0:0:
216,152,112540,1,0,0:0:0:0:
268,368,112674,1,0,0:0:0:0:
296,116,112808,1,0,0:0:0:0:
136,376,112942,1,0,0:0:0:0:
28,44,113076,5,0,0:0:0:0:
216,288,118031,5,0,0:0:0:0:
216,288,118098,1,0,0:0:0:0:
216,288,118165,2,0,P|156:296|104:308,1,95.6250036478044
64,244,118433,6,0,P|16:184|52:80,1,170
228,32,118835,1,0,0:0:0:0:
316,208,118969,2,0,P|308:248|300:296,1,85
392,164,119237,1,0,0:0:0:0:
284,372,119370,1,0,0:0:0:0:
140,136,119504,6,0,P|224:131|309:120,1,170
424,288,119906,1,0,0:0:0:0:
468,32,120040,2,0,P|462:73|457:116,1,85
304,40,120308,1,0,0:0:0:0:
472,196,120442,1,0,0:0:0:0:
272,336,120576,6,0,P|190:345|132:286,1,170
324,260,120978,1,0,0:0:0:0:
196,112,121112,2,0,P|236:108|284:100,1,85
216,272,121379,1,0,0:0:0:0:
132,56,121513,1,0,0:0:0:0:
392,204,121647,6,0,P|382:288|376:373,1,170
340,132,122049,1,0,0:0:0:0:
80,248,122183,2,0,P|76:208|70:164,1,85
56,88,122384,1,0,0:0:0:0:
56,88,122451,1,0,0:0:0:0:
216,272,122585,1,0,0:0:0:0:
404,68,122718,6,0,P|425:147|375:212,1,170
160,128,123120,1,0,0:0:0:0:
180,352,123254,2,0,P|139:344|96:340,1,85
292,296,123522,1,0,0:0:0:0:
69,163,123656,1,0,0:0:0:0:
320,48,123790,6,0,P|404:41|489:31,1,170
244,8,124192,1,0,0:0:0:0:
472,168,124326,2,0,P|464:208|456:268,1,85
300,376,124594,1,0,0:0:0:0:
388,196,124728,1,0,0:0:0:0:
136,280,124861,6,0,P|128:192|112:88,1,170
372,288,125263,1,0,0:0:0:0:
372,288,125330,1,0,0:0:0:0:
372,288,125397,1,0,0:0:0:0:
372,288,125933,6,0,B|348:268|348:268|316:252,1,56.6666666666667
114,244,126111,2,0,B|144:233|144:233|174:213,1,56.6666666666667
281,43,126290,2,0,B|275:74|275:74|277:110,1,56.6666666666667
388,196,126468,6,0,B|432:192|432:192|484:176,1,85.0000032424928
186,304,126647,2,0,B|168:344|168:344|155:397,1,85.0000032424928
193,75,126826,2,0,B|168:39|168:39|128:2,1,85.0000032424928
256,192,127004,5,0,0:0:0:0:
408,104,127138,1,0,0:0:0:0:
372,288,127272,1,0,0:0:0:0:
174,220,127406,1,0,0:0:0:0:
352,172,127540,1,0,0:0:0:0:
256,376,127674,1,0,0:0:0:0:
188,136,127808,1,0,0:0:0:0:
424,216,127942,1,0,0:0:0:0:
186,304,128076,5,0,0:0:0:0:
372,288,128209,1,0,0:0:0:0:
174,220,128344,1,0,0:0:0:0:
356,372,128478,1,0,0:0:0:0:
304,124,128612,1,0,0:0:0:0:
108,272,128745,1,0,0:0:0:0:
340,204,128879,1,0,0:0:0:0:
112,100,129013,1,0,0:0:0:0:
156,380,129147,5,0,0:0:0:0:
256,192,129281,1,0,0:0:0:0:
32,232,129415,1,0,0:0:0:0:
304,124,129549,1,0,0:0:0:0:
64,32,129683,1,0,0:0:0:0:
186,304,129817,1,0,0:0:0:0:
44,152,129951,1,0,0:0:0:0:
340,204,130084,1,0,0:0:0:0:
152,24,130218,5,0,0:0:0:0:
268,280,130352,1,0,0:0:0:0:
488,124,130487,2,0,P|504:80|500:40,1,85
252,110,130754,2,0,P|260:188|268:286,1,170
368,368,131156,1,0,0:0:0:0:
184,244,131290,5,0,0:0:0:0:
376,184,131424,1,0,0:0:0:0:
284,360,131558,1,0,0:0:0:0:
112,204,131692,1,0,0:0:0:0:
352,268,131826,1,0,0:0:0:0:
332,72,131960,1,0,0:0:0:0:
267,279,132094,1,0,0:0:0:0:
504,208,132227,1,0,0:0:0:0:
296,144,132361,5,0,0:0:0:0:
368,368,132495,1,0,0:0:0:0:
488,124,132629,1,0,0:0:0:0:
267,279,132763,1,0,0:0:0:0:
324,16,132897,1,0,0:0:0:0:
504,208,133031,2,0,P|416:216|320:228,1,170
56,40,133433,6,0,P|108:100|216:80,1,170
440,15,133835,2,0,P|426:99|419:183,1,170
244,356,134237,2,0,P|241:292|231:229,1,127.5
168,176,134504,5,0,0:0:0:0:
380,240,134638,1,0,0:0:0:0:
380,240,134705,1,0,0:0:0:0:
380,240,134772,1,0,0:0:0:0:
168,324,134906,1,0,0:0:0:0:
296,84,135040,2,0,P|288:124|284:167,1,85
476,360,135308,2,0,P|468:304|452:276,1,85
211,258,135576,6,0,P|299:250|387:238,1,170
244,356,135978,1,0,0:0:0:0:
324,80,137719,6,0,P|368:40|472:56,1,170
280,232,138120,1,0,0:0:0:0:
280,232,138388,5,0,0:0:0:0:
240,44,138522,1,0,0:0:0:0:
364,228,138656,1,0,0:0:0:0:
160,324,138790,6,0,P|117:317|75:313,1,85
268,384,139058,1,0,0:0:0:0:
184,164,139192,1,0,0:0:0:0:
356,312,139326,1,0,0:0:0:0:
440,104,139460,1,0,0:0:0:0:
200,32,139594,5,0,0:0:0:0:
196,68,139660,1,0,0:0:0:0:
192,100,139727,1,0,0:0:0:0:
188,132,139794,1,0,0:0:0:0:
184,164,139861,2,0,P|192:212|196:264,1,85
420,368,140129,2,0,P|420:324|431:283,1,85
508,56,140397,2,0,P|464:64|420:68,1,85
272,200,140665,1,0,0:0:0:0:
120,40,140799,1,0,0:0:0:0:
212,268,140933,6,0,P|296:288|356:236,1,170
248,108,141335,1,0,0:0:0:0:
152,324,141469,1,0,0:0:0:0:
348,156,141603,1,0,0:0:0:0:
112,116,141737,1,0,0:0:0:0:
292,288,141870,1,0,0:0:0:0:
392,8,142004,6,0,P|395:50|402:92,1,85
303,372,142272,2,0,P|299:328|287:268,1,85
500,140,142540,2,0,P|502:182|486:221,1,85
236,24,142808,6,0,P|151:17|67:4,1,170
200,180,143210,1,0,0:0:0:0:
44,264,143344,1,0,0:0:0:0:
284,204,143478,1,0,0:0:0:0:
32,76,143612,1,0,0:0:0:0:
120,300,143745,1,0,0:0:0:0:
261,121,143879,1,0,0:0:0:0:
152,376,144013,1,0,0:0:0:0:
119,147,144147,6,0,P|183:96|261:121,1,170
356,328,144549,1,0,0:0:0:0:
488,108,144683,2,0,P|445:104|404:94,1,85
200,180,144951,1,0,0:0:0:0:
12,16,145085,6,0,P|24:100|32:188,1,170
52,376,145487,1,0,0:0:0:0:
120,148,145620,1,0,0:0:0:0:
272,308,145754,2,0,P|224:300|180:296,1,85
440,164,146022,1,0,0:0:0:0:
240,220,146156,1,0,0:0:0:0:
508,216,146290,6,0,P|512:128|444:80,1,170
480,308,146692,1,0,0:0:0:0:
284,224,146826,2,0,P|280:266|272:307,1,85
200,48,147094,1,0,0:0:0:0:
12,228,147228,6,0,P|19:143|31:59,1,170
256,180,147629,1,0,0:0:0:0:
56,300,147763,1,0,0:0:0:0:
115,58,147897,2,0,P|157:55|199:48,1,85
392,236,148165,2,0,P|349:238|307:245,1,85
252,300,148366,5,0,0:0:0:0:
252,300,148433,1,0,0:0:0:0:
272,144,148567,1,0,0:0:0:0:
332,320,148701,1,0,0:0:0:0:
320,80,148834,1,0,0:0:0:0:
392,376,148968,1,0,0:0:0:0:
396,112,149102,1,0,0:0:0:0:
488,312,149236,1,0,0:0:0:0:
448,44,149370,5,0,0:0:0:0:
448,44,149437,1,0,0:0:0:0:
448,44,149504,1,0,0:0:0:0:
272,144,149638,1,0,0:0:0:0:
396,112,149772,1,0,0:0:0:0:
164,32,149906,1,0,0:0:0:0:
428,224,150039,1,0,0:0:0:0:
178,244,150173,1,0,0:0:0:0:
484,160,150307,1,0,0:0:0:0:
252,292,150442,5,0,0:0:0:0:
252,292,150509,1,0,0:0:0:0:
252,292,150576,2,0,P|260:240|264:216,1,63.75
140,172,150843,5,0,0:0:0:0:
163,205,150910,1,0,0:0:0:0:
178,244,150977,1,0,0:0:0:0:
165,284,151044,1,0,0:0:0:0:
133,313,151111,1,0,0:0:0:0:
91,315,151178,1,0,0:0:0:0:
56,290,151245,1,0,0:0:0:0:
37,254,151312,1,0,0:0:0:0:
46,212,151379,1,0,0:0:0:0:
75,180,151446,1,0,0:0:0:0:
116,170,151513,1,0,0:0:0:0:
155,187,151580,1,0,0:0:0:0:
184,220,151647,5,0,0:0:0:0:
233,234,151714,1,0,0:0:0:0:
281,217,151781,1,0,0:0:0:0:
308,174,151848,1,0,0:0:0:0:
307,123,151915,1,0,0:0:0:0:
290,73,151982,1,0,0:0:0:0:
314,28,152049,1,0,0:0:0:0:
358,1,152116,1,0,0:0:0:0:
406,12,152182,1,0,0:0:0:0:
440,48,152249,1,0,0:0:0:0:
443,99,152316,1,0,0:0:0:0:
415,142,152383,1,0,0:0:0:0:
402,191,152451,1,0,0:0:0:0:
410,240,152517,1,0,0:0:0:0:
448,288,152584,5,0,0:0:0:0:
448,288,152651,1,0,0:0:0:0:
448,288,152718,2,0,P|487:284|531:280,1,63.7500024318696
300,368,152852,5,0,0:0:0:0:
300,368,152919,1,0,0:0:0:0:
300,368,152986,2,0,P|272:364|236:360,1,63.7500024318696
132,160,153120,5,0,0:0:0:0:
132,160,153187,1,0,0:0:0:0:
132,160,153254,2,0,P|120:128|124:72,1,63.7500024318696
324,224,153388,5,0,0:0:0:0:
324,224,153455,1,0,0:0:0:0:
324,224,153522,2,0,P|320:260|312:316,1,63.7500024318696
180,36,153656,5,0,0:0:0:0:
180,36,153723,1,0,0:0:0:0:
180,36,153790,2,0,B|220:28|220:28|244:32|244:32|264:28|264:28|276:28|276:28|296:20|296:20|320:24|320:24|380:16,1,191.25
440,48,154459,1,0,0:0:0:0:
324,224,154593,6,0,P|276:224|232:196,1,95.6250036478044
181,140,154861,6,0,P|193:232|205:356,1,203.999993774414
297,144,155262,1,0,0:0:0:0:
40,20,155396,2,0,P|24:64|25:121,1,101.999996887207
336,72,155664,2,0,P|284:64|232:52,1,101.999996887207
304,316,155932,6,0,P|396:300|528:288,1,203.999993774414
232,260,156334,1,0,0:0:0:0:
428,40,156468,2,0,P|416:84|404:144,1,101.999996887207
160,100,156736,1,0,0:0:0:0:
224,344,156870,1,0,0:0:0:0:
84,151,157004,6,0,P|84:53|168:4,1,203.999993774414
312,232,157405,1,0,0:0:0:0:
48,328,157539,2,0,P|42:277|32:224,1,101.999996887207
388,284,157807,2,0,P|388:333|368:380,1,101.999996887207
240,56,158075,5,0,0:0:0:0:
304,316,158209,1,0,0:0:0:0:
304,316,158276,1,0,0:0:0:0:
304,316,158343,1,0,0:0:0:0:
508,148,158477,1,0,0:0:0:0:
160,100,158611,6,0,P|168:148|172:216,1,101.999996887207
472,344,158879,2,0,P|421:348|372:376,1,101.999996887207
80,216,159146,6,0,P|145:287|240:264,1,203.999993774414
320,16,159548,1,0,0:0:0:0:
460,224,159682,2,0,P|420:216|360:208,1,101.999996887207
132,20,159951,2,0,P|168:16|232:3,1,101.999996887207
16,276,160218,5,0,0:0:0:0:
260,184,160352,1,0,0:0:0:0:
48,44,160486,1,0,0:0:0:0:
96,304,160620,1,0,0:0:0:0:
324,124,160754,2,0,P|313:225|309:327,1,203.999993774414
252,72,161155,1,0,0:0:0:0:
392,288,161289,6,0,P|442:287|487:265,1,101.999996887207
140,156,161557,2,0,P|150:205|159:256,1,101.999996887207
480,92,161825,1,0,0:0:0:0:
388,372,161959,1,0,0:0:0:0:
324,124,162093,1,0,0:0:0:0:
468,336,162227,1,0,0:0:0:0:
159,256,162361,6,0,P|115:248|47:244,1,101.999996887207
288,40,162629,2,0,P|332:48|400:52,1,101.999996887207
420,332,162897,5,0,0:0:0:0:
412,316,162964,1,0,0:0:0:0:
416,292,163031,1,0,0:0:0:0:
412,272,163098,1,0,0:0:0:0:
420,244,163165,1,0,0:0:0:0:
408,224,163232,1,0,0:0:0:0:
412,204,163299,1,0,0:0:0:0:
404,180,163366,1,0,0:0:0:0:
404,156,163433,5,0,0:0:0:0:
204,24,163567,1,0,0:0:0:0:
464,96,163701,1,0,0:0:0:0:
164,160,163835,5,0,0:0:0:0:
444,16,163969,1,0,0:0:0:0:
356,292,164103,1,0,0:0:0:0:
128,76,164237,5,0,0:0:0:0:
488,176,164371,1,0,0:0:0:0:
160,252,164505,1,0,0:0:0:0:
364,28,164639,5,0,0:0:0:0:
440,324,164772,1,0,0:0:0:0:
164,160,164906,1,0,0:0:0:0:
508,260,165040,5,0,0:0:0:0:
120,336,165174,1,0,0:0:0:0:
404,156,165308,1,0,0:0:0:0:
88,204,165442,5,0,0:0:0:0:
424,240,165576,1,0,0:0:0:0:
128,76,165710,1,0,0:0:0:0:
52,384,165844,5,0,0:0:0:0:
0,32,165978,1,0,0:0:0:0:
208,332,166112,1,0,0:0:0:0:
312,16,166245,5,0,0:0:0:0:
276,384,166380,1,0,0:0:0:0:
464,96,166514,1,0,0:0:0:0:
128,76,166646,6,0,P|204:68|252:60,1,101.999996887207
508,260,166915,2,0,P|432:268|384:276,1,101.999996887207
124,368,167183,2,0,P|118:317|138:271,1,101.999996887207
392,352,167450,1,0,0:0:0:0:
464,96,167584,1,0,0:0:0:0:
208,332,167718,6,0,P|200:232|184:124,1,203.999993774414
406,271,168120,1,0,0:0:0:0:
244,60,168254,2,0,P|196:56|120:44,1,101.999996887207
32,316,168521,2,0,P|80:296|136:300,1,101.999996887207
392,352,168790,5,0,0:0:0:0:
140,212,168924,1,0,0:0:0:0:
376,100,169058,2,0,P|364:144|352:228,1,101.999996887207
296,384,169326,1,0,0:0:0:0:
244,60,169459,1,0,0:0:0:0:
129,298,169593,1,0,0:0:0:0:
436,192,169727,1,0,0:0:0:0:
120,128,169861,6,0,P|112:77|103:27,1,101.999996887207
454,97,170129,2,0,P|458:149|430:197,1,101.999996887207
164,336,170397,1,0,0:0:0:0:
244,96,170531,1,0,0:0:0:0:
432,284,170664,2,0,P|381:289|330:296,1,101.999996887207
64,176,170933,6,0,B|64:144|64:144|56:112,1,63.75
236,168,171201,6,0,B|232:200|232:200|236:220|236:220|224:288|224:288|228:308|228:308|220:360|220:360|256:292,1,255
316,111,171468,6,0,B|308:119|308:119|312:100|312:100|310:87|310:87|320:27|320:27|292:59,1,127.5
160,92,171736,5,0,0:0:0:0:
368,176,171870,1,0,0:0:0:0:
64,176,172004,6,0,P|40:284|28:376,1,187.000005706787
236,168,172406,1,0,0:0:0:0:
16,104,172540,2,0,P|12:44|0:0,1,93.5000028533936
220,252,172808,2,0,P|212:292|204:352,1,93.5000028533936
296,100,173076,6,0,P|388:92|504:72,1,187.000005706787
236,168,173477,1,0,0:0:0:0:
364,360,173611,2,0,P|312:344|264:336,1,93.5000028533936
424,164,173879,2,0,P|464:174|520:184,1,93.5000028533936
152,168,174147,6,0,P|140:56|208:8,1,187.000005706787
384,92,174549,1,0,0:0:0:0:
172,256,174683,2,0,P|121:253|84:228,1,93.5000028533936
382,267,174951,2,0,P|371:313|363:359,1,93.5000028533936
216,100,175218,1,0,0:0:0:0:
128,336,175352,1,0,0:0:0:0:
128,336,175419,1,0,0:0:0:0:
128,336,175486,1,0,0:0:0:0:
0,128,175620,1,0,0:0:0:0:
224,248,175754,5,0,0:0:0:0:
0,208,175888,1,0,0:0:0:0:
288,308,176022,1,0,0:0:0:0:
32,352,176156,1,0,0:0:0:0:
256,384,176290,6,0,P|264:268|272:184,1,187.000005706787
328,16,176692,1,0,0:0:0:0:
160,132,176826,2,0,P|176:176|172:232,1,93.5000028533936
476,104,177093,2,0,P|437:100|376:88,1,93.5000028533936
288,308,177361,6,0,P|368:336|444:256,1,187.000005706787
244,136,177763,1,0,0:0:0:0:
208,368,177897,2,0,P|204:324|196:264,1,93.5000028533936
96,60,178165,2,0,P|72:104|76:160,1,93.5000028533936
288,256,178433,6,0,P|188:244|88:228,1,187.000005706787
324,176,178834,1,0,0:0:0:0:
152,360,178968,2,0,P|204:352|260:348,1,93.5000028533936
412,157,179236,2,0,P|370:176|323:175,1,93.5000028533936
152,4,179504,5,0,0:0:0:0:
85,236,179638,1,0,0:0:0:0:
323,175,179772,1,0,0:0:0:0:
64,160,179906,1,0,0:0:0:0:
64,160,179973,1,0,0:0:0:0:
64,160,180040,1,0,0:0:0:0:
308,40,180174,1,0,0:0:0:0:
340,304,180308,1,0,0:0:0:0:
140,88,180442,1,0,0:0:0:0:
448,192,180576,6,0,B|440:260|440:260|441:277|441:277|434:293|434:293|420:380,1,178.499994552612
408,380,180843,1,0,0:0:0:0:
252,212,180977,2,0,B|235:80|235:80|248:104|266:112,1,178.499994552612
308,40,181245,1,0,0:0:0:0:
340,304,181379,6,0,B|261:294|261:294|238:299|238:299|136:285,1,178.499994552612
152,276,181647,1,0,0:0:0:0:
80,32,181781,2,0,B|-4:64|-4:64|72:120,1,178.499994552612
140,88,182049,1,0,0:0:0:0:
136,360,182183,5,0,0:0:0:0:
328,260,182317,1,0,0:0:0:0:
64,208,182451,2,0,B|56:256|56:256|76:312,1,93.5000028533936
220,116,182718,6,0,B|289:106|289:106|305:109|305:109|321:102|321:102|428:88,1,178.499994552612
408,104,182986,1,0,0:0:0:0:
512,304,183120,2,0,B|460:374|460:374|424:282,1,178.499994552612
480,228,183388,1,0,0:0:0:0:
316,82,183522,6,0,B|325:163|325:163|320:188|320:188|328:260,1,178.499994552612
320,276,183790,1,0,0:0:0:0:
240,32,183924,2,0,B|112:15|112:15|136:28|149:52,1,178.499994552612
76,88,184192,1,0,0:0:0:0:
316,82,184326,5,0,0:0:0:0:
24,16,184459,1,0,0:0:0:0:
232,240,184593,2,0,B|248:196|248:196|243:144,1,93.5000028533936
32,372,184861,5,0,0:0:0:0:
168,180,184995,1,0,0:0:0:0:
340,320,185129,1,0,0:0:0:0:
88,176,185263,2,0,P|100:261|112:380,1,187.000005706787
280,116,185665,2,0,P|228:116|184:88,1,93.5000028533936
340,320,185933,1,0,0:0:0:0:
360,92,186067,6,0,P|448:72|512:140,1,187.000005706787
264,240,186468,1,0,0:0:0:0:
296,32,186602,1,0,0:0:0:0:
340,320,186736,6,0,P|344:272|348:248,1,63.75
207,299,187004,5,0,0:0:0:0:
194,339,187071,1,0,0:0:0:0:
158,364,187138,1,0,0:0:0:0:
116,365,187205,1,0,0:0:0:0:
79,348,187272,1,0,0:0:0:0:
58,311,187339,1,0,0:0:0:0:
57,270,187406,1,0,0:0:0:0:
78,233,187473,1,0,0:0:0:0:
106,212,187540,1,0,0:0:0:0:
152,190,187607,1,0,0:0:0:0:
173,154,187674,1,0,0:0:0:0:
172,112,187741,1,0,0:0:0:0:
151,75,187808,1,0,0:0:0:0:
113,56,187875,1,0,0:0:0:0:
71,58,187942,1,0,0:0:0:0:
37,83,188009,1,0,0:0:0:0:
24,125,188076,5,0,0:0:0:0:
73,118,188143,1,0,0:0:0:0:
121,136,188210,1,0,0:0:0:0:
156,175,188277,1,0,0:0:0:0:
165,225,188344,1,0,0:0:0:0:
188,180,188411,1,0,0:0:0:0:
232,149,188478,1,0,0:0:0:0:
285,148,188545,1,0,0:0:0:0:
326,178,188612,1,0,0:0:0:0:
351,220,188679,1,0,0:0:0:0:
350,269,188746,1,0,0:0:0:0:
384,311,188813,1,0,0:0:0:0:
432,323,188880,1,0,0:0:0:0:
479,301,188947,1,0,0:0:0:0:
498,255,189014,1,0,0:0:0:0:
486,206,189081,1,0,0:0:0:0:
446,173,189147,5,0,0:0:0:0:
88,132,191290,5,0,0:0:0:0:
424,164,193433,5,0,0:0:0:0:
103,148,195576,5,0,0:0:0:0:
404,156,197183,5,0,0:0:0:0:
404,156,197250,1,0,0:0:0:0:
404,156,197317,2,0,P|380:128|368:88,1,63.7500024318696
272,216,197451,2,0,P|248:240|232:276,1,63.7500024318696
160,84,197585,2,0,L|172:16,1,63.7500024318696
52,216,197718,5,0,0:0:0:0:
55,259,197785,1,0,0:0:0:0:
80,293,197852,1,0,0:0:0:0:
119,308,197919,1,0,0:0:0:0:
161,303,197986,1,0,0:0:0:0:
190,273,198053,1,0,0:0:0:0:
199,232,198120,1,0,0:0:0:0:
189,190,198187,1,0,0:0:0:0:
156,161,198254,1,0,0:0:0:0:
194,179,198321,1,0,0:0:0:0:
235,187,198388,1,0,0:0:0:0:
276,177,198455,1,0,0:0:0:0:
304,145,198522,1,0,0:0:0:0:
324,105,198589,1,0,0:0:0:0:
351,73,198656,1,0,0:0:0:0:
391,65,198723,1,0,0:0:0:0:
431,81,198790,5,0,0:0:0:0:
452,116,198857,1,0,0:0:0:0:
452,160,198924,1,0,0:0:0:0:
427,194,198991,1,0,0:0:0:0:
387,210,199058,1,0,0:0:0:0:
352,235,199125,1,0,0:0:0:0:
332,272,199192,1,0,0:0:0:0:
329,314,199259,1,0,0:0:0:0:
343,353,199326,1,0,0:0:0:0:
372,383,199393,1,0,0:0:0:0:
379,341,199459,1,0,0:0:0:0:
364,301,199526,1,0,0:0:0:0:
332,272,199593,1,0,0:0:0:0:
289,265,199660,1,0,0:0:0:0:
247,275,199727,1,0,0:0:0:0:
215,303,199794,1,0,0:0:0:0:
199,342,199862,5,0,0:0:0:0:
196,291,199928,1,0,0:0:0:0:
163,251,199995,1,0,0:0:0:0:
112,243,200062,1,0,0:0:0:0:
61,238,200129,1,0,0:0:0:0:
21,205,200196,1,0,0:0:0:0:
13,154,200263,1,0,0:0:0:0:
37,109,200330,1,0,0:0:0:0:
85,93,200397,1,0,0:0:0:0:
134,103,200464,1,0,0:0:0:0:
164,143,200531,1,0,0:0:0:0:
210,164,200598,1,0,0:0:0:0:
260,154,200665,1,0,0:0:0:0:
290,113,200732,1,0,0:0:0:0:
299,62,200799,1,0,0:0:0:0:
266,22,200866,1,0,0:0:0:0:
217,5,200933,5,0,0:0:0:0:
237,51,201000,1,0,0:0:0:0:
226,100,201067,1,0,0:0:0:0:
243,147,201134,1,0,0:0:0:0:
225,194,201201,1,0,0:0:0:0:
256,233,201267,1,0,0:0:0:0:
245,282,201334,1,0,0:0:0:0:
267,328,201401,1,0,0:0:0:0:
251,375,201468,1,0,0:0:0:0:
281,334,201535,1,0,0:0:0:0:
327,307,201602,1,0,0:0:0:0:
379,311,201669,1,0,0:0:0:0:
419,339,201736,1,0,0:0:0:0:
471,331,201803,1,0,0:0:0:0:
497,292,201870,1,0,0:0:0:0:
489,240,201937,1,0,0:0:0:0:
445,216,202004,6,0,P|416:220|372:224,1,63.75
228,326,202272,5,0,0:0:0:0:
175,297,202339,1,0,0:0:0:0:
154,241,202406,1,0,0:0:0:0:
175,184,202473,1,0,0:0:0:0:
224,149,202540,1,0,0:0:0:0:
283,158,202607,1,0,0:0:0:0:
318,206,202674,1,0,0:0:0:0:
365,243,202741,1,0,0:0:0:0:
424,248,202808,1,0,0:0:0:0:
475,217,202875,1,0,0:0:0:0:
505,166,202942,1,0,0:0:0:0:
494,107,203009,1,0,0:0:0:0:
454,62,203076,5,0,0:0:0:0:
415,106,203142,1,0,0:0:0:0:
357,122,203209,1,0,0:0:0:0:
300,101,203276,1,0,0:0:0:0:
269,49,203343,1,0,0:0:0:0:
287,105,203410,1,0,0:0:0:0:
269,162,203477,1,0,0:0:0:0:
216,192,203544,1,0,0:0:0:0:
156,182,203611,1,0,0:0:0:0:
99,162,203678,1,0,0:0:0:0:
41,178,203745,1,0,0:0:0:0:
5,226,203812,1,0,0:0:0:0:
12,285,203879,1,0,0:0:0:0:
53,327,203946,1,0,0:0:0:0:
124,344,204013,5,0,0:0:0:0:
124,344,204080,1,0,0:0:0:0:
124,344,204147,2,0,L|222:332,1,72.2500013780594
340,170,204281,5,0,0:0:0:0:
340,170,204348,1,0,0:0:0:0:
340,170,204415,2,0,L|242:158,1,72.2500013780594
444,356,204549,5,0,0:0:0:0:
444,356,204616,1,0,0:0:0:0:
444,356,204683,2,0,P|446:317|469:266,1,72.2500013780594
257,91,204817,5,0,0:0:0:0:
257,91,204884,1,0,0:0:0:0:
257,91,204951,2,0,P|268:125|269:161,1,72.2500013780594
124,344,205084,5,0,0:0:0:0:
124,344,205151,1,0,0:0:0:0:
124,344,205218,1,0,0:0:0:0:
124,344,205486,6,0,P|63:271|157:268,1,233.75
136,356,206290,6,0,B|128:256|128:256|136:220|136:220|124:96,1,237.999992736817
328,272,206692,1,0,0:0:0:0:
464,28,206826,2,0,B|472:88|472:88|454:145,1,118.999996368408
76,32,207093,2,0,L|212:52,1,118.999996368408
444,264,207361,6,0,B|359:274|359:274|327:270|327:270|303:282|303:282|204:296,1,237.999992736817
508,204,207763,1,0,0:0:0:0:
126,119,207897,2,0,B|114:179|114:179|134:233,1,118.999996368408
432,348,208165,1,0,0:0:0:0:
292,68,208299,1,0,0:0:0:0:
68,280,208433,6,0,B|20:324|20:324|40:148,1,237.999992736817
224,380,208834,1,0,0:0:0:0:
208,56,208968,2,0,L|193:188,1,118.999996368408
432,348,209236,2,0,B|452:292|452:292|447:216,1,118.999996368408
144,328,209504,5,0,0:0:0:0:
368,280,209638,1,0,0:0:0:0:
368,280,209705,1,0,0:0:0:0:
368,280,209772,1,0,0:0:0:0:
126,119,209906,1,0,0:0:0:0:
342,369,210040,2,0,L|206:381,1,118.999996368408
344,128,210308,2,0,L|480:140,1,118.999996368408
136,4,210576,6,0,B|116:188|116:188|148:268,1,237.999992736817
352,40,210977,1,0,0:0:0:0:
228,352,211111,2,0,B|264:304|264:304|192:260,1,118.999996368408
8,48,211379,2,0,L|16:176,1,118.999996368408
344,128,211647,5,0,0:0:0:0:
144,328,211781,1,0,0:0:0:0:
396,208,211915,1,0,0:0:0:0:
136,4,212049,1,0,0:0:0:0:
479,167,212183,2,0,B|527:143|527:143|343:127,1,237.999992736817
252,384,212584,1,0,0:0:0:0:
15,166,212718,6,0,L|159:182,1,118.999996368408
460,268,212986,2,0,B|406:291|406:291|346:283,1,118.999996368408
152,88,213254,1,0,0:0:0:0:
168,368,213388,1,0,0:0:0:0:
236,48,213522,1,0,0:0:0:0:
40,248,213656,1,0,0:0:0:0:
320,12,213790,6,0,B|328:72|328:72|308:152,1,118.999996368408
454,384,214058,2,0,B|446:324|446:324|460:267,1,118.999996368408
152,88,214326,5,0,0:0:0:0:
162,107,214393,1,0,0:0:0:0:
157,136,214460,1,0,0:0:0:0:
162,160,214527,1,0,0:0:0:0:
152,193,214594,1,0,0:0:0:0:
167,217,214661,1,0,0:0:0:0:
162,241,214728,1,0,0:0:0:0:
172,270,214795,1,0,0:0:0:0:
172,299,214862,5,0,0:0:0:0:
304,104,214995,1,0,0:0:0:0:
80,264,215129,1,0,0:0:0:0:
372,160,215263,5,0,0:0:0:0:
88,20,215397,1,0,0:0:0:0:
224,368,215531,1,0,0:0:0:0:
236,48,215665,5,0,0:0:0:0:
136,376,215799,1,0,0:0:0:0:
384,76,215933,1,0,0:0:0:0:
16,204,216067,5,0,0:0:0:0:
360,244,216201,1,0,0:0:0:0:
40,352,216334,1,0,0:0:0:0:
448,216,216468,5,0,0:0:0:0:
80,264,216602,1,0,0:0:0:0:
488,376,216736,1,0,0:0:0:0:
152,88,216870,5,0,0:0:0:0:
404,372,217004,1,0,0:0:0:0:
320,12,217138,1,0,0:0:0:0:
224,368,217272,5,0,0:0:0:0:
464,48,217406,1,0,0:0:0:0:
16,204,217540,1,0,0:0:0:0:
448,216,217674,5,0,0:0:0:0:
104,8,217808,1,0,0:0:0:0:
312,368,217942,1,0,0:0:0:0:
464,48,218076,6,0,B|453:166,1,118.999996368408
224,368,218343,2,0,L|216:216,1,118.999996368408
37,75,218611,2,0,B|93:96|93:96|152:87,1,118.999996368408
392,324,218879,1,0,0:0:0:0:
84,176,219013,1,0,0:0:0:0:
324,48,219147,6,0,B|316:148|316:148|324:184|324:184|312:308,1,237.999992736817
151,87,219549,1,0,0:0:0:0:
512,140,219683,2,0,B|452:148|452:148|396:124,1,118.999996368408
193,375,219951,2,0,L|325:367,1,118.999996368408
8,212,220218,5,0,0:0:0:0:
314,284,220352,1,0,0:0:0:0:
228,20,220486,2,0,L|236:156,1,118.999996368408
92,378,220754,1,0,0:0:0:0:
152,88,220888,1,0,0:0:0:0:
392,324,221022,1,0,0:0:0:0:
84,280,221156,1,0,0:0:0:0:
398,124,221290,6,0,B|404:184|404:184|384:240,1,118.999996368408
33,73,221558,2,0,L|161:89,1,118.999996368408
320,368,221826,1,0,0:0:0:0:
300,96,221959,1,0,0:0:0:0:
84,280,222093,2,0,B|78:220|78:220|98:164,1,118.999996368408
454,316,222361,6,0,L|391:323,1,63.75
212,188,222629,6,0,B|224:192|224:192|252:176|252:176|264:180|264:180|344:168|344:168|360:160|360:160|336:188|336:236|336:236|316:208,1,255
168,276,222897,6,0,B|176:268|176:268|157:272|157:272|144:270|144:270|84:280|84:280|112:252,1,127.5
320,368,223164,5,0,0:0:0:0:
136,136,223298,1,0,0:0:0:0:
412,88,223433,6,0,B|327:78|327:78|295:82|295:82|271:70|271:70|178:56,1,237.999992736817
128,340,223835,1,0,0:0:0:0:
21,146,223969,2,0,B|77:154|77:154|138:136,1,118.999996368408
380,288,224236,2,0,L|398:171,1,118.999996368408
79,10,224504,6,0,B|60:60|60:60|80:244,1,237.999992736817
328,120,224906,1,0,0:0:0:0:
128,340,225040,2,0,L|11:322,1,118.999996368408
148,124,225308,1,0,0:0:0:0:
216,384,225442,1,0,0:0:0:0:
408,68,225576,6,0,B|427:239|427:239|379:195,1,237.999992736817
204,296,225977,1,0,0:0:0:0:
492,384,226111,2,0,L|510:266,1,118.999996368408
311,4,226379,2,0,B|308:64|308:64|328:120,1,118.999996368408
128,252,226647,5,0,0:0:0:0:
408,68,226781,1,0,0:0:0:0:
408,68,226848,1,0,0:0:0:0:
408,68,226915,1,0,0:0:0:0:
64,96,227049,1,0,0:0:0:0:
396,312,227183,2,0,B|336:304|336:304|256:332,1,118.999996368408
132,52,227451,2,0,L|268:68,1,118.999996368408
192,376,227718,6,0,B|184:276|184:276|192:240|192:240|180:116,1,237.999992736817
56,292,228120,1,0,0:0:0:0:
272,112,228254,2,0,B|312:156|312:156|252:204,1,118.999996368408
0,128,228522,2,0,L|8:4,1,118.999996368408
168,296,228790,5,0,0:0:0:0:
132,52,228924,1,0,0:0:0:0:
108,360,229058,1,0,0:0:0:0:
0,128,229192,1,0,0:0:0:0:
344,228,229326,6,0,B|294:247|294:247|108:224,1,237.999992736817
324,364,229727,1,0,0:0:0:0:
376,96,229861,6,0,L|494:85,1,118.999996368408
224,232,230129,2,0,B|216:292|216:292|239:346,1,118.999996368408
300,44,230397,1,0,0:0:0:0:
392,308,230531,1,0,0:0:0:0:
188,156,230665,1,0,0:0:0:0:
494,84,230799,1,0,0:0:0:0:
144,80,230933,6,0,B|87:94|87:94|27:86,1,118.999996368408
344,228,231201,2,0,B|401:214|401:214|461:222,1,118.999996368408
168,367,231469,5,0,0:0:0:0:
178,348,231536,1,0,0:0:0:0:
173,319,231603,1,0,0:0:0:0:
178,295,231670,1,0,0:0:0:0:
168,262,231737,1,0,0:0:0:0:
183,238,231804,1,0,0:0:0:0:
178,214,231871,1,0,0:0:0:0:
188,185,231938,1,0,0:0:0:0:
188,156,232005,5,0,0:0:0:0:
392,308,232138,1,0,0:0:0:0:
108,192,232272,5,0,0:0:0:0:
436,156,232406,1,0,0:0:0:0:
40,136,232540,5,0,0:0:0:0:
472,236,232674,1,0,0:0:0:0:
168,367,232808,5,0,0:0:0:0:
72,56,232942,1,0,0:0:0:0:
244,328,233076,5,0,0:0:0:0:
288,4,233210,1,0,0:0:0:0:
320,356,233344,5,0,0:0:0:0:
208,24,233477,1,0,0:0:0:0:
512,312,233611,5,0,0:0:0:0:
136,280,233745,1,0,0:0:0:0:
496,92,233879,5,0,0:0:0:0:
108,192,234013,1,0,0:0:0:0:
472,236,234147,5,0,0:0:0:0:
72,56,234281,1,0,0:0:0:0:
400,384,234415,5,0,0:0:0:0:
444,16,234549,1,0,0:0:0:0:
48,256,234683,5,0,0:0:0:0:
472,236,234817,1,0,0:0:0:0:
208,24,234951,5,0,0:0:0:0:
456,320,235085,1,0,0:0:0:0:
60,370,235218,6,0,B|39:314|39:314|48:255,1,118.999996368408
268,40,235486,2,0,L|140:52,1,118.999996368408
337,308,235754,2,0,L|466:320,1,118.999996368408
152,372,236022,1,0,0:0:0:0:
352,84,236156,1,0,0:0:0:0:
64,348,236290,6,0,B|54:263|54:263|58:231|58:231|46:207|46:207|32:108,1,237.999992736817
240,256,236692,1,0,0:0:0:0:
432,36,236826,2,0,B|440:96|440:96|416:152,1,118.999996368408
496,384,237094,2,0,L|509:265,1,118.999996368408
232,336,237361,5,0,0:0:0:0:
352,84,237495,1,0,0:0:0:0:
48,204,237629,2,0,L|184:196,1,118.999996368408
440,180,237897,1,0,0:0:0:0:
160,28,238031,1,0,0:0:0:0:
312,352,238165,1,0,0:0:0:0:
436,96,238299,1,0,0:0:0:0:
152,372,238433,5,0,0:0:0:0:
436,328,238567,1,0,0:0:0:0:
120,256,238701,1,0,0:0:0:0:
380,264,238834,1,0,0:0:0:0:
128,168,238968,1,0,0:0:0:0:
436,152,239102,1,0,0:0:0:0:
104,36,239236,1,0,0:0:0:0:
408,72,239370,1,0,0:0:0:0:
48,204,239504,5,0,0:0:0:0:
256,192,239571,12,0,240576,0:0:0:0:
