osu file format v14

[General]
AudioFilename: Araki - Anti Beat [VOSTFR].mp3
AudioLeadIn: 0
PreviewTime: -1
Countdown: 1
SampleSet: Normal
StackLeniency: 0.7
Mode: 0
LetterboxInBreaks: 1
WidescreenStoryboard: 0

[Editor]
DistanceSpacing: 1.1
BeatDivisor: 4
GridSize: 4
TimelineZoom: 1

[Metadata]
Title:Anti Beat
TitleUnicode:Anti Beat
Artist:Araki
ArtistUnicode:Araki
Creator:lukairata
Version:Anchibiito
Source:
Tags:
BeatmapID:1438864
BeatmapSetID:680504

[Difficulty]
HPDrainRate:6
CircleSize:4
OverallDifficulty:6
ApproachRate:6
SliderMultiplier:1.20000000596046
SliderTickRate:1

[Events]
//Background and Video events
//Break Periods
//Storyboard Layer 0 (Background)
//Storyboard Layer 1 (Fail)
//Storyboard Layer 2 (Pass)
//Storyboard Layer 3 (Foreground)
//Storyboard Sound Samples

[TimingPoints]
558,370.37037037037,4,1,0,100,1,0

[Colours]
Combo1 : 0,0,128
Combo2 : 255,255,255
Combo3 : 56,171,200
Combo4 : 255,66,66

[HitObjects]
382,104,558,5,0,0:0:0:0:
364,201,835,1,0,0:0:0:0:
290,135,1113,2,0,P|220:128|145:219,1,180.00000089407
126,332,2039,1,0,0:0:0:0:
148,217,2317,1,0,0:0:0:0:
236,295,2595,2,0,P|319:303|400:220,1,180.00000089407
388,112,3520,5,0,0:0:0:0:
363,243,3798,1,0,0:0:0:0:
263,155,4076,2,0,P|168:145|85:212,1,180.00000089407
111,322,5002,1,0,0:0:0:0:
140,166,5280,1,0,0:0:0:0:
260,272,5558,2,0,P|372:283|444:237,1,180.00000089407
419,87,6483,6,0,L|417:184,1,90.0000004470345
416,275,7039,2,0,L|420:73,1,180.000000894069
287,95,7965,2,0,L|182:94,1,90.0000004470345
97,92,8520,2,0,L|293:97,1,180.000000894069
294,227,9446,6,0,L|294:119,1,90.0000004470345
296,37,10002,2,0,L|293:240,1,180.000000894069
161,221,10928,2,0,L|252:223,1,90.0000004470345
349,224,11483,2,0,L|160:221,1,180.000000894069
152,192,12132,5,0,0:0:0:0:
141,161,12226,1,0,0:0:0:0:
135,128,12318,1,0,0:0:0:0:
135,95,12409,2,0,P|170:70|219:82,1,90.0000004470345
238,101,12780,1,0,0:0:0:0:
268,159,12965,6,0,P|340:196|384:176,1,120.000000596046
425,146,13520,1,0,0:0:0:0:
330,53,13891,2,0,B|268:33|228:80|229:80,1,90.0000004470345
219,88,14261,1,0,0:0:0:0:
163,123,14446,2,0,P|108:188|117:231,1,120.000000596046
143,274,15002,1,0,0:0:0:0:
258,338,15372,6,0,P|328:330|344:293,1,90.0000004470345
342,286,15743,1,0,0:0:0:0:
329,221,15928,2,0,P|342:159|393:158,1,120.000000596046
421,214,16483,1,0,0:0:0:0:
404,344,16854,6,0,P|324:348|304:344,1,90.0000004470345
280,344,17224,1,0,0:0:0:0:
216,344,17409,2,0,P|172:312|224:280,1,120.000000596046
276,272,17965,1,0,0:0:0:0:
388,200,18335,5,0,0:0:0:0:
432,112,18613,2,0,L|432:80,1,30.0000001490115
376,48,18891,1,0,0:0:0:0:
244,44,19261,2,0,L|184:44,1,60.000000298023
84,128,19817,5,0,0:0:0:0:
104,224,20095,2,0,L|112:252,1,30.0000001490115
160,300,20372,1,0,0:0:0:0:
292,320,20743,2,0,L|336:280,1,60.000000298023
228,204,21298,5,0,0:0:0:0:
176,120,21576,2,0,L|172:88,1,30.0000001490115
208,36,21854,1,0,0:0:0:0:
340,44,22224,2,0,L|388:84,1,60.000000298023
372,212,22780,5,0,0:0:0:0:
300,280,23057,6,0,L|248:300,1,30.0000001490115
208,280,23335,1,0,0:0:0:0:
140,168,23706,2,0,L|168:104,1,60.000000298023
228,96,24077,6,0,L|228:128,1,30.0000001490115
236,224,24447,1,0,0:0:0:0:
264,284,24632,1,0,0:0:0:0:
312,332,24817,1,0,0:0:0:0:
376,352,25003,1,0,0:0:0:0:
422,229,25372,6,0,L|419:163,1,60.000000298023
400,105,25743,1,0,0:0:0:0:
355,153,25928,2,0,L|349:228,1,60.000000298023
311,266,26298,5,0,0:0:0:0:
254,231,26483,1,0,0:0:0:0:
194,201,26669,2,0,L|191:132,1,60.000000298023
126,130,27039,2,0,L|117:210,1,60.000000298023
146,319,27595,5,0,0:0:0:0:
211,327,27780,1,0,0:0:0:0:
276,323,27965,1,0,0:0:0:0:
333,290,28150,1,0,0:0:0:0:
387,252,28335,1,0,0:0:0:0:
391,186,28520,1,0,0:0:0:0:
384,119,28706,5,0,0:0:0:0:
384,119,28891,1,0,0:0:0:0:
300,60,29076,1,0,0:0:0:0:
300,60,29261,1,0,0:0:0:0:
254,151,29446,1,0,0:0:0:0:
254,151,29632,1,0,0:0:0:0:
180,80,29817,1,0,0:0:0:0:
180,80,30002,1,0,0:0:0:0:
121,111,30187,1,0,0:0:0:0:
62,140,30372,6,0,P|-4:193|11:230,1,120.000000596046
27,277,30928,1,0,0:0:0:0:
27,277,31020,1,0,0:0:0:0:
27,277,31113,1,0,0:0:0:0:
77,322,31298,2,0,L|132:358,1,60.000000298023
193,348,31669,1,0,0:0:0:0:
258,345,31854,2,0,L|321:330,1,60.000000298023
374,300,32224,5,0,0:0:0:0:
430,265,32409,1,0,0:0:0:0:
403,204,32595,2,0,L|384:127,1,60.000000298023
323,158,32965,2,0,L|345:227,1,60.000000298023
263,108,33520,1,0,0:0:0:0:
204,77,33706,2,0,P|123:108|128:155,1,120.000000596046
121,194,34261,1,0,0:0:0:0:
