osu file format v14

[General]
AudioFilename: ED~1.mp3
AudioLeadIn: 0
PreviewTime: 45188
Countdown: 0
SampleSet: Soft
StackLeniency: 0.2
Mode: 0
LetterboxInBreaks: 0
WidescreenStoryboard: 1

[Editor]
DistanceSpacing: 1.3
BeatDivisor: 4
GridSize: 8
TimelineZoom: 1.5

[Metadata]
Title:TERRITORY (TV Size)
TitleUnicode:TERRITORY(TVサイズ)
Artist:Arakawa Miho, Ikuta Yoshiko & Yamane Nozomi
ArtistUnicode:百合城銀子(CV:荒川美穂)、百合ヶ咲るる(CV:生田善子)、椿輝紅羽(CV:山根希美)
Creator:Hatori-kun
Version:Hard
Source:ユリ熊嵐
Tags:Love Bullet Yuri Kuma Arashi Silver Link Ending 8#Prince HachiojiP
BeatmapID:764571
BeatmapSetID:279239

[Difficulty]
HPDrainRate:5.5
CircleSize:4
OverallDifficulty:6.5
ApproachRate:7
SliderMultiplier:1.44
SliderTickRate:2

[Events]
//Background and Video events
0,0,"yuri_kuma_arashi_6.jpg",0,0
//Break Periods
//Storyboard Layer 0 (Background)
//Storyboard Layer 1 (Fail)
//Storyboard Layer 2 (Pass)
//Storyboard Layer 3 (Foreground)
//Storyboard Sound Samples

[TimingPoints]
167,437.956204379562,4,2,1,55,1,0
3013,-100,4,2,0,5,0,0
3232,-100,4,2,2,55,0,0
3616,-100,4,2,2,5,0,0
3670,-100,4,2,2,55,0,0
7557,-100,4,2,2,5,0,0
7587,-100,4,2,2,55,0,0
10239,-100,4,2,1,55,0,0
10677,-100,4,2,2,55,0,0
14400,-100,4,2,1,55,0,0
14619,-100,4,2,2,55,0,0
15057,-100,4,2,1,55,0,0
15276,-100,4,2,2,55,0,0
18944,-100,4,2,2,5,0,0
18999,-100,4,2,2,55,0,0
20683,-100,4,2,2,5,0,0
20738,-100,4,2,2,55,0,0
22448,-100,4,2,2,5,0,0
22502,-100,4,2,2,55,0,0
25951,-100,4,2,2,5,0,0
26006,-100,4,2,2,55,0,0
27703,-100,4,2,2,5,0,0
27758,-100,4,2,2,55,0,0
30253,-100,4,2,0,55,0,0
31239,-100,4,2,2,55,0,0
31699,454.545454545455,4,2,2,55,1,0
34399,-100,4,2,0,55,0,0
35335,-100,4,2,2,55,0,0
40335,-100,4,2,1,55,0,0
40789,-100,4,2,2,55,0,0
42125,-100,4,2,1,55,0,0
42608,441.176470588235,4,2,2,55,1,0
44372,437.956204379562,4,2,2,55,1,0
45247,-100,4,2,2,5,0,0
45685,-100,4,2,2,55,0,0
46069,-100,4,2,2,5,0,0
46123,-100,4,2,2,55,0,1
50010,-100,4,2,2,5,0,1
50065,-100,4,2,2,55,0,1
51598,-100,4,2,0,55,0,1
51817,-100,4,2,2,55,0,1
52693,-153.846153846153,4,2,2,55,0,1
53076,-100,4,2,0,5,0,1
53131,-100,4,2,2,55,0,1
55266,-100,4,2,2,5,0,1
55320,-100,4,2,2,55,0,1
58605,-100,4,2,0,55,0,1
58824,-100,4,2,2,55,0,1
59919,-100,4,2,2,55,0,0
60138,-100,4,2,2,55,0,1
64025,-100,4,2,2,5,0,1
64080,-100,4,2,2,55,0,1
66707,-153.846153846154,4,2,2,55,0,1
67090,-100,4,2,2,55,0,1
67090,-153.846153846153,4,2,2,5,0,1
67145,-153.846153846153,4,2,2,55,0,0
72401,-100,4,2,2,55,0,0
73715,-66.6666666666667,4,2,2,55,0,0
74153,-100,4,2,2,55,0,0
77601,-100,4,2,2,5,0,0
77656,-100,4,2,2,55,0,0
80722,-100,4,2,0,55,0,0
81160,-100,4,2,2,55,0,0
84882,-100,4,2,0,55,0,0
85101,-100,4,2,2,55,0,0
85539,-100,4,2,0,55,0,0
85977,-100,4,2,2,55,0,0
87729,-100,4,2,1,55,0,0

[Colours]
Combo1 : 0,125,125
Combo2 : 0,128,255
Combo3 : 0,0,160
Combo4 : 253,2,71
Combo5 : 225,0,113
Combo6 : 111,253,153

[HitObjects]
256,192,167,12,0,3232,0:0:0:0:
112,71,3670,6,0,L|102:151,1,72
171,207,4108,1,0,0:0:0:0:
247,153,4327,2,0,P|288:143|338:149,1,72
398,192,4765,1,0,0:0:0:0:
465,127,4984,6,0,L|471:42,1,72
398,192,5422,2,0,L|405:269,1,72
331,322,5860,1,0,0:0:0:0:
257,263,6079,2,0,L|176:258,1,72
106,310,6517,2,0,P|96:270|99:222,1,72
138,155,6955,1,0,0:0:0:0:
138,155,7064,1,0,0:0:0:0:
138,155,7174,5,0,0:0:0:0:
230,170,7393,1,0,0:0:0:0:
248,261,7612,2,0,P|289:272|337:264,1,72
460,319,8050,2,0,P|419:330|371:322,1,72
329,178,8488,5,0,0:0:0:0:
329,178,8707,1,0,0:0:0:0:
308,320,8926,1,0,0:0:0:0:
218,292,9145,2,0,L|130:300,1,72
78,233,9583,1,0,0:0:0:0:
57,141,9802,5,0,0:0:0:0:
207,189,10021,1,0,0:0:0:0:
159,76,10239,6,0,L|171:44,5,24
167,54,10677,6,0,L|253:40,1,72
93,131,11115,2,0,L|-5:123,1,72
159,195,11553,2,0,L|169:280,1,72
248,314,11991,5,0,0:0:0:0:
315,249,12210,2,0,P|352:243|401:253,1,72
241,352,12648,2,0,P|230:305|244:256,1,72
274,197,13086,1,0,0:0:0:0:
324,275,13305,5,0,0:0:0:0:
324,275,13524,1,0,0:0:0:0:
445,249,13743,1,0,0:0:0:0:
445,249,13962,1,0,0:0:0:0:
241,171,14181,5,0,0:0:0:0:
220,262,14400,2,0,L|231:323,2,36
141,210,14838,2,0,P|94:199|53:204,1,72
46,215,15166,1,0,0:0:0:0:
46,215,15276,2,0,L|63:111,1,72
132,86,15714,1,0,0:0:0:0:
193,156,15933,6,0,L|246:163,3,36
228,160,16371,2,0,L|234:250,1,72
255,250,16699,1,0,0:0:0:0:
278,266,16809,6,0,P|326:272|365:264,1,72
428,217,17247,2,0,L|441:117,1,72
368,283,17685,6,0,P|421:302|499:260,2,144
281,319,18780,2,0,L|181:324,1,72
140,257,19218,1,0,0:0:0:0:
193,72,19437,6,0,P|221:132|217:212,2,144
60,204,20750,1,0,0:0:0:0:
213,310,21188,6,0,L|330:299,1,108
346,313,21626,2,0,L|342:219,1,72
402,167,22064,6,0,P|416:98|382:31,2,144
220,213,23378,1,0,0:0:0:0:
190,124,23597,1,0,0:0:0:0:
190,124,23707,1,0,0:0:0:0:
190,124,23816,2,0,L|199:33,1,72
305,165,24254,5,0,0:0:0:0:
137,215,24473,1,0,0:0:0:0:
118,123,24692,6,0,L|129:40,2,72
183,190,25349,1,0,0:0:0:0:
267,231,25568,2,0,L|385:222,1,108
400,235,26006,2,0,P|402:195|376:147,1,72
314,110,26444,5,0,0:0:0:0:
263,188,26663,2,0,L|172:199,1,72
122,132,27101,1,0,0:0:0:0:
122,132,27210,1,0,0:0:0:0:
122,132,27320,2,0,P|110:99|140:29,1,108
159,48,27758,2,0,L|248:42,1,72
255,58,28086,1,0,0:0:0:0:
278,74,28196,5,0,0:0:0:0:
261,166,28415,1,0,0:0:0:0:
110,221,28634,1,0,0:0:0:0:
34,165,28853,1,0,0:0:0:0:
34,165,28962,1,0,0:0:0:0:
34,165,29072,2,0,L|41:297,1,108
60,293,29510,2,0,P|103:298|139:288,1,72
204,168,29948,5,0,0:0:0:0:
294,191,30166,1,0,0:0:0:0:
294,191,30276,2,0,P|295:138|264:68,2,108
366,237,31042,2,0,P|413:243|453:226,1,72
468,147,31480,1,0,0:0:0:0:
467,323,31699,5,0,0:0:0:0:
370,83,32153,1,0,0:0:0:0:
332,339,32608,5,0,0:0:0:0:
268,35,33062,1,0,0:0:0:0:
195,338,33517,5,0,0:0:0:0:
195,338,33971,1,0,0:0:0:0:
120,191,34426,6,0,L|130:93,1,72
147,139,34767,2,0,L|159:35,1,72
229,100,35108,2,0,L|314:91,1,72
389,256,35789,5,0,0:0:0:0:
170,245,36244,1,0,0:0:0:0:
487,125,36699,1,0,0:0:0:0:
348,337,37153,5,0,0:0:0:0:
368,67,37608,1,0,0:0:0:0:
178,193,38062,5,0,0:0:0:0:
178,193,38176,2,0,L|86:189,1,72
82,172,38517,2,0,P|77:136|92:76,1,72
96,75,38858,1,0,0:0:0:0:
118,57,38971,5,0,0:0:0:0:
206,86,39199,1,0,0:0:0:0:
210,179,39426,1,0,0:0:0:0:
139,240,39653,1,0,0:0:0:0:
49,214,39880,1,0,0:0:0:0:
39,120,40108,1,0,0:0:0:0:
109,58,40335,5,0,0:0:0:0:
109,58,40789,6,0,L|186:63,1,72
233,140,41244,2,0,L|321:134,1,72
378,193,41699,2,0,P|390:248|377:287,1,72
316,323,42153,1,0,0:0:0:0:
316,323,42608,6,0,L|257:317,7,36
222,245,43490,6,0,L|152:252,7,36
100,199,44372,6,0,L|58:183,5,24
62,108,44809,6,0,L|46:70,6,24
62,108,45685,6,0,P|115:105|170:118,1,108
