osu file format v9

[General]
AudioFilename: ELSE I'LL HUNT YOU DOWN AND KILL YOU IF YOU DELETE THEM.mp3
AudioLeadIn: 2000
PreviewTime: 30362
Countdown: 0
SampleSet: Soft
StackLeniency: 0.7
Mode: 0
LetterboxInBreaks: 0

[Editor]
DistanceSpacing: 1.2
BeatDivisor: 1
GridSize: 4

[Metadata]
Title:Skype x Can Can
Artist:Ara Potato
Creator:Real
Version:Insane
Source:Nico Nico Douga
Tags:MoodyRPG Mapper 31 Mapper_31 samiljul Serval Deif Collab Collaboration Mutsuhiko Izumi Tengoku to Jigoku jubeat [Ryuu]

[Difficulty]
HPDrainRate:7
CircleSize:5
OverallDifficulty:8
ApproachRate:9
SliderMultiplier:1.9
SliderTickRate:2

[Events]
//Background and Video events
0,0,"So you are looking at my map's folder.jpg"
//Break Periods
//Storyboard Layer 0 (Background)
//Storyboard Layer 1 (Fail)
//Storyboard Layer 2 (Pass)
//Storyboard Layer 3 (Foreground)
//Storyboard Sound Samples
//Background Colour Transformations
3,100,163,162,255

[TimingPoints]
1460,307.471558880804,4,2,1,100,1,0
27902,307.471558880804,4,2,1,100,1,0
30362,-100,4,2,1,100,0,1
49732,-100,4,2,1,100,0,0
64798,-100,4,2,1,100,0,1
83246,-100,4,2,1,100,0,0

[Colours]
Combo1 : 89,255,94
Combo2 : 155,205,255
Combo3 : 233,233,243
Combo4 : 253,228,55
Combo5 : 255,94,94

[HitObjects]
488,148,1460,2,0,B|384:88|404:-38|561:-38|561:119|435:139|375:34,1,380,0|2
24,236,2689,2,0,B|128:296|108:422|-49:422|-49:265|77:245|137:350,1,380,0|2
510,293,3919,6,0,B|506:239|466:212,1,95
455,104,4227,2,0,B|401:107|374:147,1,95
254,164,4534,2,0,B|257:217|297:244,1,95,0|0
324,352,4842,2,0,B|377:348|404:308,1,95
368,192,5149,6,0,B|416:104,1,95,2|0
296,120,5457,2,0,B|311:20,1,95,2|0
210,119,5764,2,0,B|196:26,1,95,2|0
137,191,6072,2,0,B|92:108,1,95,2|0
200,272,6379,6,0,B|256:192,1,95,4|2
380,192,6687,1,0
504,192,6840,2,0,B|449:269,1,95,2|0
381,354,7148,1,2
300,273,7301,1,0
380,192,7455,1,2
288,112,7609,6,0,B|332:82|336:28,1,95,0|2
449,33,7916,2,0,B|452:86|497:116,1,95,0|2
440,216,8224,2,0,B|392:192|344:216,1,95,0|2
392,320,8531,1,0
256,112,8839,5,2
152,160,8993,1,2
200,264,9146,1,0
304,216,9300,1,0
352,112,9454,5,2
456,160,9607,1,2
408,264,9761,1,0
304,216,9915,1,0
256,320,10069,5,2
256,320,10146,1,2
256,320,10222,1,0
184,232,10376,1,2
184,232,10453,1,2
184,232,10530,1,0
272,160,10684,1,2
272,160,10761,1,2
272,160,10837,1,0
344,248,10991,1,2
344,248,11068,1,2
344,248,11145,1,0
432,192,11299,6,0,B|448:148|448:148|432:104,1,95,4|2
344,24,11606,2,0,B|328:68|328:68|344:112,1,95,0|2
256,184,11914,1,0
256,184,12067,1,2
175,264,12221,1,0
175,264,12375,1,2
288,288,12528,2,0,B|336:312|384:288,1,95
336,184,12836,2,0,B|338:135|383:105,1,95,2|0
448,200,13143,2,0,B|488:226|491:280,2,95,0|2|2
264,288,13758,6,0,B|216:312|168:288,1,95,2|2
112,192,14066,1,0
112,192,14220,1,0
172,77,14373,2,0,B|216:56|264:80,1,95,2|2
304,192,14681,1,0
304,192,14835,1,0
404,140,14988,6,0,B|404:188,2,47.5,2|0|2
476,232,15296,2,0,B|476:184,2,47.5,2|0|2
452,344,15603,2,0,B|404:372|361:346,2,95,2|0|2
216,104,16218,6,0,B|216:152|256:192|256:192|296:232|296:272,1,190,6|0
296,104,16833,2,0,B|296:152|256:192|256:192|216:232|216:272,1,190,6|0
52,104,17448,5,0
84,216,17602,1,2
176,152,17755,1,0
256,232,17909,1,2
336,152,18063,1,0
428,216,18217,1,2
460,104,18370,1,0
256,136,18678,5,6
144,336,18985,1,2
368,336,19293,1,4
256,136,19600,1,0
32,192,19908,6,0,B|78:216|124:192,1,95,0|2
170,78,20215,2,0,B|124:54|78:78,1,95,0|2
123,193,20523,1,0
235,226,20676,1,2
347,194,20830,1,2
144,81,21138,6,0,B|160:128|216:156|272:128|288:80,1,190,6|2
368,304,21753,2,0,B|352:256|296:228|240:256|224:303,1,190,4|0
288,80,22368,6,0,B|248:108|240:160,1,95,2|0
136,112,22675,2,0,B|116:160|136:208,1,95,2|0
20,220,22983,2,0,B|24:268|68:300,1,95,0|2
181,299,23290,1,0
344,192,23597,5,6
496,360,23905,1,2
400,152,24212,1,6
432,376,24520,1,2
256,348,24827,6,0,B|224:312|224:312|216:264,1,95,0|2
304,192,25135,2,0,B|336:228|336:228|344:276,1,95,0|2
232,248,25442,6,0,B|176:168,1,95,6|0
64,152,25750,2,0,B|118:229,1,95,2|0
236,252,26057,6,0,B|180:172,1,95,6|0
68,156,26365,2,0,B|122:233,1,95,2|0
240,256,26672,6,0,B|184:176,1,95,6|0
72,160,26980,2,0,B|126:237,1,95,2|0
244,260,27287,6,0,B|188:180,1,95,6|0
76,164,27595,2,0,B|130:241,1,95,2|0
240,292,27902,5,2
240,292,28132,2,0,B|231:337,1,47.5,2|0
316,268,28440,2,0,B|353:297,1,47.5,2|0
332,192,28747,2,0,B|377:176,1,47.5,2|0
276,140,29055,2,0,B|284:88,1,47.5,2|0
200,164,29362,2,0,B|160:136,1,47.5,2|0
184,240,29669,2,0,B|136:256,1,47.5,2|0
284,92,30054,1,0
240,248,30361,6,0,B|188:292|88:288|36:204|46:136,1,285,6|8
167,150,30976,1,0
285,186,31130,2,0,B|327:224|311:275,1,95,8|0
408,352,31437,1,8
504,272,31591,2,0,B|441:201,1,95,2|8
440,80,31899,2,0,B|503:151,1,95,2|8
380,160,32206,1,2
264,124,32360,1,8
144,168,32514,1,0
32,120,32667,1,8
52,244,32821,6,0,B|68:292|116:308,1,95,2|8
216,304,33129,2,0,B|200:256|152:240,1,95,2|8
256,192,33436,5,2
296,304,33590,1,10
196,236,33743,1,0
316,236,33897,1,10
216,304,34051,1,0
256,192,34205,6,0,B|188:124,1,95,10|0
256,192,34512,2,0,B|256:96,1,95,10|0
256,192,34820,2,0,B|323:124,1,95,10|0
432,176,35127,1,8
455,303,35281,6,0,B|432:264|376:240|320:264|296:304|296:304|272:344|216:368|160:344|136:304,1,380,12|0
216,255,36049,1,10
136,208,36203,1,0
64,256,36357,1,8
64,160,36511,6,0,B|64:64,1,95,2|8
144,127,36818,2,0,B|144:32,1,95,2|8
224,160,37126,2,0,B|224:64,2,95,2|8|2
304,120,37587,1,8
424,144,37741,5,2
496,248,37894,2,0,B|496:296|496:296|464:328,1,95,8|2
352,376,38202,2,0,B|352:328|352:328|385:294,1,95,8|2
288,376,38509,2,0,B|288:328|288:328|254:294,1,95,10|0
160,360,38817,1,8
88,256,38970,1,2
160,160,39124,2,0,B|200:192|208:240,2,95,10|0|10
88,256,39585,1,2
160,40,39893,5,0
392,180,40200,2,0,B|388:112|312:44|220:68|176:124,1,285,12|0
272,200,40815,5,10
313,312,40969,1,0
200,353,41123,1,10
159,241,41277,1,0
117,354,41430,5,10
4,313,41584,1,0
45,201,41738,1,10
159,241,41891,1,0
120,120,42045,2,0,B|153:82|169:109|203:72,1,95,8|2
320,115,42353,2,0,B|288:150|272:122|239:160,1,95,8|2
360,192,42660,6,0,B|408:208|436:264|408:320|360:336,2,190,10|10|8
241,264,43429,2,0,B|336:264,1,95,2|8
185,328,43736,2,0,B|268:376,1,95,2|8
72,340,44044,6,0,B|24:316|16:268,1,95,2|8
124,232,44351,2,2,B|171:207|180:159,1,95,0|8
68,128,44659,2,0,B|20:104|12:56,1,95,2|8
136,44,44966,1,2
256,52,45120,6,8,B|352:88|352:88|432:120|476:192|432:272|368:296,1,380,12|8
288,200,45889,1,2
200,288,46042,1,8
112,200,46196,1,2
128,80,46350,6,0,B|176:68|176:68|224:80,1,95,8|2
320,152,46657,2,0,B|272:164|272:164|224:152,1,95,8|2
416,80,46965,2,0,B|368:68|368:68|324:80,2,95,8|2|8
464,192,47426,1,0
456,312,47580,2,0,B|364:352|272:312,2,190,10|10|10
368,224,48348,5,2
248,232,48502,2,0,B|216:264|216:264|168:264,1,95,8|0
128,112,48810,2,0,B|200:184,1,95,10|0
248,64,49117,1,10
360,112,49271,2,0,B|288:184,1,95,2|8
224,264,49578,1,0
320,344,49732,1,12
72,336,50039,6,0,B|32:304|24:256,1,95,2|0
136,244,50347,1,0
136,244,50424,1,0
136,244,50501,1,0
100,144,50654,1,2
200,88,50808,1,0
320,56,50962,1,0
296,84,51039,1,0
288,120,51116,1,0
296,156,51192,1,0
320,184,51269,1,2
376,120,51423,5,0
460,180,51577,2,0,B|507:180,4,47.5
427,279,52038,1,2
324,279,52192,1,0
292,180,52345,1,2
200,88,52499,6,0,B|200:136|152:168,1,95,2|0
40,152,52807,2,0,B|40:104|88:72,1,95,2|0
88,248,53114,1,2
88,248,53191,1,2
104,372,53345,1,2
212,312,53499,1,2
224,324,53575,1,0
244,332,53652,1,2
264,336,53729,1,0
408,160,53883,5,2
296,216,54037,1,0
400,288,54190,1,2
408,160,54344,1,2
408,160,54421,1,2
288,80,54575,1,2
124,68,54959,5,6
56,172,55113,2,0,B|32:220,2,47.5
172,220,55420,2,0,B|148:312,1,95,0|2
236,224,55728,2,0,B|212:316,1,95,0|2
296,224,56035,1,0
364,328,56189,5,8
472,264,56343,2,8,B|472:216,1,47.5
472,92,56573,2,8,B|472:139,1,47.5
360,92,56804,2,0,B|312:80|312:80|264:92,2,95,8|2|8
112,88,57419,6,0,B|48:168,1,95,2|0
176,192,57726,2,0,B|143:289,1,95,2|0
400,88,58034,6,0,B|464:168,1,95,2|0
336,192,58341,2,0,B|368:289,1,95,2|0
256,240,58649,6,0,B|272:192|256:144,1,95,2|0
256,272,58956,2,0,B|240:320|256:368,1,95,2|0
272,256,59264,6,0,B|320:272|368:256,1,95,2|0
240,256,59571,2,0,B|192:240|144:256,1,95,2|0
224,176,59879,5,6
224,64,60032,1,0
336,64,60186,1,2
336,176,60340,1,0
224,176,60493,5,2
262,70,60647,1,0
367,109,60801,1,2
329,214,60955,1,0
224,176,61108,5,6
295,89,61262,1,0
381,161,61416,1,2
309,247,61570,1,0
224,176,61723,5,6
320,118,61877,1,0
376,215,62031,1,2
279,271,62185,1,0
224,176,62338,5,6
334,154,62492,1,0
353,264,62646,1,6
243,284,62800,1,0
224,176,62953,5,6
334,192,63107,1,6
315,302,63261,1,6
204,283,63414,1,6
256,192,63568,12,2,64491
160,248,64798,5,0
160,136,64952,1,2
376,64,65259,5,2
336,176,65413,1,0
296,64,65567,1,2
256,176,65721,1,0
216,64,65874,1,2
192,176,66028,6,0,B|243:201|240:259,1,95,6|0
112,176,66335,2,0,B|60:201|64:259,1,95,6|0
152,351,66643,2,0,B|152:256,2,95,0|0|0
256,296,67104,1,0
360,256,67258,6,0,B|448:224,1,95,4|0
352,160,67565,2,0,B|412:88,1,95,4|0
296,96,67873,2,0,B|312:3,2,95
192,48,68334,1,2
80,80,68488,6,0,B|24:160,1,95,0|2
136,192,68795,2,0,B|127:289,1,95,0|2
241,286,69103,2,0,B|232:191,1,95,0|2
343,157,69410,2,0,B|288:79,1,95,0|2
400,104,69718,1,4
488,176,69871,6,2,B|488:224|488:224|488:272|444:316|396:316,1,190,2|2
291,279,70333,2,0,B|299:248|323:224|355:216,1,95,0|2
220,279,70640,2,0,B|212:248|188:224|156:216,1,95,0|2
256,160,70948,6,2,B|348:144,1,95,6|0
504,252,71255,2,2,B|412:236,1,95,6|0
252,344,71562,2,2,B|344:328,1,95,2|0
264,248,71870,1,2
160,200,72024,1,0
56,152,72177,6,0,B|40:200|56:248,1,95,6|0
264,248,72485,2,0,B|280:203|264:155,1,95,6|0
160,200,72792,1,2
160,200,72946,1,2
160,200,73100,1,2
200,304,73254,1,0
312,320,73407,6,0,B|356:304|356:304|400:320,1,95,0|2
328,232,73715,2,0,B|358:196|358:196|404:188,1,95,0|2
296,144,74022,2,0,B|304:97|304:97|339:67,2,95,0|2|0
80,72,74637,6,0,B|64:132|128:168|192:132|176:72,1,190,4|0
0,96,75252,2,0,B|0:144|36:180,1,95,2|0
256,96,75560,2,0,B|256:144|219:180,1,95,2|0
304,260,75867,2,0,B|376:188|376:88,1,190,4|6
176,64,76482,6,0,B|80:40,1,95,0|2
40,152,76789,2,0,B|136:128,1,95,0|2
112,240,77097,2,0,B|140:284|192:288|192:288|220:328|272:332,2,190,4|6|0
216,192,77866,1,2
176,88,78019,1,0
280,48,78173,1,2
320,152,78327,6,0,B|403:200,1,95,0|2
425,305,78634,2,0,B|342:257,1,95,0|2
156,242,78942,2,0,B|322:338,2,190,0|0|4
256,95,80172,6,0,B|240:140|240:140|256:185,1,95
172,264,80479,2,0,B|188:220|188:220|171:174,1,95,2|0
256,252,80787,5,4
348,188,80940,1,2
460,220,81094,1,4
368,284,81248,1,2
236,156,81402,1,2
312,80,81555,1,2
424,112,81709,1,2
348,188,81863,1,2
256,252,82016,2,0,B|208:260|208:244|160:252,3,95,2|0|2|0
128,144,82631,6,0,B|96:100|128:56,1,95,2|0
200,144,82939,2,0,B|232:188|200:232,1,95
96,272,83246,5,2
96,272,83554,1,0
96,272,83861,1,2
96,272,84169,1,0
96,272,84476,6,0,B|164:204,1,95,2|0
277,204,84784,1,2
277,204,84937,1,0
391,204,85091,2,0,B|323:272,1,95,2|0
210,272,85399,1,2
210,272,85552,1,0
128,192,85706,6,0,B|304:120,1,190,2|2
464,280,86321,2,0,B|288:208,1,190,2|2
56,216,86936,5,2
112,312,87090,1,0
208,256,87244,1,2
152,160,87397,1,0
96,63,87551,1,2
193,7,87705,1,0
249,104,87858,1,2
456,352,88166,5,2
420,344,88243,1,0
388,328,88320,1,2
360,304,88397,1,0
336,276,88473,1,2
324,244,88550,1,0
320,208,88627,1,2
328,172,88704,1,0
340,140,88781,2,0,B|352:96,3,47.5,2|0|2|0
316,88,89088,2,0,B|328:44,3,47.5,2|0|2|0
296,28,89396,5,2
260,32,89473,1,0
228,48,89550,1,2
204,76,89626,1,0
196,112,89703,1,2
204,148,89780,1,0
224,176,89857,1,2
252,196,89934,1,0
288,204,90011,2,0,B|340:204,3,47.5,2|0|2|0
332,240,90318,2,0,B|377:266,3,47.5,2|0|2|0
356,296,90626,5,2
324,312,90703,1,0
292,324,90779,1,2
260,340,90856,1,0
228,352,90933,1,2
196,340,91010,1,0
164,324,91087,1,2
132,312,91164,1,0
100,296,91241,2,0,B|56:276,3,47.5,2|0|2|0
0,180,91548,2,0,B|43:199,3,47.5,2|0|2|0
76,212,91856,5,2
112,224,91932,1,0
148,228,92009,1,2
184,224,92086,1,0
216,212,92163,1,2
244,192,92240,1,0
268,164,92317,1,2
284,132,92394,1,0
292,96,92471,1,2
296,132,92547,1,0
312,164,92624,1,2
336,192,92701,1,0
364,212,92778,1,2
396,224,92855,1,0
432,228,92932,1,2
468,224,93009,1,0
504,212,93085,6,0,B|520:251|501:316|436:336|396:319,1,190,4|2
8,172,93700,2,0,B|-8:132|10:67|75:47|115:64,1,190,0|2
504,172,94315,2,0,B|520:132|501:67|436:47|396:64,1,190,0|2
8,212,94930,2,0,B|-8:251|10:316|75:336|115:319,1,190,0|2
440,328,95545,22,0,B|394:352|348:328|348:328|302:352|256:328,1,190,4|2
122,374,96160,2,0,B|98:328|122:282|122:282|98:236|122:190,1,190,0|2
76,56,96775,2,0,B|122:32|168:56|168:56|214:32|260:56,1,190,0|2
394,10,97390,2,0,B|418:56|394:102|394:102|418:148|394:194,1,190,0|2
256,0,98005,5,6
307,159,98159,1,0
307,159,98236,1,0
307,159,98312,1,2
172,60,98466,1,0
172,60,98543,1,0
172,60,98620,1,2
339,60,98774,1,0
339,60,98851,1,0
339,60,98927,1,2
204,159,99081,1,0
204,159,99158,1,0
204,159,99235,1,2
124,268,99850,5,6
256,40,100465,1,4
387,268,101080,1,6
256,192,101695,12,6,102925
