osu file format v9

[General]
AudioFilename: ELSE I'LL HUNT YOU DOWN AND KILL YOU IF YOU DELETE THEM.mp3
AudioLeadIn: 2000
PreviewTime: 30362
Countdown: 0
SampleSet: Soft
StackLeniency: 0.7
Mode: 0
LetterboxInBreaks: 0

[Editor]
DistanceSpacing: 1
BeatDivisor: 4
GridSize: 4

[Metadata]
Title:Skype x Can Can
Artist:Ara Potato
Creator:Real
Version:Hard
Source:Nico Nico Douga
Tags:MoodyRPG Mapper 31 Mapper_31 samiljul Serval Deif Collab Collaboration Mutsuhiko Izumi Tengoku to Jigoku jubeat [Ryuu]

[Difficulty]
HPDrainRate:5
CircleSize:4
OverallDifficulty:6
ApproachRate:7
SliderMultiplier:1.5
SliderTickRate:2

[Events]
//Background and Video events
0,0,"So you are looking at my map's folder.jpg"
//Break Periods
//Storyboard Layer 0 (Background)
//Storyboard Layer 1 (Fail)
//Storyboard Layer 2 (Pass)
//Storyboard Layer 3 (Foreground)
//Storyboard Sound Samples
//Background Colour Transformations
3,100,163,162,255

[TimingPoints]
1460,307.471558880804,4,2,1,100,1,0
27902,307.471558880804,4,2,1,100,1,0
30362,-100,4,2,1,100,0,1
49732,-100,4,2,1,100,0,0
64798,-100,4,2,1,100,0,1
83246,-100,4,2,1,100,0,0

[Colours]
Combo1 : 89,255,94
Combo2 : 155,205,255
Combo3 : 233,233,243
Combo4 : 253,228,55
Combo5 : 255,94,94

[HitObjects]
512,104,1460,6,0,B|496:136|448:159|400:135|384:112|384:112|368:136|320:159|272:136|257:105,1,300,0|2
0,280,2689,2,0,B|16:248|64:225|112:249|128:272|128:272|144:248|192:225|240:248|255:279,1,300,0|2
440,224,3919,6,0,B|480:296|440:368,1,150
304,296,4534,2,0,B|232:336|160:295,1,150
232,160,5149,2,0,B|192:88|232:16,1,150,2|2
368,96,5764,2,0,B|440:56|511:96,1,150,2|2
436,224,6379,6,0,B|372:264,1,75,4|2
340,196,6687,2,0,B|266:211,1,75,0|2
260,136,6994,2,0,B|185:125,1,75,0|2
196,52,7301,2,0,B|129:16,1,75,0|2
76,72,7609,5,0
104,159,7763,2,0,B|88:192|104:232,1,75,2|0
167,269,8070,2,0,B|147:239|104:233,1,75,2|0
41,268,8378,2,0,B|76:266|104:232,1,75,2|0
216,144,8839,5,2
216,144,8993,1,0
288,160,9146,1,0
288,160,9300,1,2
360,176,9454,1,2
360,176,9607,1,0
432,192,9761,1,2
432,192,9915,1,2
384,248,10069,6,0,B|384:288,2,37.5,2|2|0
312,248,10376,2,0,B|312:288,2,37.5,2|2|0
240,248,10684,2,0,B|240:288,2,37.5,2|2|0
168,248,10991,2,0,B|168:288,2,37.5,2|2|0
160,176,11299,5,4
160,104,11452,1,2
96,140,11606,2,0,B|80:104|96:68,1,75,0|2
160,32,11914,2,0,B|232:8,1,75,0|2
232,80,12221,2,0,B|304:104,1,75,0|2
328,168,12528,6,0,B|364:152|400:168,1,75,0|2
480,176,12836,2,0,B|475:215|444:238,1,75,0|2
400,304,13143,2,0,B|368:280|364:241,2,75,0|2|0
256,280,13758,6,0,B|208:280|208:280|160:296|160:296|104:296,1,150,2|0
40,260,14220,1,0
104,220,14373,2,0,B|152:220|152:220|200:204|200:204|256:204,1,150,2|0
312,152,14835,1,0
368,208,14988,6,0,B|400:192,2,37.5,2|2|0
400,272,15296,2,0,B|440:272,2,37.5,2|2|0
368,336,15603,2,0,B|332:352|332:352|296:336,2,75,0|2|2
176,320,16218,6,0,B|140:300|104:320|104:320|68:340|32:320,1,150,6|0
32,172,16833,2,0,B|68:152|104:172|104:172|140:192|176:172,1,150,4|0
192,40,17448,5,2
264,40,17602,1,0
224,104,17755,1,2
291,128,17909,1,0
232,176,18063,1,2
287,222,18217,1,0
342,268,18370,1,2
200,284,18678,6,0,B|184:312|136:336|88:312|72:284,1,150,6|2
72,136,19293,2,0,B|88:108|136:84|184:108|200:136,1,150,4|0
336,192,19908,6,0,B|352:228|336:264,1,75,0|2
272,228,20215,1,0
200,228,20369,1,2
136,192,20523,2,0,B|120:228|136:264,2,75,0|2|0
256,104,21138,5,6
376,192,21445,1,2
256,280,21753,1,6
136,192,22060,1,0
88,56,22368,6,0,B|48:120,1,75,2|0
120,144,22675,2,0,B|80:208,1,75,2|0
152,232,22983,2,0,B|112:296,2,75,2|0|2
260,128,23597,6,0,B|252:88|304:52|356:88|348:128,1,150,6|2
480,204,24212,2,0,B|488:244|436:280|384:244|392:204,1,150,6|2
248,248,24827,6,0,B|194:301,1,75,0|2
123,301,25135,2,0,B|67:245,1,75,0|2
56,176,25442,6,0,B|40:140|56:104,1,75,6|0
120,68,25750,2,0,B|136:104|120:140,1,75,2|0
192,160,26057,6,0,B|192:235,1,75,6|0
264,216,26365,2,0,B|264:141,1,75,2|0
336,116,26672,6,0,B|320:80|320:80|336:44,1,75,6|0
400,12,26980,2,0,B|416:48|416:48|400:84,1,75,2|0
400,152,27287,5,6
472,152,27441,1,0
472,224,27595,1,2
400,224,27748,1,0
336,192,27902,5,0
144,192,28209,1,2
336,176,28516,1,2
144,208,28824,1,2
336,160,29131,1,2
144,224,29439,1,2
336,144,29746,1,2
144,240,30054,1,0
272,320,30361,6,0,B|344:320|344:320|416:320|456:248|416:176|344:176|344:176|320:176,1,300,14|0
352,248,31130,1,10
280,248,31284,2,0,B|205:248,1,75,0|10
220,176,31591,6,0,B|172:160|120:208|132:264,2,150,0|0|0
224,104,32360,2,0,B|184:96|148:112,1,75,10|0
92,152,32667,2,0,B|65:182|60:221,1,75,10|0
136,340,33129,1,0
280,336,33436,5,2
352,336,33590,1,8
352,264,33743,1,2
280,264,33897,1,8
316,196,34051,1,0
352,128,34205,6,0,B|316:112|280:128,1,75,10|0
284,56,34512,2,0,B|244:60|220:92,1,75,10|0
187,28,34820,2,0,B|155:51|150:90,1,75,10|0
116,160,35127,1,10
144,232,35281,6,0,B|160:300|256:368|352:300|368:232,1,300,4|2
320,172,36049,1,8
256,200,36203,1,2
192,172,36357,1,8
168,100,36511,6,0,B|208:36,1,75,2|8
304,36,36818,2,0,B|344:100,1,75,2|8
408,152,37126,5,2
448,88,37279,1,0
484,156,37433,1,10
432,224,37587,1,8
356,212,37741,6,0,B|276:188|284:236|204:212,2,150,2|8|0
340,284,38509,1,8
292,340,38663,1,2
220,340,38817,1,8
172,284,38970,1,2
108,244,39124,6,0,B|72:260|36:244,1,75,10|0
72,180,39432,2,0,B|108:164|144:180,1,75,10|0
256,80,39893,1,0
368,168,40200,6,0,B|379:201|361:252|310:269|283:264|283:264|288:292|271:342|220:360|188:349,1,300,12|8
198,269,40969,1,2
215,196,41123,1,8
288,179,41277,1,2
324,116,41430,6,0,B|288:100|252:116,1,75,10|0
180,132,41738,2,0,B|148:155|144:194,1,75,10|0
124,268,42045,2,0,B|128:307|160:330,1,75,10|0
236,332,42353,2,0,B|232:293|200:270,1,75,10|0
236,208,42660,6,0,B|299:253|307:334,2,150,10|8|8
288,152,43429,1,2
328,93,43583,1,8
386,133,43736,1,2
348,194,43890,1,8
312,264,44044,6,0,B|296:300|312:336,1,75,2|8
376,300,44351,2,0,B|412:316|448:300,1,75,2|8
412,236,44659,2,0,B|428:200|412:164,2,75,2|8|2
348,200,45120,6,0,B|275:167|203:200,2,150,12|8|8
348,124,45889,1,2
276,108,46042,1,8
208,124,46196,1,2
208,124,46350,6,0,B|168:128|145:160,1,75,8|2
209,202,46657,2,0,B|240:272,1,75,8|2
312,272,46965,2,0,B|342:203,1,75,8|2
348,124,47272,2,0,B|387:128|411:160,1,75,8|2
480,124,47580,6,0,B|432:56|356:48,2,150,8|8|8
432,192,48348,2,0,B|448:228|432:264,1,75,2|8
368,228,48656,2,0,B|363:267|332:290,1,75,2|8
296,228,48963,2,0,B|272:259|233:264,1,75,2|8
232,192,49271,2,0,B|195:207|160:192,1,75,2|8
196,128,49578,2,0,B|156:123|133:92,1,75,2|8
256,24,50039,5,2
306,74,50193,1,0
360,128,50347,2,0,B|388:156,2,37.5,0|0|0
304,180,50654,5,2
248,128,50808,1,0
232,204,50962,2,0,B|192:184,2,37.5,0|0|0
300,252,51269,1,0
236,288,51423,5,2
172,324,51577,2,0,B|156:288|172:252,2,75,0|0|2
108,352,52038,2,0,B|36:376,1,75,2|0
32,304,52345,1,2
48,232,52499,6,0,B|112:192,1,75,0|2
68,128,52807,2,0,B|132:88,1,75,0|2
208,72,53114,2,0,B|236:64|264:72|264:72|292:80|320:72,1,112.5,0|2
392,88,53499,2,0,B|423:107,3,37.5
448,184,53883,5,2
468,256,54037,1,0
396,272,54190,1,2
372,200,54344,2,0,B|360:144|416:92|460:108,1,150
256,92,54959,5,2
296,152,55113,2,0,B|328:120,2,37.5
224,160,55420,2,0,B|240:196|224:232,1,75,0|2
148,232,55728,1,0
112,296,55881,2,0,B|148:312|185:296,1,75,2|0
256,300,56189,5,8
328,300,56343,2,0,B|328:264,1,37.5,8|8
400,264,56573,2,0,B|400:301,1,37.5,8|8
472,300,56804,2,0,B|484:260|472:224,2,75,8|2|0
192,295,57419,6,0,B|264:335|336:296,1,150,2|2
264,168,58034,2,0,B|303:96|264:25,1,150,2|2
144,96,58649,2,0,B|72:56|1:96,1,150,2|2
72,216,59264,2,0,B|32:287|71:358,1,150,2|2
192,256,59879,6,0,B|224:328,1,75,6|0
296,304,60186,2,0,B|265:235,1,75
264,160,60493,5,2
264,88,60647,1,0
336,88,60801,1,0
336,160,60955,1,0
400,136,61108,6,0,B|436:120|472:136,1,75,6|2
436,200,61416,2,0,B|472:216|508:200,1,75
496,272,61723,5,6
444,320,61877,1,2
392,272,62031,1,0
340,320,62185,1,0
288,368,62338,6,0,B|232:312,1,75,6|0
188,368,62646,2,0,B|134:314,1,75,6|0
188,264,62953,6,0,B|132:208,1,75,6|6
88,264,63261,2,0,B|34:210,1,75,6|6
256,192,63568,12,2,64491
56,192,64798,5,4
104,136,64952,1,2
256,128,65259,5,2
312,72,65413,1,0
368,128,65567,1,2
312,184,65721,1,0
256,128,65874,1,2
192,92,66028,6,0,B|175:128|192:164,1,75,4|0
121,165,66335,2,0,B|125:204|157:227,1,75,4|0
97,265,66643,6,0,B|120:296|160:301,1,75,0|0
125,365,66950,2,0,B|161:381|197:364,1,75,0|0
272,360,67258,5,4
341,341,67412,1,0
411,322,67565,1,4
359,270,67719,1,0
308,217,67873,5,0
377,199,68027,1,0
447,180,68180,1,0
447,180,68334,1,0
396,132,68488,5,4
320,128,68641,2,0,B|337:91|320:55,1,75,2|0
256,92,68949,2,0,B|219:74|183:91,1,75,2|0
220,156,69256,2,0,B|202:192|219:228,1,75,2|0
284,192,69564,2,0,B|320:209|356:192,1,75,2|4
392,252,69871,6,0,B|319:286|247:251,1,150,2|0
208,316,70333,1,2
140,340,70486,2,0,B|104:348|104:348|68:340,1,75,0|2
116,272,70794,1,0
44,260,70948,6,0,B|-4:196,1,75,6|0
72,184,71255,2,0,B|48:107,1,75,6|0
124,120,71562,6,0,B|128:40,1,75,2|0
196,72,71870,2,0,B|220:0,1,75,2|0
292,0,72177,6,0,B|316:72,1,75,6|0
384,45,72485,2,0,B|388:120,1,75,6|0
462,112,72792,6,0,B|440:184,1,75,2|0
512,200,73100,2,0,B|468:260,1,75,2|0
404,300,73407,5,0
336,324,73561,1,2
320,252,73715,1,0
256,216,73868,1,2
192,252,74022,1,0
176,324,74176,1,2
108,300,74330,1,0
56,192,74637,6,0,B|72:160|120:144|168:160|184:192,1,150,4|0
84,88,75252,2,0,B|124:76|160:88,1,75,2|0
208,32,75560,1,2
256,88,75713,1,0
304,32,75867,2,0,B|340:12|376:32|376:32|412:52|448:32,1,150,6|4
375,224,76482,6,0,B|336:229|312:261,1,75,0|2
375,224,76789,2,0,B|399:256|438:260,1,75,0|2
375,224,77097,2,0,B|408:151|376:79,2,150,4|6|0
316,184,77866,5,2
256,144,78019,1,0
188,128,78173,1,2
120,144,78327,1,0
60,184,78481,1,2
108,240,78634,2,0,B|144:304,1,75,0|2
216,304,78942,2,0,B|289:173,1,150,0|0
320,312,79557,6,0,B|392:312|392:312|464:312|504:240|464:168|392:168|392:168|388:168,1,300,6|0
400,240,80325,2,0,B|320:240,1,75,2|0
328,168,80633,1,2
364,104,80787,6,0,B|328:88|292:104,1,75,4|2
288,32,81094,2,0,B|248:36|225:68,1,75,0|2
184,8,81402,2,0,B|152:31|148:70,1,75,0|2
84,36,81709,2,0,B|68:71|84:107,1,75,0|2
96,180,82016,6,0,B|56:184|33:216,1,75,4|2
32,288,82324,2,0,B|55:320|94:324,1,75,0|2
99,252,82631,2,0,B|175:252,1,75,0|2
236,216,82939,2,0,B|251:252|236:287,1,75,0|2
288,340,83246,5,6
288,340,83554,1,0
388,239,83861,1,4
388,239,84169,1,0
248,280,84476,6,0,B|172:296,1,75,0|2
180,224,84784,2,0,B|106:199,1,75,0|2
108,128,85091,2,0,B|179:104,1,75,0|2
173,33,85399,2,0,B|246:48,1,75,0|2
248,120,85706,6,0,B|248:160|296:192|344:160|344:120,1,150,6|2
368,264,86321,2,0,B|296:303|225:263,1,150,4|0
184,96,86936,6,0,B|148:104|148:104|112:96,1,75,2|0
76,160,87244,2,0,B|149:176,1,75,2|0
222,159,87551,2,0,B|149:176,1,75,2|0
148,248,87858,1,2
280,192,88166,5,2
352,192,88320,1,0
352,264,88473,1,2
280,264,88627,1,0
232,320,88781,6,0,B|196:336|160:320,1,75,2|0
124,256,89088,2,0,B|160:240|196:256,1,75,2|0
212,188,89396,5,2
280,172,89550,1,0
348,192,89703,1,2
416,172,89857,1,0
364,124,90011,6,0,B|404:104|408:64,1,75,2|0
336,56,90318,2,0,B|260:56,1,75,2|0
192,64,90626,5,2
192,64,90779,1,0
141,114,90933,1,2
141,114,91087,1,0
64,128,91241,6,0,B|100:192,1,75,2|0
32,216,91548,2,0,B|68:281,1,75,2|0
140,300,91856,5,2
140,300,92009,1,0
140,371,92163,1,2
140,371,92317,1,0
212,371,92471,5,2
212,371,92624,1,0
212,301,92778,1,2
212,300,92932,1,0
305,328,93085,6,0,B|308:288|280:260|280:260|248:228|256:192,1,150,4|2
392,143,93700,2,0,B|352:140|324:168|324:168|292:200|256:192,1,150,0|2
207,56,94315,2,0,B|204:96|232:124|232:124|264:156|256:192,1,150,0|2
120,241,94930,2,0,B|160:244|188:216|188:216|220:184|256:192,1,150,0|2
151,93,95545,6,0,B|177:117|228:116|267:85|271:49,1,150,4|2
393,207,96160,2,0,B|361:203|330:164|329:114|353:87,1,150,0|2
238,331,96775,2,0,B|243:297|282:266|332:265|359:289,1,150,0|2
114,175,97390,2,0,B|149:179|180:218|181:269|157:295,1,150,0|2
256,192,98005,5,4
332,200,98159,2,0,B|360:228,2,37.5,2|2|0
296,268,98466,2,0,B|312:300,2,37.5,2|2|0
216,268,98774,2,0,B|200:300,2,37.5,2|2|0
180,200,99081,2,0,B|152:228,2,37.5,2|2|0
256,88,99850,5,6
256,140,100465,1,6
256,192,101080,1,6
256,192,101695,12,6,102925
