osu file format v5

[General]
AudioFilename: Velonica.mp3
AudioLeadIn: 0
PreviewTime: -1
Countdown: 1
SampleSet: Normal
StackLeniency: 0.7
Mode: 0
LetterboxInBreaks: 1
EditorBookmarks: 26745,70760
EditorDistanceSpacing: 0.800000011920929

[Metadata]
Title:Velonica
Artist:Aqua Timez
Creator:ztrot
Version:Normal
Source:bleach
Tags:Aqua Timez Velonica bleach

[Difficulty]
HPDrainRate:5
CircleSize:4
OverallDifficulty:5
SliderMultiplier:1.4
SliderTickRate:1

[Events]
//Background and Video events
0,0,"Velonica-bg.png"
Video,0,"Bleach9thOpening.avi"
//Break Periods
2,25079,27401
//Storyboard Layer 0 (Background)
//Storyboard Layer 1 (Fail)
//Storyboard Layer 2 (Pass)
//Storyboard Layer 3 (Foreground)
//Storyboard Sound Samples
//Background Colour Transformations
3,100,163,162,255

[TimingPoints]
7580,437.956204379562,4,1,0,70,1,0
56631,-100,4,1,0,70,0,0

[Colours]
Combo1 : 193,0,0
Combo2 : 0,196,49
Combo3 : 0,0,62
Combo4 : 225,73,0

[HitObjects]
72,128,7579,1,4
72,240,8017,1,8
144,320,8455,1,0
256,320,8893,5,8
256,264,9112,1,4
256,96,9769,5,8
256,208,10207,1,0
360,160,10645,1,8
360,272,11083,5,4
248,272,11521,1,8
136,272,11959,1,0
56,192,12397,5,8
56,136,12616,1,4
208,56,13273,5,8
320,56,13711,1,0
256,152,14149,5,12
256,264,14587,1,0
168,336,15025,1,0
168,280,15244,2,0,B|72:200|152:72,1,210
304,112,16558,5,0
344,152,16777,1,8
344,264,17215,5,0
232,264,17652,1,8
120,264,18090,2,0,B|120:192,2,70,0|8|8
232,264,18966,1,0
232,152,19404,1,12
392,192,20061,5,0
392,192,20280,1,8
392,80,20718,1,0
280,80,21156,1,4
168,80,21594,6,0,B|72:104|48:184|72:264,2,210
224,80,23127,2,0,B|320:80|400:112|448:152|480:224|464:296|320:280,1,420
288,280,24660,1,0
232,280,24879,1,0
256,192,28601,5,4
456,96,29477,5,0
344,96,29915,1,8
232,96,30353,1,0
120,96,30791,1,8
56,192,31229,1,0
120,288,31667,1,12
288,288,32324,5,0
336,256,32543,1,8
416,176,32981,1,0
336,96,33419,1,0
288,64,33638,1,8
176,64,34076,5,0
120,64,34295,2,0,C|120:232,2,140
120,64,35390,1,4
216,128,35828,5,0
272,128,36047,1,8
384,128,36485,1,0
384,240,36923,1,0
384,296,37142,1,12
272,296,37579,5,0
216,296,37798,1,0
160,296,38017,1,0
104,296,38236,1,0
40,200,38674,5,8
40,144,38893,1,4
144,168,39331,5,0
200,168,39550,1,0
312,168,39988,5,0
424,168,40426,1,8
368,264,40864,1,0
256,264,41302,1,8
144,264,41740,5,0
48,200,42178,1,0
48,144,42397,1,0
48,88,42616,6,0,C|120:128|128:64|208:104,2,210
88,192,44368,2,0,C|56:248|128:256|88:312,1,210
144,312,45244,1,0
256,312,45682,1,0
368,312,46120,6,0,C|408:264|328:240|392:176,1,210,4|0
256,64,47434,5,0
256,176,47871,2,0,C|208:224|280:240|224:304,1,210,4|0
296,288,48747,1,0
352,288,48966,1,0
408,288,49185,1,0
408,168,49623,6,0,C|336:88|256:40|200:40,1,210,4|0
248,264,51156,5,0
248,152,51594,1,0
152,208,52032,1,0
40,208,52470,1,0
256,264,53346,5,0
408,192,54003,1,0
256,120,54660,1,4
176,192,55098,1,0
96,120,55536,1,4
24,192,55974,1,4
160,288,56631,5,4
216,288,56850,1,4
272,288,57069,1,0
328,288,57288,2,0,B|416:232|312:168,4,140
224,232,59477,6,0,B|224:160,3,70
384,128,60791,5,0
272,128,61229,1,0
160,128,61667,1,0
48,128,62105,1,0
256,312,63200,5,0
256,256,63419,1,0
256,200,63638,2,0,C|216:160|304:136|224:80,2,210,4|4|0
144,192,65390,1,0
144,136,65609,1,0
256,112,66047,6,0,C|256:256,1,140
416,192,67142,5,4
256,136,67798,1,4
256,248,68236,1,0
144,248,68674,1,0
144,136,69112,1,0
144,136,69331,1,4
472,192,70645,5,4
304,192,71302,1,0
192,192,71740,1,0
256,96,72178,1,0
144,96,72616,1,0
80,192,73054,1,0
192,192,73492,1,0
256,288,73930,5,0
256,232,74149,1,4
256,120,74587,1,0
256,64,74806,1,4
152,104,75244,1,0
88,192,75682,5,0
88,304,76120,1,0
256,192,76339,12,4,77652
384,136,78090,5,0
384,192,78309,1,0
272,192,78747,1,0
160,192,79185,1,0
160,80,79623,1,0
256,136,80061,1,0
256,248,80499,1,0
384,136,81156,6,0,C|384:360,1,210,4|0
160,304,82689,6,4,C|104:256|200:232|120:152,1,280,4|0
352,304,84441,6,4,C|408:256|312:232|392:152,1,280,4|0
256,24,86412,1,4
