osu file format v9

[General]
AudioFilename: Aqua Timez - Sen no Yoru wo Koete.mp3
AudioLeadIn: 0
PreviewTime: 81938
Countdown: 0
SampleSet: Normal
StackLeniency: 0.7
Mode: 0
LetterboxInBreaks: 0

[Editor]
Bookmarks: 11737,35781,56236,135737,215754
DistanceSpacing: 1.3
BeatDivisor: 4
GridSize: 4

[Metadata]
Title:Sen No Yoru Wo Koete
Artist:Aqua Timez
Creator:Livean
Version:Normal
Source:Bleach Memories of Nobody
Tags:siegfried341 ichigo rukia movie Anime

[Difficulty]
HPDrainRate:4
CircleSize:3
OverallDifficulty:5
ApproachRate:5
SliderMultiplier:1.4
SliderTickRate:1

[Events]
//Background and Video events
0,0,"BG.jpg"
//Break Periods
2,35512,55535
2,78668,81683
2,125192,134659
2,188695,214802
//Storyboard Layer 0 (Background)
//Storyboard Layer 1 (Fail)
//Storyboard Layer 2 (Pass)
//Storyboard Layer 3 (Foreground)
//Storyboard Sound Samples
//Background Colour Transformations
3,100,0,0,0

[TimingPoints]
703,679.17864662335,4,1,0,100,1,0
13458,-100,4,2,0,100,0,0
74393,-66.6666666666667,4,2,0,100,0,0
75107,-100,4,2,0,100,0,0
82827,-100,4,1,0,100,0,1
107334,-66.6666666666667,4,1,0,100,0,1
109058,-100,4,1,0,100,0,1
113202,-100,4,1,0,100,0,0
135992,-100,4,2,0,100,0,0
155634,-100,4,1,0,100,0,0
225648,-66.6666666666667,4,1,0,100,0,0
231596,-100,4,1,0,100,0,0

[Colours]
Combo1 : 255,150,0
Combo2 : 163,20,239
Combo3 : 122,5,29
Combo4 : 251,222,134

[HitObjects]
464,64,13437,2,0,B|336:120|408:168|344:248|248:200,1,280
268,112,15135,1,0
272,76,15305,2,0,B|244:152|176:68|60:100|56:196,1,280
60,288,17003,5,0
72,320,17173,2,0,B|136:320|152:240,1,105
180,172,18022,1,0
260,128,18361,1,0
340,172,18701,1,0
284,244,19040,2,0,B|332:260|360:224,2,70
376,248,20059,6,0,B|416:248|440:216,1,70
356,180,20738,2,0,B|396:168|416:136,1,70
328,112,21417,2,0,B|368:96|388:68,1,70
476,88,22097,1,0
480,132,22266,2,0,B|480:188|432:220,1,105
388,140,23115,2,0,B|308:188|356:268,1,140
312,340,24134,5,0
276,256,24474,1,0
200,312,24813,1,0
112,296,25153,5,0
208,192,25493,1,0
112,296,25832,1,0
112,192,26172,2,0,B|136:256|200:304|280:312,1,210
316,232,27530,6,0,B|348:216|348:168,2,70
372,304,28549,2,0,B|436:280|440:184,1,140
360,148,29568,2,0,B|360:196|340:232|288:264,1,140
208,300,30586,6,0,B|152:252,2,70
296,284,31605,1,0
352,212,31945,1,0
372,124,32284,2,0,B|320:132|320:132|296:140|260:204,1,140
256,192,33048,12,0,35312
64,64,56735,6,0,B|112:48|192:80|216:152|216:152|248:208|360:224,1,350,0|8
436,256,58772,1,0
380,328,59112,1,0
288,340,59451,1,0
196,328,59791,2,0,B|156:328|132:296,1,70,8|0
188,228,60470,6,0,B|156:204|108:204,2,70,0|0|8
232,244,61319,1,0
276,252,61489,1,0
320,240,61659,2,0,B|400:200|456:176|272:112|392:56,1,245
208,48,63527,6,0,B|128:48,1,70,0|8
188,124,64206,2,0,B|268:124,1,70
200,196,64885,2,0,B|128:196,1,70,0|8
196,256,65564,2,0,B|208:296|260:304,1,70
168,352,66243,6,0,B|84:360|72:272,1,140
80,232,67092,2,0,B|116:228|116:228|132:196,1,70
116,156,67602,2,0,B|92:112|132:92,1,70,0|8
216,92,68281,6,0,B|216:172|300:172|300:172|252:240,1,210,0|8
253,238,69639,1,0
253,238,69979,1,0
188,304,70318,6,0,B|132:352,1,70,0|8
56,304,70997,2,0,B|112:352,1,70
124,260,71677,2,0,B|124:188,1,70,0|8
124,100,72356,1,0
296,44,73035,6,0,B|368:44,1,70,0|8
328,128,73714,1,0
328,172,73884,1,0
328,216,74054,1,0
380,344,74393,6,0,B|332:384|276:344,2,104.999996870756,0|8|0
328,268,75412,1,0
328,172,75752,1,0
328,80,76091,1,8
236,80,76431,5,0
192,80,76601,1,0
148,80,76771,1,0
56,88,77110,2,0,B|92:124,1,35
24,184,77619,1,0
104,232,77959,2,0,B|164:296,1,70
184,316,78468,1,0
32,132,82883,6,0,B|112:132,1,70
140,108,83393,2,0,B|184:108,1,35
260,80,83902,2,0,B|340:80,1,70
420,80,84581,1,0
420,80,84921,1,0
468,256,85600,6,0,B|412:264|348:224|308:144|308:144|260:224|212:264|140:256,1,420
72,316,87977,5,0
116,316,88147,1,0
160,316,88317,1,0
240,276,88656,2,0,B|284:276,2,35
240,184,89335,1,0
240,184,89505,1,0
240,184,89675,2,0,B|204:156|204:156|252:128|252:128|200:88|200:88|240:56,1,210
416,56,91373,5,0
416,100,91543,2,0,B|392:116|432:116|376:132|376:132|448:140|448:140|408:172,1,175
384,256,92731,6,0,B|312:256,1,70
264,332,93410,2,0,B|264:260,1,70
200,196,94090,2,0,B|268:196,1,70
336,132,94769,2,0,B|336:212,2,70
340,40,95788,5,0
296,52,95957,1,0
252,60,96127,1,0
208,72,96297,2,0,B|148:72|104:128|124:200|176:220|176:220|48:340,1,385
232,152,98844,5,0
232,152,99014,2,0,B|296:160|312:216,1,105
312,212,99693,2,0,B|380:224|380:304,1,105
352,320,100372,1,0
308,312,100542,2,0,B|264:344|276:284|212:284|232:344|172:320,1,140
196,232,101561,5,0
196,232,101730,2,0,B|140:224|108:168,1,105
108,128,102410,2,0,B|108:60|164:36,1,105
244,48,103258,5,0
336,48,103598,1,0
292,128,103938,1,0
292,220,104277,2,0,B|292:292,2,70
408,60,105975,6,0,B|440:28|472:60,1,70
416,132,106654,2,0,B|384:164|352:132,1,70
260,180,107334,2,0,B|348:228|380:252|380:252|412:284|396:316,1,209.999993741512
324,304,108352,2,0,B|316:368|380:416|428:384|476:352,1,209.999993741512
404,292,109371,2,0,B|444:276|460:236,1,70
440,204,109880,2,0,B|456:172,2,35
460,116,110560,5,0
384,64,110899,1,0
340,64,111069,2,0,B|304:68,2,35
296,68,111578,2,0,B|260:108|188:136|188:136|260:172|288:204,1,245
452,48,114125,6,0,B|496:56|492:104,1,70
404,120,114805,1,0
316,144,115144,2,0,B|316:188|360:192,1,70
356,284,115823,1,0
176,312,116502,5,0
252,260,116842,1,0
204,184,117182,2,0,B|144:228,1,70
56,228,117861,1,0
96,148,118200,1,0
148,224,118540,2,0,B|112:308,1,70
212,296,119219,6,0,B|212:340,1,35
256,252,119729,2,0,B|256:208,1,35
324,156,120238,2,0,B|368:156|392:120,1,70
432,204,120917,2,0,B|408:232|360:232,1,70
432,300,121596,2,0,B|400:320|364:316,1,70
276,320,122275,2,0,B|240:320|212:296,1,70
256,192,122785,12,0,124992
72,80,135859,5,4
64,172,136199,1,0
64,172,136368,2,0,B|120:176|160:136|164:84,1,140
248,124,137387,2,0,B|280:88,1,35
304,64,137727,1,0
344,88,137897,6,0,B|344:132|308:148,2,70,0|0|8
436,88,138915,2,0,B|456:136|444:204|380:240|320:232,1,210,0|8
196,240,140444,2,0,B|196:204,2,35
196,196,140953,2,0,B|196:112,2,70,0|8|0
84,52,142311,6,0,B|48:60|44:112,1,70,0|8
48,196,142990,2,0,B|100:176|152:200|136:224|176:276|256:248,1,210,0|8
328,248,144349,1,0
368,224,144519,1,0
392,168,144688,2,0,B|364:116|300:96|244:116|220:168,1,210
216,256,146047,6,0,B|212:304|180:324,1,70
216,256,146726,2,0,B|228:296|256:328,1,70,8|0
216,256,147405,6,0,B|216:184|136:96,1,175
180,76,148424,1,0
224,60,148594,1,0
268,76,148763,1,0
352,116,149103,2,0,B|332:236|204:260,1,210
296,304,150461,6,0,B|316:340|368:324|404:240,1,140
428,168,151480,1,0
376,96,151820,1,0
284,92,152159,1,8
296,228,152669,6,0,B|324:204|328:200,2,35
264,260,153178,1,0
228,288,153348,2,0,B|196:316,2,35,0|8|0
80,180,154367,5,0
112,148,154536,1,0
140,112,154706,2,0,B|176:80,2,35,0|8|0
172,144,155216,2,0,B|204:176,1,35
232,196,155555,1,0
232,196,155725,2,0,B|268:216|312:192|336:136|336:136|352:88|404:72|440:92,1,245
256,192,157168,12,0,158300
92,240,158951,5,0
92,148,159291,1,0
132,164,159460,1,0
172,188,159630,1,0
256,156,159970,1,0
256,200,160140,2,0,B|256:248,2,35
344,184,160819,1,0
384,160,160989,1,0
424,136,161159,1,0
256,176,161498,6,0,B|256:260,2,70
256,132,162347,1,0
192,68,162687,1,0
124,128,163026,1,0
192,188,163366,1,0
108,220,163705,1,0
356,324,164385,6,0,B|396:312|404:276,2,70
268,304,165403,1,0
248,216,165743,2,0,B|296:200|304:160,1,70
368,112,166422,1,0
296,56,166762,1,0
124,112,167441,2,0,B|92:88,2,35
288,328,168799,6,0,B|328:312,1,35
344,276,169139,2,0,B|380:260,1,35
304,204,169648,1,0
296,112,169988,2,0,B|284:76|244:60,1,70
212,144,170667,1,0
172,168,170837,1,0
152,208,171007,1,0
156,252,171176,1,0
48,232,171516,6,0,B|60:272|96:280|100:280,1,70
128,288,172025,2,0,B|148:300|176:300,2,35
180,212,172705,1,0
208,176,172874,1,0
188,136,173044,1,0
276,112,173384,6,0,B|300:84|276:48,1,70
320,44,173893,1,0
364,60,174063,1,0
396,92,174233,1,0
216,92,174912,5,0
124,92,175252,1,0
156,176,175591,2,0,B|204:176,1,35
136,248,176100,1,0
180,248,176270,5,0
160,336,176610,1,0
248,320,176949,2,0,B|292:324|320:296,1,70
360,224,177629,1,0
400,328,177968,1,0
468,268,178308,1,0
460,176,178647,1,0
372,156,178987,5,0
424,80,179327,1,0
512,108,179666,1,0
424,80,180006,5,0
332,76,180345,1,0
284,152,180685,1,0
328,232,181025,1,0
80,116,182043,5,0
88,208,182383,1,0
172,240,182722,1,0
168,148,183062,1,0
252,188,183402,1,0
260,280,183741,1,0
420,192,184420,1,0
372,116,184760,1,0
192,84,185439,5,0
132,256,186118,1,0
224,248,186458,1,0
268,248,186628,5,0
360,256,186967,1,0
320,340,187307,2,0,B|240:340,1,70
160,340,187986,1,0
68,336,188326,1,0
68,336,188495,1,0
444,56,216002,5,8
356,72,216342,1,8
376,112,216512,1,8
416,136,216681,1,8
432,224,217021,5,8
433,223,217191,2,8,B|436:268|408:288|356:292,1,105
352,200,218040,1,8
292,132,218379,1,8
200,120,218719,1,8
108,124,219059,5,8
100,168,219228,1,8
72,204,219398,1,8
32,288,219738,1,8
124,300,220077,1,8
180,228,220417,1,8
248,288,220756,1,8
388,172,221436,6,8,B|412:148,2,35
340,92,222115,2,8,B|372:56,1,35
296,128,222624,1,8
240,200,222964,1,8
324,232,223303,1,8
252,288,223643,1,8
104,116,224492,5,8
140,116,224662,1,8
440,64,225850,5,8
468,200,226190,2,8,B|484:228|460:260,1,52.4999984353781
368,156,226699,1,8
256,76,227039,1,8
304,124,227209,2,8,B|248:152|204:120,1,104.999996870756
204,120,227718,5,8
84,188,228058,1,8
136,232,228227,1,8
192,272,228397,1,8
328,248,228737,5,8
380,292,228907,1,8
432,336,229076,1,8
408,196,229416,1,8
316,96,229756,1,8
448,68,230095,1,8
344,156,230435,5,8
288,192,230604,1,8
220,196,230774,1,8
164,156,230944,2,0,B|136:140|136:108,2,52.4999984353781,0|8|0
328,80,231963,6,8,B|316:120|272:128,1,70
276,36,232642,2,8,B|256:80|192:84,1,70
148,128,233321,1,8
68,168,233661,2,8,B|80:220|128:224|128:224|160:224|151:293|79:329,1,210
440,308,235019,5,8
364,256,235359,1,8
332,172,235698,1,8
372,88,236038,1,8
452,48,236378,1,8
272,76,237057,6,8,B|224:76|204:36,1,70
200,140,237736,1,8
144,68,238076,2,8,B|136:112|88:140,1,70
64,304,239094,5,8
148,340,239434,1,8
224,292,239773,1,8
148,240,240113,1,8
228,196,240453,1,8
312,232,240792,1,8
256,60,241471,5,8
256,60,241811,1,8
132,196,242490,5,8
224,192,242830,2,8,B|224:232,2,35
224,148,243339,1,8
312,128,243679,5,8
388,180,244018,1,8
380,272,244358,1,8
356,308,244528,1,8
312,320,244698,1,8
69,59,247244,5,0
137,59,247584,1,0
229,91,247924,1,0
341,179,248263,1,0
429,279,248603,1,0
273,327,248942,1,0
461,55,249961,5,0
393,67,250301,1,0
269,99,250640,1,0
137,195,250980,1,0
53,315,251320,1,0
221,331,251659,1,0
253,195,252338,5,0
256,104,252678,1,0
393,55,253357,5,0
460,116,253697,2,0,B|488:128|488:176,1,70
468,264,254376,1,0
436,296,254546,1,0
372,232,254885,1,0
288,196,255225,5,0
316,160,255395,1,0
232,128,255734,1,0
160,72,256074,1,0
104,136,256413,5,0
80,164,256583,1,0
52,196,256753,1,0
112,264,257093,1,0
232,296,257432,1,0
372,248,257772,1,0
420,140,258111,1,0
341,55,258451,5,0
157,59,258790,1,0
125,251,259130,1,0
253,179,259470,1,0
