osu file format v9

[General]
AudioFilename: Aqua Timez - Sen no Yoru wo Koete.mp3
AudioLeadIn: 0
PreviewTime: 81938
Countdown: 0
SampleSet: Normal
StackLeniency: 0.7
Mode: 0
LetterboxInBreaks: 1

[Editor]
Bookmarks: 11737,35781,56236,72599,82672,135904,190668
DistanceSpacing: 1.5
BeatDivisor: 4
GridSize: 4

[Metadata]
Title:Sen No Yoru Wo Koete
Artist:Aqua Timez
Creator:Livean
Version:Hard
Source:Bleach Memories of Nobody
Tags:siegfried341 ichigo rukia movie Anime

[Difficulty]
HPDrainRate:7
CircleSize:5
OverallDifficulty:7
ApproachRate:7
SliderMultiplier:1.4
SliderTickRate:2

[Events]
//Background and Video events
0,0,"BG.jpg"
//Break Periods
2,36899,55835
2,134022,134959
//Storyboard Layer 0 (Background)
//Storyboard Layer 1 (Fail)
//Storyboard Layer 2 (Pass)
//Storyboard Layer 3 (Foreground)
//Storyboard Sound Samples
//Background Colour Transformations
3,100,0,0,0

[TimingPoints]
703,679.17864662335,4,1,0,100,1,0
13458,-100,4,2,0,100,0,0
80039,-100,4,1,0,100,0,0
82827,-100,4,1,0,100,0,1
113168,-100,4,1,0,100,0,0
135992,-100,4,2,0,100,0,0
155634,-100,4,1,0,100,0,0

[Colours]
Combo1 : 255,150,0
Combo2 : 163,20,239
Combo3 : 122,5,29
Combo4 : 251,222,134

[HitObjects]
60,344,13437,2,0,B|84:284|160:284|160:284|184:240,1,175
184,240,14456,1,0
128,152,14795,1,0
196,72,15135,1,0
244,52,15305,1,0
264,100,15475,2,0,B|364:56,1,105
408,40,16154,1,0
420,92,16324,2,0,B|352:128,1,70
384,228,17003,5,0
336,244,17173,1,0
284,244,17342,1,0
240,216,17512,1,0
220,168,17682,1,0
212,116,17852,2,0,B|240:84,2,35
212,116,18361,2,0,B|176:92|144:112|124:152|152:184|152:184|176:212|180:248|144:284|88:264,1,280
256,184,20059,5,0
308,92,20399,2,0,B|380:112,1,70
376,112,20908,1,0
448,252,21417,2,0,B|428:324|332:324,1,140
300,288,22266,2,0,B|304:236|216:216|168:272|96:248|104:192,1,245
104,200,23625,1,0
40,56,24134,2,0,B|64:96|108:84|124:52|148:12|192:28|232:56,1,210
332,44,25493,2,0,B|360:72|328:112,2,70
52,224,27190,5,0
156,212,27530,1,0
244,156,27870,1,0
260,52,28209,1,0
272,156,28549,2,0,B|284:208|320:232|384:224,1,140
284,276,29568,2,0,B|276:304|260:316|232:328,1,70
36,268,30586,5,0
80,240,30756,1,0
120,208,30926,1,0
152,248,31096,1,0
196,224,31266,1,0
236,188,31435,1,0
312,116,31775,5,0
416,116,32115,1,0
468,208,32454,1,0
424,236,32624,1,0
380,260,32794,1,0
304,304,33133,2,0,B|200:296|144:236|140:152|200:84|292:76|356:136|356:200|328:248|256:248|256:188,1,490
256,192,35680,12,0,36699
72,56,56735,5,0
104,96,56905,1,0
152,120,57074,1,0
204,116,57244,1,0
256,108,57414,1,0
300,136,57584,1,0
344,168,57754,2,0,B|372:204,2,35
432,300,58433,6,0,B|388:320,1,35
352,332,58772,1,0
300,324,58942,2,0,B|260:324|224:296,1,70
132,272,59621,6,0,B|92:248|124:208,2,70
180,176,60640,1,0
216,140,60810,1,0
256,104,60980,1,0
300,144,61150,1,0
340,108,61319,1,0
432,128,61659,1,0
368,264,61998,1,0
368,264,62168,2,0,B|348:300|288:288,2,70
284,72,63527,5,0
248,108,63696,1,0
204,80,63866,1,0
172,120,64036,1,0
140,164,64206,1,0
96,140,64376,2,0,B|92:80|136:44|192:44,1,140
248,124,65394,1,0
352,116,65734,5,0
400,140,65904,1,0
444,168,66074,1,0
412,208,66243,1,0
372,244,66413,1,0
324,268,66583,1,0
228,308,66923,6,0,B|196:308|180:300|172:268,1,70
80,228,67602,1,0
116,192,67771,1,0
148,152,67941,1,0
184,116,68111,1,0
228,144,68281,1,0
268,108,68451,2,0,B|296:72,2,35
372,96,69130,5,0
424,96,69300,1,0
456,136,69469,1,0
436,184,69639,2,0,B|412:224|372:220,1,70
284,244,70318,5,0
192,192,70658,1,0
204,88,70998,1,0
244,52,71167,1,0
292,52,71337,1,0
336,76,71507,2,0,B|380:100|400:164|360:200,1,140
320,224,72356,1,0
492,344,73035,5,0
392,344,73375,2,0,B|348:344,2,35
352,248,74054,1,0
256,288,74393,1,0
164,236,74733,2,0,B|84:236,2,70
164,132,75752,6,0,B|188:100|228:76|292:76|332:100|348:132,1,210
340,232,77110,2,0,B|260:232,1,70
172,272,77789,1,0
72,308,78129,1,0
40,268,78299,1,0
56,220,78469,2,0,B|12:168|44:104|112:112,1,140
156,192,79487,6,0,B|192:196|224:172,1,70
260,136,79997,1,0
264,292,80506,1,0
256,48,81015,1,0
400,192,81525,1,0
312,248,81864,1,0
224,192,82204,1,0
60,344,82883,6,0,B|32:296|64:240|116:228,1,140
160,320,83902,1,0
208,228,84241,2,0,B|256:220|288:164|256:112,1,140
256,328,85600,1,0
256,224,85940,1,0
256,328,86279,1,0
256,224,86619,6,0,B|200:208|180:156|212:128|212:128|116:128,1,210
52,60,87977,1,0
104,60,88147,1,0
156,56,88317,2,0,B|244:80|196:32|320:32|264:80|364:56,1,210
412,64,89505,2,0,B|444:88|444:88|444:120,1,70
352,168,90184,2,0,B|284:124|312:188|228:188|260:124|176:168,1,175
120,248,91373,1,0
120,248,91543,2,0,B|152:212|188:224|212:260|212:260|272:284,1,175
252,180,92731,6,0,B|292:160|320:160,1,70
320,160,93241,1,0
264,248,93580,2,0,B|344:248,1,70
332,300,94090,6,0,B|252:300,1,70
208,300,94599,2,0,B|128:300,2,70
216,248,95448,1,0
232,196,95618,1,0
232,196,95788,1,0
248,148,95958,1,0
324,76,96297,5,0
360,104,96467,1,0
400,140,96637,2,0,B|428:164,2,35
304,184,97316,2,0,B|332:204|340:248,1,70
376,180,97825,2,0,B|396:216|396:248,1,70
312,292,98844,5,0
316,196,99184,1,0
208,200,99523,2,0,B|208:136|244:96|300:88|300:88|300:24,2,210
316,196,101900,1,0
428,184,102240,2,0,B|428:248|392:284|352:300|352:300|352:376,1,210
248,336,103598,6,0,B|160:336|160:248,1,140
232,264,104617,1,0
304,280,104957,2,0,B|304:192|184:192,1,140
176,136,105975,2,0,B|208:104|248:104,1,70
237,104,106655,6,0,B|288:104|312:144,1,70
240,160,107334,2,0,B|240:240|328:272,1,140
240,160,108353,2,0,B|240:240|164:272,1,140
268,304,109371,1,0
268,304,109541,2,0,B|312:296|328:264|316:224,1,105
232,168,110390,5,0
232,168,110560,2,0,B|192:172|168:204|188:252,1,105
96,312,111409,2,0,B|80:240|16:192|16:192|72:120|80:112|80:112|136:168|168:128,1,350
264,320,114126,6,0,B|304:304|312:256,1,70
408,276,114805,2,0,B|416:312|456:328,1,70
464,264,115484,1,0
440,200,115823,2,0,B|376:192|352:152|352:152|328:192|256:200,1,210
240,96,117182,1,0
136,96,117521,1,0
240,96,117861,1,0
344,92,118201,1,0
288,180,118540,6,0,B|256:204|240:228|240:228|224:204|184:180,1,140
84,60,119729,1,0
128,92,119899,1,0
156,192,120238,2,0,B|112:224,1,35
84,244,120578,1,0
48,272,120748,1,0
88,308,120917,2,0,B|120:332|136:356|136:356|152:332|200:300,1,140
152,232,121936,2,0,B|192:192|248:192|288:240,1,140
256,192,122955,12,0,125336
364,240,125672,6,0,B|424:204|360:168|360:168|300:136|380:88,1,210
380,88,126860,2,0,B|416:64,2,35
380,88,127370,2,0,B|292:88|292:176,1,140
216,224,128388,6,0,B|216:352|360:352,1,210
348,352,129577,6,0,B|388:336,2,35
320,308,130086,1,0
328,120,131105,2,0,B|240:120|240:208,1,140
136,184,132124,1,0
188,184,132294,1,0
176,236,132463,1,0
228,236,132633,1,0
256,192,132803,12,0,133822
68,72,135859,6,0,B|96:72|116:100,3,35
136,120,136538,1,0
180,152,136708,1,0
228,168,136878,2,0,B|252:180|260:172|260:172|272:160|296:184,1,70
396,192,137557,5,0
368,236,137727,1,0
332,272,137897,1,0
288,296,138066,2,0,B|252:304,2,35
332,324,138576,1,0
332,272,138746,5,0
296,232,138915,1,0
256,200,139085,1,0
220,240,139255,1,0
184,204,139425,1,0
148,168,139595,1,0
112,132,139764,1,0
204,76,140444,6,0,B|236:56,1,35
284,60,140783,2,0,B|312:80,1,35
348,112,141123,2,0,B|328:128|344:144|344:144|372:168|328:188,1,87.5
136,308,142311,5,0
92,280,142481,1,0
108,228,142651,1,0
160,224,142821,1,0
176,276,142991,1,0
224,296,143161,2,0,B|264:316,3,35
304,300,143839,2,0,B|352:268,1,35
376,248,144179,1,0
176,80,145028,5,0
224,104,145198,1,0
184,140,145368,1,0
232,164,145538,1,0
188,192,145707,1,0
232,220,145877,1,0
184,244,146047,1,0
232,264,146217,5,0
284,268,146387,1,0
336,268,146556,1,0
388,268,146726,1,0
352,228,146896,1,0
404,216,147066,1,0
360,184,147236,1,0
404,156,147405,1,0
356,136,147575,1,0
120,252,148424,5,0
120,200,148594,1,0
120,200,148764,2,0,B|120:128,2,70
120,252,149612,5,0
140,300,149782,1,0
184,324,149951,1,0
236,324,150121,1,0
280,296,150291,1,0
68,60,151310,6,0,B|120:48,1,35
156,48,151649,1,0
204,64,151819,1,0
236,108,151989,1,0
244,160,152159,2,0,B|236:200,1,35
336,232,152669,6,0,B|364:256|340:296,2,70
336,232,153518,1,0
296,256,153688,1,0
260,284,153858,1,0
120,308,154367,2,0,B|72:304,2,35
128,272,154876,2,0,B|180:300|228:240,1,105
228,216,155555,5,0
256,168,155725,1,0
256,168,155895,1,0
276,212,156065,1,0
312,244,156234,1,0
348,244,156404,2,0,B|380:212|368:144,1,105
352,112,157083,1,0
324,92,157253,2,0,B|244:84|184:136|184:200,1,192.5
384,88,158951,6,0,B|316:128|260:40|260:40|200:136|120:68,1,315
256,140,160819,1,0
352,312,161668,1,0
304,328,161838,1,0
256,332,162008,1,0
208,324,162178,1,0
168,296,162348,1,0
184,184,162687,6,0,B|232:184,1,35
292,148,163196,1,0
368,92,163536,1,0
452,272,164385,2,0,B|420:232|360:244|344:296|344:296|260:316,1,210
268,244,165743,2,0,B|268:200|316:180,1,70
252,80,166422,6,0,B|204:72|156:116|160:176,1,140
256,176,167441,1,0
256,176,167611,2,0,B|300:220|300:236|300:236|320:228|320:228|308:248|308:248|328:240|328:240|336:276,1,175
368,172,168800,2,0,B|312:120,1,70
280,88,169309,1,0
176,36,169648,2,0,B|232:92,1,70
260,124,170158,5,0
268,176,170328,1,0
216,192,170498,2,0,B|208:240|268:240,1,70
304,232,171007,1,0
356,228,171177,1,0
408,228,171346,1,0
396,280,171516,2,0,B|384:312|328:320,1,70
276,320,172026,6,0,B|228:320,1,35
188,328,172365,1,0
144,300,172535,2,0,B|148:240,1,35
140,212,172874,1,0
136,160,173044,2,0,B|152:128|196:124,1,70
340,108,173893,5,0
388,116,174063,1,0
356,152,174233,2,0,B|388:176|428:136,1,70
404,240,174911,2,0,B|368:264|336:236,2,70
368,204,175760,2,0,B|332:184|296:208,1,70
260,232,176269,1,0
252,136,176609,6,0,B|208:136|188:168,1,70
160,124,177118,2,0,B|192:76|252:88,1,105
244,184,177967,1,0
340,192,178307,2,0,B|332:280|244:284,1,140
328,340,179326,5,0
412,292,179665,1,0
460,208,180005,1,0
448,112,180345,1,0
360,68,180684,1,0
268,40,181024,1,0
56,204,182043,6,0,B|56:164|104:144,2,70
56,300,183061,2,0,B|64:340|104:344,1,70
128,248,183740,1,0
304,136,184420,2,0,B|328:168|304:200,1,70
116,104,185438,5,0
216,72,185778,2,0,B|256:68,1,35
304,72,186118,1,0
400,112,186457,2,0,B|440:136,1,35
404,232,186967,1,0
308,276,187306,1,0
204,268,187646,1,0
136,212,187985,1,0
124,116,188325,1,0
164,88,188495,2,0,B|200:64|296:48|352:112|364:172,1,245
52,72,190872,5,0
144,152,191212,1,0
236,72,191551,1,0
320,76,191891,1,0
320,76,192060,1,0
256,152,192400,2,0,B|256:192,1,35
352,192,192909,5,0
436,240,193249,1,0
396,268,193419,1,0
352,288,193589,1,0
256,264,193928,1,0
164,292,194268,1,0
72,256,194607,2,0,B|72:212,1,35
72,124,195117,2,0,B|72:172,1,35
164,192,195626,5,0
264,192,195966,1,0
212,108,196305,1,0
164,192,196645,1,0
212,284,196985,1,0
316,280,197324,2,0,B|272:280,1,35
396,204,197834,5,0
444,204,198003,1,0
344,204,198343,1,0
296,112,198682,1,0
244,112,198852,1,0
192,112,199022,1,0
252,208,199362,1,0
156,208,199701,5,0
120,308,200041,2,0,B|164:308,1,35
260,308,200550,1,0
208,308,200720,1,0
312,308,201060,1,0
364,216,201399,1,0
416,124,201739,5,0
364,112,201909,1,0
316,128,202078,1,0
212,116,202418,1,0
108,124,202758,1,0
156,96,202927,1,0
268,208,203267,2,0,B|268:160,1,35
176,224,203776,5,0
208,264,203946,1,0
256,284,204116,1,0
308,272,204286,1,0
344,232,204456,1,0
256,40,205135,1,0
256,144,205474,1,0
260,196,205645,1,0
284,296,205984,5,0
232,296,206153,1,0
140,248,206493,1,0
140,144,206833,1,0
172,100,207002,1,0
216,80,207172,1,0
320,76,207512,1,0
408,136,207851,5,0
400,240,208191,1,0
372,284,208361,1,0
328,316,208531,1,0
256,240,208870,1,0
256,132,209210,1,0
164,172,209549,1,0
176,120,209719,1,0
216,84,209889,1,0
308,56,210229,5,0
216,84,210568,1,0
328,176,210908,1,0
184,232,211247,1,0
360,280,211587,1,0
164,332,211926,1,0
304,360,212266,1,0
256,192,212606,1,0
260,80,213285,5,0
100,192,213964,1,0
256,312,214643,5,0
412,192,215322,1,0
256,72,216002,1,0
180,144,216342,5,0
232,144,216512,1,0
284,140,216682,1,0
324,236,217021,1,0
272,240,217191,1,0
340,320,217531,1,0
392,320,217700,1,0
396,104,218380,5,0
344,96,218549,1,0
300,124,218719,1,0
280,172,218889,1,0
248,216,219059,1,0
224,264,219229,1,0
180,288,219398,2,0,B|148:308|112:308|84:272,1,105
84,168,220247,5,0
160,96,220587,1,0
424,100,221436,1,0
388,140,221606,1,0
420,180,221776,1,0
452,220,221945,1,0
468,264,222115,1,0
364,288,222455,5,0
312,288,222625,1,0
208,296,222964,1,0
128,228,223304,1,0
228,196,223643,1,0
124,72,224492,5,0
124,72,224662,2,0,B|172:56|220:84|232:136|208:176,1,175
104,164,225851,1,0
96,268,226190,1,0
96,268,226360,1,0
200,268,226700,1,0
296,272,227039,1,0
344,252,227209,1,0
300,224,227379,1,0
336,168,227718,5,0
324,120,227888,1,0
372,128,228058,1,0
380,176,228228,1,0
424,264,228567,1,0
324,336,228907,1,0
276,340,229077,1,0
300,296,229247,1,0
252,300,229416,1,0
156,280,229756,5,0
108,284,229926,1,0
136,244,230095,1,0
108,124,230435,1,0
156,124,230605,1,0
136,176,230775,1,0
232,172,231284,1,0
416,100,231963,1,0
416,224,232303,1,0
328,180,232642,5,0
328,128,232812,1,0
260,200,233152,1,0
260,248,233322,1,0
172,204,233661,1,0
108,132,234001,1,0
108,180,234171,1,0
216,80,234680,5,0
312,76,235020,1,0
384,140,235359,1,0
428,140,235529,1,0
344,248,236038,5,0
200,248,236378,1,0
312,188,236717,1,0
220,308,237057,1,0
256,168,237397,1,0
272,320,237736,2,0,B|272:244,1,70
256,168,238415,1,0
444,60,239094,5,0
352,60,239433,1,0
396,136,239773,1,0
396,228,240112,1,0
396,136,240452,1,0
396,228,240792,1,0
272,96,241471,1,0
272,188,241810,1,0
164,68,242490,6,0,B|120:68,1,35
80,92,242829,1,0
56,140,242999,1,0
84,184,243169,1,0
176,152,243679,5,0
260,116,244018,5,0
340,148,244357,1,0
340,184,244527,1,0
316,212,244697,1,0
256,192,244867,12,0,246565
84,92,247244,6,0,B|120:72|152:92,1,70
124,176,247923,1,0
92,260,248263,2,0,B|128:288|164:260,1,70
124,180,248942,2,0,B|148:116|212:200|240:128,1,140
324,96,249961,2,0,B|392:96,1,70
468,148,250640,2,0,B|400:148,1,70
380,216,251319,2,0,B|432:172|392:128|392:128|344:80|424:36,1,210
476,28,252678,1,0
268,40,253357,5,0
216,48,253527,1,0
168,68,253697,1,0
128,100,253867,1,0
104,148,254036,2,0,B|120:148|128:132|128:132|136:160|136:160|156:148|180:148,1,105
168,252,254885,6,0,B|184:288|224:284,1,70
276,288,255395,1,0
328,284,255565,1,0
376,264,255734,1,0
412,228,255904,1,0
444,188,256074,2,0,B|428:144|388:132,1,70
336,52,256753,5,0
284,48,256923,1,0
232,48,257093,1,0
180,60,257263,2,0,B|144:76|132:112,1,70
272,128,258111,5,0
248,216,258450,2,0,B|216:196|208:148,1,70
272,92,259129,1,0
332,160,259469,1,0
