osu file format v9

[General]
AudioFilename: Mayonaka No Midnight Orchestra.mp3
AudioLeadIn: 1004
PreviewTime: 56684
Countdown: 0
SampleSet: Soft
StackLeniency: 0.7
Mode: 1
LetterboxInBreaks: 0

[Editor]
Bookmarks: 40974,46229,57397,58054,58492
DistanceSpacing: 1
BeatDivisor: 4
GridSize: 4

[Metadata]
Title:Mayonaka no Orchestra (TV Size)
Artist:Aqua Timez
Creator:Haneii
Version:lepidon! - Taiko Oni
Source:Naruto Shippuuden
Tags:Ending lepidopodus ztrot

[Difficulty]
HPDrainRate:5
CircleSize:5
OverallDifficulty:5
ApproachRate:5
SliderMultiplier:1.4
SliderTickRate:2

[Events]
//Background and Video events
0,0,"MNObg.png"
//Break Periods
//Storyboard Layer 0 (Background)
//Storyboard Layer 1 (Fail)
//Storyboard Layer 2 (Pass)
//Storyboard Layer 3 (Foreground)
//Storyboard Sound Samples
//Background Colour Transformations
3,100,163,162,255

[TimingPoints]
1575,463.320463320463,4,2,0,85,1,0
8952,437.956204379562,4,2,0,85,1,0
58003,-100,4,2,0,85,0,1
86251,-100,4,2,0,85,0,0

[Colours]
Combo1 : 204,200,221
Combo2 : 221,176,177
Combo3 : 227,230,196

[HitObjects]
296,192,1574,1,8
456,196,2501,1,8
92,244,3428,1,8
360,320,4354,1,8
108,200,5281,1,8
244,232,5744,1,8
312,248,5976,1,8
432,296,7134,1,8
308,228,7598,1,8
368,260,7829,1,8
256,192,8952,12,0,12017
112,236,12455,5,4
248,212,12893,1,8
316,200,13112,1,0
352,196,13222,1,0
408,236,13441,1,0
432,260,13550,1,0
448,192,13769,1,8
388,156,13988,1,0
332,116,14207,1,0
472,100,14645,1,8
436,160,14864,1,0
412,184,14973,1,0
480,172,15192,1,8
480,172,15302,1,0
428,220,15521,1,8
356,216,15740,1,0
288,232,15959,1,0
300,92,16397,1,8
368,100,16616,1,0
396,112,16725,1,8
448,152,16944,1,8
468,176,17054,1,0
440,240,17273,1,8
376,272,17492,1,8
336,212,17711,1,0
372,76,18149,1,8
384,144,18368,1,0
388,176,18477,1,0
456,164,18696,1,8
484,180,18806,1,0
432,132,19024,1,8
444,196,19243,1,0
408,200,19353,1,0
432,264,19462,5,0
452,260,19791,1,0
296,228,19900,1,8
344,180,20119,1,0
372,156,20229,1,0
440,152,20448,1,8
464,176,20557,1,0
412,224,20776,1,8
380,284,20995,1,8
320,240,21214,1,0
280,140,21543,1,0
312,148,21652,1,8
380,132,21871,1,0
412,136,21981,1,8
480,148,22200,1,8
460,176,22309,1,0
412,224,22528,1,8
388,288,22747,1,0
318,295,22966,1,0
227,241,23295,1,0
255,216,23404,1,8
321,195,23623,1,0
354,184,23733,1,0
417,155,23951,1,8
451,158,24061,1,0
453,88,24280,1,8
437,155,24499,1,0
404,216,24718,1,0
337,297,25046,1,0
354,184,25156,1,8
286,164,25375,1,0
255,148,25484,1,0
189,123,25703,1,0
169,152,25813,1,0
232,122,26032,1,12
160,242,26470,5,0
153,275,26579,1,0
220,292,26798,1,0
252,278,26908,1,8
320,265,27127,1,0
399,197,27455,1,0
393,162,27565,1,0
454,129,27784,1,8
446,198,28003,1,0
437,267,28222,1,0
416,295,28331,1,0
346,291,28550,1,0
327,261,28660,1,8
301,196,28879,1,0
372,119,29207,1,8
392,146,29316,1,0
455,174,29535,1,8
429,238,29754,1,0
359,236,29973,1,0
324,238,30083,1,0
254,244,30302,1,0
248,209,30411,1,8
250,139,30630,1,0
354,135,30959,1,8
383,153,31068,1,0
446,181,31287,1,8
463,248,31506,1,8
397,272,31725,1,0
365,286,31835,1,0
298,307,32054,1,0
296,272,32163,1,8
270,206,32382,1,0
345,132,32711,1,8
379,131,32820,1,0
441,162,33039,1,8
484,216,33258,1,0
465,245,33368,1,0
432,264,33477,5,0
396,256,33587,1,0
452,260,33806,1,0
296,228,33915,1,8
344,180,34134,1,0
372,156,34243,1,0
440,152,34462,1,8
464,176,34572,1,0
412,224,34791,1,8
380,284,35010,1,8
320,240,35229,1,0
328,272,35338,1,0
280,140,35557,1,0
312,148,35667,1,8
380,132,35886,1,0
412,136,35995,1,8
480,148,36214,1,8
460,176,36324,1,0
412,224,36543,1,8
388,288,36762,1,0
318,295,36981,1,0
336,324,37090,1,0
229,238,37309,1,0
255,216,37419,1,8
321,195,37638,1,0
354,184,37747,1,0
417,155,37966,1,8
451,158,38076,1,0
453,88,38295,1,8
436,156,38514,1,4
416,296,38951,1,0
416,228,39170,1,12
284,180,39608,1,4
160,244,40046,1,4
176,104,40484,5,0
316,120,40922,1,8
448,168,41360,1,8
344,260,41798,1,8
412,240,42017,1,0
448,168,42236,1,8
308,184,42674,1,8
172,220,43112,1,8
296,288,43550,1,8
252,232,43769,1,0
316,200,43988,1,8
372,160,44207,1,0
440,164,44426,1,8
400,300,44864,1,8
308,136,45302,1,8
248,172,45521,1,0
388,252,45740,1,8
248,240,46178,1,8
148,144,46616,1,8
288,148,47054,1,8
312,212,47273,1,0
176,104,47492,5,0
316,120,47930,1,8
448,168,48368,1,8
344,260,48806,1,8
412,240,49024,1,0
448,168,49243,1,8
308,184,49681,1,8
172,220,50119,1,8
296,288,50557,1,8
252,232,50776,1,0
316,200,50995,1,0
440,164,51433,1,8
400,300,51871,1,8
308,136,52309,1,8
272,196,52528,1,0
388,252,52747,1,0
248,240,53185,1,8
148,144,53623,1,8
216,160,53842,1,0
288,148,54061,1,12
276,192,54499,5,4
408,144,54937,1,0
400,212,55156,1,0
388,280,55375,1,0
320,288,55594,1,0
252,292,55813,1,0
192,256,56032,1,0
252,220,56251,1,0
308,176,56470,1,0
368,140,56689,1,0
432,108,56908,1,0
364,112,57127,1,0
328,116,57236,1,0
292,120,57346,1,0
256,124,57455,1,0
224,136,57565,1,0
200,164,57674,1,0
176,192,57784,1,0
188,224,57893,1,0
144,252,58003,5,0
248,260,58331,1,0
284,256,58441,1,8
352,260,58660,1,0
388,268,58769,1,0
424,232,58988,1,8
440,204,59097,1,0
384,160,59316,1,8
412,224,59535,1,0
416,292,59754,1,0
312,268,60083,1,0
300,236,60192,1,8
328,172,60411,1,0
344,140,60521,1,0
360,112,60630,1,0
396,116,60740,1,8
424,140,60849,1,0
456,204,61068,1,8
444,272,61287,1,0
384,304,61506,1,0
284,268,61835,1,0
264,240,61944,1,8
316,196,62163,1,0
352,188,62273,1,0
412,152,62492,1,8
384,172,62601,1,0
420,112,62820,1,8
416,180,63039,1,8
348,196,63258,1,0
248,232,63587,1,0
280,248,63696,1,8
344,280,63915,1,0
376,292,64024,1,0
404,272,64134,1,8
432,252,64243,1,8
412,224,64353,1,0
392,156,64572,1,8
404,88,64791,1,0
370,97,64900,1,0
336,112,65010,5,0
245,164,65338,1,0
279,171,65448,1,8
344,194,65667,1,0
394,242,65886,1,0
416,215,65995,1,8
420,180,66105,1,0
449,116,66324,1,8
381,136,66543,1,8
324,177,66762,1,0
259,259,67090,1,0
294,258,67200,1,8
359,232,67419,1,8
392,220,67528,1,0
426,214,67638,1,0
449,188,67747,1,8
446,152,67857,1,0
458,83,68076,1,8
437,149,68295,1,0
336,112,68514,1,0
245,164,68842,1,0
279,171,68951,1,8
344,194,69170,1,0
394,242,69389,1,0
416,215,69499,1,8
420,180,69608,1,0
449,116,69827,1,8
381,136,70046,1,0
324,177,70265,1,0
222,202,70594,1,0
253,216,70703,1,8
322,223,70922,1,0
356,218,71032,1,8
388,204,71141,1,0
417,185,71251,1,8
381,136,71360,1,0
313,119,71579,1,8
278,110,71689,1,8
243,103,71798,1,8
208,99,71908,1,8
144,252,72017,5,0
248,260,72346,1,0
284,256,72455,1,8
352,260,72674,1,0
388,268,72784,1,0
424,232,73003,1,8
440,204,73112,1,0
384,160,73331,1,8
412,224,73550,1,0
376,220,73660,1,0
416,292,73769,1,0
312,268,74097,1,0
300,236,74207,1,8
328,172,74426,1,0
344,140,74535,1,0
360,112,74645,1,0
396,116,74754,1,8
424,140,74864,1,0
456,204,75083,1,8
444,272,75302,1,0
411,284,75411,1,0
384,304,75521,1,0
284,268,75849,1,0
264,240,75959,1,8
316,196,76178,1,0
352,188,76287,1,0
412,152,76506,1,8
384,172,76616,1,0
420,112,76835,1,8
416,180,77054,1,8
432,252,77163,1,8
348,196,77273,1,0
248,232,77601,1,0
280,248,77711,1,8
344,280,77930,1,0
376,292,78039,1,0
404,272,78149,1,8
432,252,78258,1,8
412,224,78368,1,0
392,156,78587,1,8
359,170,78696,1,8
404,88,78806,1,0
370,97,78915,1,0
336,112,79024,5,0
245,164,79353,1,0
279,171,79462,1,8
344,194,79681,1,0
394,242,79900,1,0
416,215,80010,1,8
420,180,80119,1,0
449,116,80338,1,8
381,136,80557,1,8
416,215,80667,1,8
324,177,80776,1,0
259,259,81105,1,0
294,258,81214,1,8
359,232,81433,1,8
392,220,81543,1,0
426,214,81652,1,0
449,188,81762,1,8
446,152,81871,1,0
458,83,82090,1,8
437,149,82309,1,0
405,163,82419,1,0
336,112,82528,1,0
245,164,82857,1,0
279,171,82966,1,8
344,194,83185,1,0
394,242,83404,1,0
416,215,83514,1,8
420,180,83623,1,0
449,116,83842,1,8
381,136,84061,1,0
352,155,84170,1,0
324,177,84280,1,0
268,218,84499,1,8
208,254,84718,1,8
270,286,84937,1,0
337,304,85156,1,0
381,249,85375,1,8
406,225,85484,1,8
426,196,85594,1,0
443,165,85703,1,0
426,134,85813,1,0
366,97,86032,1,4
