osu file format v11

[General]
AudioFilename: bleach mask 2.mp3
AudioLeadIn: 1500
PreviewTime: 55896
Countdown: 0
SampleSet: None
StackLeniency: 0.8
Mode: 0
LetterboxInBreaks: 1

[Editor]
DistanceSpacing: 0.8
BeatDivisor: 4
GridSize: 4

[Metadata]
Title:Mask (TV size)
TitleUnicode:Mask (TV size)
Artist:Aqua Timez
ArtistUnicode:Aqua Timez
Creator:stevemin
Version:Insane
Source:Bleach
Tags:coroquetz cq 30 ending eltigrexxx eltxxx tsusuko suko kuro ichigo
BeatmapID:198017
BeatmapSetID:68410

[Difficulty]
HPDrainRate:6
CircleSize:4
OverallDifficulty:8
ApproachRate:9
SliderMultiplier:1.6
SliderTickRate:2

[Events]
//Background and Video events
Video,-210,"bleach.avi"
0,0,"bleach pic.jpg"
//Break Periods
//Storyboard Layer 0 (Background)
//Storyboard Layer 1 (Fail)
//Storyboard Layer 2 (Pass)
//Storyboard Layer 3 (Foreground)
//Storyboard Sound Samples
//Background Colour Transformations
3,100,163,162,255

[TimingPoints]
268,413.793103448276,4,2,0,30,1,0
888,-100,4,2,0,40,0,0
1509,-100,4,2,0,50,0,0
2130,-100,4,2,0,60,0,0
2750,-100,4,2,0,70,0,0
3164,-100,4,1,0,80,0,0
3581,413.793103448276,4,1,0,60,1,0
3581,-100,4,1,0,60,0,0
29646,-100,4,3,0,60,0,0
29857,-80,4,1,0,70,0,0
42684,-80,4,1,0,65,0,0
42891,-80,4,1,0,60,0,0
43098,-80,4,1,0,55,0,0
43305,-133.333333333333,4,3,0,50,0,0
53236,-133.333333333333,4,2,0,50,0,0
55098,-66.6666666666667,4,1,0,70,0,0
56546,-66.6666666666667,4,1,0,80,0,1
82615,-66.6666666666667,4,1,0,70,0,0
88408,-66.6666666666667,4,1,0,30,0,0
88822,-66.6666666666667,4,1,0,5,0,0

[Colours]
Combo1 : 70,72,74
Combo2 : 255,255,255
Combo3 : 150,150,150
Combo4 : 64,0,64

[HitObjects]
32,88,268,1,0,0:0:0
56,48,371,1,0,0:0:0
104,48,474,1,2,0:0:0
128,88,578,1,0,0:0:0
120,128,681,2,0,P|88:160,1,40,2|0,0:0|0:0,0:0:0
96,240,888,5,0,0:3:0
104,288,992,1,0,0:3:0
152,304,1095,1,2,0:0:0
192,280,1199,1,0,0:3:0
200,232,1302,2,0,P|176:200,1,40,2|0,0:0|0:0,0:0:0
208,120,1509,21,0,0:0:0
232,80,1612,1,0,0:0:0
280,80,1716,1,2,0:0:0
312,120,1819,1,0,0:0:0
312,168,1923,2,0,P|264:208,1,40,2|0,0:0|0:0,0:0:0
328,264,2130,5,0,0:0:0
352,304,2233,1,0,0:0:0
400,312,2336,1,2,0:0:0
432,280,2440,1,0,0:0:0
432,232,2543,2,0,P|392:192,1,40,2|0,0:0|0:0,0:0:0
448,136,2750,21,0,0:0:0
416,96,2854,1,0,0:0:0
376,64,2957,1,2,0:0:0
328,48,3061,1,0,0:0:0
280,40,3164,1,0,0:0:0
48,272,3582,5,12,0:0:0
40,152,3788,2,0,P|96:136|128:104,1,80
224,160,4202,1,0,0:0:0
304,72,4408,2,0,P|301:87|261:135,1,80,8|0,0:0|0:0,0:0:0
320,240,4822,5,0,0:0:0
440,224,5029,2,0,P|400:240|344:232,1,80,0|8,0:0|0:0,0:0:0
232,184,5443,1,0,0:0:0
168,304,5650,1,0,0:0:0
88,200,5857,1,0,0:0:0
128,88,6064,2,0,P|176:48|224:40,1,80,8|0,0:0|0:0,0:0:0
312,72,6477,21,0,0:0:0
336,112,6581,1,0,0:0:0
360,152,6684,1,0,0:0:0
384,192,6788,1,0,0:0:0
408,232,6891,1,12,0:0:0
272,320,7098,6,0,P|233:330|214:315|214:315|189:295,1,80
112,224,7512,1,0,0:0:0
240,176,7719,2,0,P|278:186|297:171|297:171|322:151,1,80,8|0,0:0|0:0,0:0:0
392,88,8133,1,0,0:0:0
176,48,8339,6,0,P|136:144,1,80,0|8,0:0|0:0,0:0:0
128,160,8650,1,0,0:0:0
112,200,8753,1,0,0:0:0
336,48,8960,6,0,P|376:144,1,80
384,160,9271,1,0,0:0:0
400,200,9374,1,8,0:0:0
328,296,9581,1,0,0:0:0
224,240,9788,5,0,0:0:0
184,224,9891,1,0,0:0:0
136,224,9995,1,0,0:0:0
96,248,10098,1,0,0:0:0
72,280,10202,1,12,0:0:0
56,80,10408,6,0,P|144:56,1,80
232,128,10822,1,0,0:0:0
456,80,11029,2,0,P|368:56,1,80,8|0,0:0|0:0,0:0:0
280,128,11443,1,0,0:0:0
456,304,11650,6,0,P|368:328,1,80,0|8,0:0|0:0,0:0:0
280,256,12064,1,0,0:0:0
56,304,12271,2,0,P|144:328,1,80,0|0,0:0|0:0,0:0:0
232,256,12684,1,8,0:0:0
352,248,12891,1,0,0:0:0
432,160,13098,21,0,0:0:0
416,120,13202,1,0,0:0:0
376,96,13305,1,0,0:0:0
328,96,13408,1,0,0:0:0
296,120,13512,1,0,0:0:0
184,192,13719,5,4,0:0:0
328,192,13926,1,4,0:0:0
120,56,14339,5,12,0:0:0
184,192,14546,1,12,0:0:0
328,192,14753,1,4,0:0:0
392,56,14960,1,12,0:0:0
256,192,15373,5,0,0:0:0
256,192,15580,1,0,0:0:0
256,192,15787,1,0,0:0:0
256,192,15994,1,4,0:0:0
184,72,16201,21,0,0:0:0
152,104,16304,1,0,0:0:0
136,144,16407,1,0,0:0:0
16,144,16614,5,0,0:0:0
0,184,16718,1,0,0:0:0
16,224,16821,2,0,P|48:264|88:264,1,80,0|8,0:0|0:0,0:0:0
112,256,17132,1,0,0:0:0
152,232,17235,2,0,P|192:216|240:240,1,80
256,248,17545,1,0,0:0:0
288,272,17649,1,0,0:0:0
400,192,17856,21,0,0:0:0
240,64,18063,1,8,0:0:0
72,56,18270,5,0,0:0:0
72,56,18373,1,0,0:0:0
72,56,18476,2,0,P|64:104|80:120|48:152,1,80,0|8,0:0|0:0,0:0:0
56,176,18787,1,0,0:0:0
48,216,18890,2,0,P|56:256|104:264,1,80,8|0,0:0|0:0,0:0:0
136,256,19201,1,0,0:0:0
176,240,19304,2,0,P|208:192,1,40,0|0,0:0|0:0,0:0:0
256,264,19511,1,0,0:0:0
400,152,19718,37,8,0:0:0
296,64,19925,5,0,0:0:0
264,96,20028,1,0,0:0:0
224,104,20132,1,8,0:0:0
88,80,20338,21,0,0:0:0
48,104,20442,1,0,0:0:0
32,144,20545,2,0,P|16:200|32:240,1,80,8|0,0:0|0:0,0:0:0
48,248,20856,1,0,0:0:0
88,264,20959,2,0,P|127:278|127:278|177:248,1,80,0|0,0:0|0:0,0:0:0
264,96,21373,5,8,0:0:0
440,80,21580,5,0,0:0:0
456,120,21683,1,0,0:0:0
464,160,21787,2,0,P|464:224|448:256,1,80,8|0,0:0|0:0,0:0:0
440,272,22097,1,0,0:0:0
400,288,22201,2,0,P|360:264|320:296,1,80
296,296,22511,1,0,0:0:0
280,336,22614,1,0,0:0:0
176,136,22821,37,0,0:0:0
128,248,23028,1,8,0:0:0
328,104,23235,5,0,0:0:0
376,96,23338,1,0,0:0:0
408,120,23442,2,0,P|448:176|440:200,1,80,8|0,0:0|0:0,0:0:0
440,216,23752,1,0,0:0:0
424,256,23856,2,0,P|384:352,1,80,8|0,0:0|0:0,0:0:0
360,352,24166,1,0,0:0:0
312,360,24270,2,0,P|200:320,1,80,0|0,0:0|0:0,0:0:0
200,320,24580,37,0,0:0:0
168,288,24683,1,0,0:0:0
176,240,24787,1,0,0:0:0
168,192,24890,5,0,0:0:0
136,168,24994,1,0,0:0:0
96,144,25097,2,0,P|72:112|80:72,1,80,0|8,0:0|0:0,0:0:0
104,40,25407,1,0,0:0:0
152,32,25511,2,0,P|216:56|248:48,1,80,8|0,0:0|0:0,0:0:0
264,64,25821,1,0,0:0:0
304,88,25925,2,0,P|336:144,1,40,0|0,0:0|0:0,0:0:0
384,64,26132,1,0,0:0:0
448,216,26339,37,8,0:0:0
352,320,26546,5,0,0:0:0
312,328,26650,1,0,0:0:0
264,312,26753,1,8,0:0:0
288,176,26960,5,0,0:0:0
256,144,27064,1,0,0:0:0
248,104,27167,2,0,P|264:48|288:40,1,80,8|0,0:0|0:0,0:0:0
320,32,27477,1,0,0:0:0
368,40,27581,1,0,0:0:0
448,160,27788,22,0,P|448:232|440:264,1,80,0|8,0:0|0:0,0:0:0
304,324,28202,6,0,P|272:372,1,40
232,304,28408,2,0,P|168:288|136:264,1,80,0|8,0:0|0:0,0:0:0
128,248,28719,1,0,0:0:0
152,208,28822,2,0,P|200:200|232:168,1,80,8|0,0:0|0:0,0:0:0
224,136,29133,1,0,0:0:0
192,112,29236,2,0,P|160:88|144:48,1,80,0|4,0:0|0:0,0:0:0
308,8,29650,37,4,0:0:0
400,160,29857,5,12,0:0:0
396,213,29960,1,0,0:0:0
440,194,30064,1,0,0:0:0
272,256,30271,5,8,0:0:0
279,308,30374,1,0,0:0:0
233,292,30477,1,0,0:0:0
56,280,30684,5,4,0:0:0
88,248,30788,1,0,0:0:0
96,200,30891,2,0,P|40:168|16:128,1,100,0|0,0:0|0:0,0:0:0
24,96,31202,1,0,0:0:0
56,64,31305,1,4,0:0:0
232,72,31512,21,0,0:0:0
283,85,31615,1,0,0:0:0
252,121,31719,1,0,0:0:0
288,280,31926,5,0,0:0:0
336,272,32029,1,0,0:0:0
368,232,32133,1,0,0:0:0
360,184,32236,1,0,0:0:0
384,152,32339,1,0,0:0:0
432,144,32443,1,0,0:0:0
456,104,32546,1,0,0:0:0
336,48,32753,21,0,0:0:0
400,288,32960,1,8,0:0:0
328,136,33167,5,0,0:0:0
279,145,33271,1,0,0:0:0
240,120,33374,2,0,P|215:69|161:69,1,100,4|0,0:0|0:0,0:0:0
136,72,33684,1,0,0:0:0
106,98,33788,2,0,P|87:133|112:184,1,100,0|0,0:0|0:0,0:0:0
107,230,34098,1,0,0:0:0
84,264,34202,1,0,0:0:0
248,280,34408,37,0,0:0:0
368,184,34615,1,8,0:0:0
432,40,34822,5,0,0:0:0
392,48,34926,1,0,0:0:0
352,56,35029,2,0,P|280:72|280:72|264:96,1,100,4|0,0:0|0:0,0:0:0
248,128,35339,1,0,0:0:0
232,164,35443,1,0,0:0:0
216,200,35546,1,0,0:0:0
200,236,35650,1,0,0:0:0
184,272,35753,1,0,0:0:0
168,308,35857,1,0,0:0:0
336,232,36064,37,0,0:0:0
160,152,36271,1,12,0:0:0
76,276,36477,5,4,0:0:0
24,260,36581,1,0,0:0:0
32,307,36684,1,0,0:0:0
48,136,36891,5,0,0:0:0
72,96,36995,1,0,0:0:0
112,72,37098,1,0,0:0:0
160,64,37202,1,0,0:0:0
208,68,37305,1,0,0:0:0
248,88,37408,1,0,0:0:0
284,120,37512,2,0,P|320:200|308:244,1,100,0|0,0:0|0:0,0:0:0
172,296,37925,21,4,0:0:0
92,148,38132,5,0,0:0:0
120,116,38235,1,0,0:0:0
168,108,38338,2,0,P|220:140|248:104|288:120,1,100,0|0,0:0|0:0,0:0:0
336,96,38649,2,0,P|388:80,1,50,0|0,0:0|0:0,0:0:0
388,156,38856,2,0,P|452:172,1,50,0|0,0:0|0:0,0:0:0
416,236,39063,2,0,P|476:268,1,50,0|0,0:0|0:0,0:0:0
296,308,39373,37,4,0:0:0
208,164,39580,1,4,0:0:0
340,56,39787,5,0,0:0:0
380,88,39890,1,0,0:0:0
392,132,39994,2,0,P|452:132|492:168,1,100,8|0,0:0|0:0,0:0:0
504,192,40304,1,0,0:0:0
508,240,40407,2,0,P|484:304|436:296,1,100,8|0,0:0|0:0,0:0:0
420,304,40718,1,0,0:0:0
376,296,40821,2,0,P|320:284|272:320,1,100,8|0,0:0|0:0,0:0:0
276,132,41235,1,0,0:0:0
84,144,41442,6,0,P|44:80|132:80,1,200,4|0,0:0|0:0,0:0:0
272,180,42063,2,0,P|328:200|384:188,1,100
488,76,42476,5,0,0:0:0
496,244,42683,1,0,0:0:0
392,320,42890,1,0,0:0:0
292,332,43097,1,0,0:0:0
184,296,43305,22,0,P|128:264|60:276,1,120.000004577637,4|2,0:0|0:0,0:0:0
60,136,43925,1,4,0:0:0
240,188,44132,2,0,P|212:177|188:97,1,120.000004577637,0|2,0:0|0:0,0:0:0
304,92,44752,1,4,0:0:0
416,44,44959,38,4,P|452:88|452:112,1,60.0000022888184
464,128,45270,1,4,0:0:0
460,164,45373,1,0,0:0:0
356,216,45580,5,2,0:0:0
404,324,45787,1,0,0:0:0
288,324,45994,1,0,0:0:0
176,296,46201,1,0,0:0:0
92,220,46407,1,0,0:0:0
80,108,46614,6,0,P|160:76|176:32,1,120.000004577637,4|2,0:0|0:0,0:0:0
224,152,47235,1,4,0:0:0
288,272,47442,2,0,P|288:242|345:178,1,120.000004577637,0|2,0:0|0:0,0:0:0
412,272,48063,1,4,0:0:0
472,176,48270,22,4,P|472:116|472:116|472:92|440:72,1,90.0000034332277,4|6,0:0|0:0,0:0:0
228,136,48891,1,0,0:0:0
252,32,49098,5,0,0:0:0
148,56,49305,1,0,0:0:0
80,140,49512,1,0,0:0:0
76,248,49719,1,0,0:0:0
160,336,49926,6,0,P|220:280|216:224,1,120.000004577637,4|2,0:0|0:0,0:0:0
324,288,50546,1,4,0:0:0
504,260,50753,2,0,P|423:242|398:192,1,120.000004577637,0|2,0:0|0:0,0:0:0
488,136,51374,1,4,0:0:0
396,48,51581,6,4,P|340:60|320:80,1,60.0000022888184
308,88,51891,1,4,0:0:0
268,96,51995,1,0,0:0:0
200,180,52202,1,2,0:0:0
280,252,52408,1,0,0:0:0
192,312,52615,1,0,0:0:0
88,280,52822,1,0,0:0:0
44,180,53029,1,0,0:0:0
112,96,53236,6,0,P|184:88|212:80,1,90.0000034332277
252,92,53650,2,0,P|320:116|348:120,1,90.0000034332277
388,140,54064,2,0,P|428:176|460:232,1,90.0000034332277
432,256,54477,1,0,0:0:0
344,320,54684,1,0,0:0:0
236,332,54891,1,0,0:0:0
80,244,55098,5,14,0:0:0
164,84,55305,5,14,0:0:0
344,64,55512,5,14,0:0:0
480,180,55719,5,2,0:0:0
480,224,55822,1,0,0:0:0
468,264,55926,1,2,0:0:0
448,300,56029,1,0,0:0:0
416,328,56133,1,2,0:0:0
376,340,56236,1,0,0:0:0
336,336,56339,1,2,0:0:0
296,328,56443,1,0,0:0:0
256,312,56546,6,0,P|176:260|144:200,1,120.000004577637,4|0,0:0|0:0,0:0:0
256,72,56960,2,0,P|336:124|368:184,1,120.000004577637,0|0,0:0|0:0,0:0:0
148,164,57374,1,0,0:0:0
324,264,57581,1,0,0:0:0
260,104,57788,1,0,0:0:0
216,316,57995,1,0,0:0:0
184,340,58098,1,0,0:0:0
140,336,58202,2,0,P|68:276|64:212,1,120.000004577637,4|0,0:0|0:0,0:0:0
172,104,58615,1,0,0:0:0
376,40,58822,2,0,P|355:116|355:116|385:186|385:186|362:277,1,240.000009155274
168,328,59443,5,0,0:0:0
132,304,59546,1,0,0:0:0
128,264,59650,1,0,0:0:0
88,64,59857,6,0,P|164:92|164:92|204:136,1,120.000004577637,4|0,0:0|0:0,0:0:0
284,248,60271,1,0,0:0:0
304,68,60477,1,0,0:0:0
416,192,60684,2,0,P|421:111|421:111|453:60,1,120.000004577637
280,160,61098,1,0,0:0:0
176,68,61305,1,0,0:0:0
64,160,61512,2,0,P|88:260|128:296,1,120.000004577637
240,316,61926,1,0,0:0:0
436,232,62133,2,0,P|392:111|392:111|376:74|255:38,1,240.000009155274
256,48,62650,1,0,0:0:0
212,64,62753,1,0,0:0:0
48,120,62960,6,0,P|70:163|70:163|108:138|108:138|124:174|124:174|231:220,1,240.000009155274,4|0,0:0|0:0,0:0:0
392,244,63581,1,0,0:0:0
344,92,63788,21,0,0:0:0
304,128,63891,1,0,0:0:0
304,176,63995,1,0,0:0:0
256,320,64201,5,0,0:0:0
296,348,64304,1,0,0:0:0
344,348,64407,1,0,0:0:0
464,264,64614,6,0,P|441:220|441:220|403:245|403:245|387:209|387:209|280:163,1,240.000009155274
120,140,65235,1,0,0:0:0
168,292,65442,21,0,0:0:0
208,256,65545,1,0,0:0:0
208,208,65649,1,0,0:0:0
256,64,65856,5,0,0:0:0
216,36,65959,1,0,0:0:0
168,36,66063,1,0,0:0:0
152,176,66270,21,0,0:0:0
236,304,66476,2,0,P|364:312|468:216,1,240.000009155274,4|0,0:0|0:0,0:0:0
248,212,67097,2,0,P|364:158|411:25,1,240.000009155274
208,44,67718,1,0,0:0:0
52,112,67925,2,0,P|25:144|37:197|71:220|71:220|178:274,1,240.000009155274
356,208,68545,5,0,0:0:0
476,68,68752,21,0,0:0:0
440,32,68856,1,0,0:0:0
392,28,68959,1,0,0:0:0
352,52,69063,1,0,0:0:0
324,96,69166,1,0,0:0:0
316,144,69270,1,0,0:0:0
332,192,69373,1,0,0:0:0
492,304,69581,6,0,P|428:296|396:376|296:372|216:336,1,240.000009155274,4|0,0:0|0:0,0:0:0
224,344,70098,1,0,0:0:0
184,328,70202,2,0,P|132:284|144:212,1,120.000004577637
216,72,70615,1,0,0:0:0
384,140,70822,1,0,0:0:0
319,298,71029,1,0,0:0:0
150,226,71236,1,0,0:0:0
64,92,71443,2,0,P|100:40|156:24,1,120.000004577637
320,48,71857,1,0,0:0:0
472,156,72064,2,0,P|426:275|426:275|409:307|379:330|319:328,1,240.000009155274
140,168,72684,37,0,0:0:0
176,144,72788,1,0,0:0:0
220,156,72891,1,0,0:0:0
488,332,73098,6,0,P|453:371|404:360|378:384,1,120.000004577637,4|0,0:0|0:0,0:0:0
248,324,73512,1,0,0:0:0
180,204,73719,1,0,0:0:0
332,160,73926,1,0,0:0:0
264,48,74133,1,0,0:0:0
131,2,74339,2,0,P|107:23|58:12|24:52,1,120.000004577637
112,172,74753,6,0,P|240:148|248:44,1,240.000009155274
392,212,75374,2,0,P|264:236|256:340,1,240.000009155274
276,360,75891,1,0,0:0:0
324,376,75995,1,0,0:0:0
480,252,76202,22,0,P|444:234|441:202|468:175|443:145,1,120.000004577637,4|0,0:0|0:0,0:0:0
424,108,76512,1,0,0:0:0
396,72,76615,2,0,P|361:24|297:19,1,120.000004577637
168,128,77029,21,0,0:0:0
344,256,77236,1,0,0:0:0
304,96,77443,1,0,0:0:0
208,288,77650,1,0,0:0:0
32,132,77857,22,0,P|67:149|70:181|43:208|68:238,1,120.000004577637
92,276,78167,1,0,0:0:0
116,312,78271,2,0,P|150:359|214:364,1,120.000004577637
344,256,78684,37,0,0:0:0
168,128,78891,1,0,0:0:0
208,288,79098,1,0,0:0:0
304,96,79305,1,0,0:0:0
448,176,79512,1,0,0:0:0
316,288,79718,22,0,P|243:331|243:331|176:320|150:191,1,240.000009155274,4|0,0:0|0:0,0:0:0
196,96,80338,2,0,P|268:52|268:52|335:63|361:192,1,240.000009155274,4|0,0:0|0:0,0:0:0
352,320,80959,1,4,0:0:0
200,376,81166,2,0,P|156:364|132:300,1,120.000004577637,0|0,0:0|0:0,0:0:0
156,160,81580,38,0,P|312:216|380:48|264:-16|116:40|188:212|356:160,1,480.000018310548,4|0,0:0|0:0,0:0:0
256,356,82614,2,0,P|256:228,1,120.000004577637
84,192,83028,5,0,0:0:0
168,64,83235,1,0,0:0:0
208,40,83338,1,0,0:0:0
252,40,83442,1,0,0:0:0
468,236,83649,5,0,0:0:0
384,156,83856,1,0,0:0:0
344,132,83959,1,0,0:0:0
300,132,84063,1,0,0:0:0
84,192,84270,5,0,0:0:0
176,320,84476,2,0,P|228:272|284:292,1,120.000004577637
424,252,84890,1,0,0:0:0
488,104,85097,1,0,0:0:0
340,40,85304,2,0,P|240:24|235:17,1,120.000004577637
160,160,85718,5,0,0:0:0
60,272,85925,1,0,0:0:0
92,304,86028,1,0,0:0:0
132,324,86132,1,0,0:0:0
180,324,86235,1,0,0:0:0
220,304,86338,1,0,0:0:0
368,264,86545,5,4,0:0:0
144,264,86752,1,4,0:0:0
261,59,87166,5,4,0:0:0
112,284,87373,1,4,0:0:0
399,284,87580,1,0,0:0:0
256,192,87787,12,0,88821,0:0:0
