osu file format v11

[General]
AudioFilename: bleach mask 2.mp3
AudioLeadIn: 1500
PreviewTime: 55923
Countdown: 0
SampleSet: Soft
StackLeniency: 0.8
Mode: 0
LetterboxInBreaks: 1

[Editor]
DistanceSpacing: 1.6
BeatDivisor: 8
GridSize: 4

[Metadata]
Title:Mask (TV size)
TitleUnicode:Mask (TV size)
Artist:Aqua Timez
ArtistUnicode:Aqua Timez
Creator:stevemin
Version:Hard
Source:Bleach
Tags:coroquetz cq 30 ending eltigrexxx eltxxx tsusuko suko kuro ichigo
BeatmapID:200151
BeatmapSetID:68410

[Difficulty]
HPDrainRate:6
CircleSize:3
OverallDifficulty:6
ApproachRate:7
SliderMultiplier:1.4
SliderTickRate:2

[Events]
//Background and Video events
Video,-210,"bleach.avi"
0,0,"bleach pic.jpg"
//Break Periods
//Storyboard Layer 0 (Background)
//Storyboard Layer 1 (Fail)
//Storyboard Layer 2 (Pass)
//Storyboard Layer 3 (Foreground)
//Storyboard Sound Samples
//Background Colour Transformations
3,100,163,162,255

[TimingPoints]
268,413.793103448276,4,2,0,30,1,0
888,-100,4,2,0,40,0,0
1509,-100,4,2,0,50,0,0
2130,-100,4,2,0,60,0,0
2750,-100,4,2,0,70,0,0
3164,-100,4,1,0,80,0,0
3581,413.793103448276,4,1,0,60,1,0
3581,-100,4,1,0,60,0,0
29857,-90.9090909090909,4,1,0,70,0,0
42891,-133.333333333333,4,3,0,50,0,0
53236,-133.333333333333,4,2,0,50,0,0
55098,-80,4,1,0,70,0,0
56546,-80,4,1,0,80,0,1
82615,-80,4,1,0,70,0,0
87788,-200,4,1,0,70,0,0
88395,-200,4,1,0,30,0,0

[Colours]
Combo1 : 70,72,74
Combo2 : 255,255,255
Combo3 : 150,150,150
Combo4 : 64,0,64

[HitObjects]
328,180,268,1,0,0:0:0
328,180,371,1,0,0:0:0
328,180,474,2,0,P|368:140,2,35,2|0|2,0:0|0:0|0:0,0:0:0
184,180,888,5,0,0:0:0
184,180,992,1,0,0:0:0
184,180,1095,2,0,P|144:144,2,35,2|0|2,0:0|0:0|0:0,0:0:0
304,292,1509,5,0,0:0:0
304,292,1612,1,0,0:0:0
304,292,1716,2,0,P|316:348,2,35,0|0|2,0:0|0:0|0:0,0:0:0
208,292,2130,5,0,0:0:0
208,292,2233,1,0,0:0:0
208,292,2336,2,0,P|188:356,2,35,2|0|2,0:0|0:0|0:0,0:0:0
256,192,2750,5,0,0:0:0
256,152,2854,1,0,0:0:0
256,112,2957,1,2,0:0:0
256,72,3061,1,0,0:0:0
256,36,3164,1,0,0:0:0
428,156,3581,5,0,0:0:0
492,248,3788,2,0,P|452:300|428:308,1,70
344,268,4202,1,0,0:0:0
228,272,4408,2,0,P|181:314|152:316,1,70
64,332,4822,1,0,0:0:0
88,224,5029,2,0,P|128:176|132:112|168:104,1,140
252,36,5650,1,0,0:0:0
351,106,5857,2,0,P|380:112|384:176|424:224,1,140
352,312,6477,5,0,0:0:0
320,292,6581,1,0,0:0:0
280,288,6684,1,0,0:0:0
248,300,6788,1,0,0:0:0
224,328,6891,6,0,P|168:320|152:288,1,70
68,252,7305,1,0,0:0:0
16,152,7512,2,0,P|68:92,1,70
168,52,7926,1,0,0:0:0
256,124,8133,1,0,0:0:0
344,56,8339,1,0,0:0:0
450,99,8546,2,0,P|496:152,1,70
444,252,8960,1,0,0:0:0
350,312,9167,2,0,P|344:320|288:328,1,70
196,260,9581,1,0,0:0:0
156,156,9788,37,0,0:0:0
192,148,9891,1,0,0:0:0
216,116,9995,1,0,0:0:0
220,84,10098,1,0,0:0:0
196,48,10202,6,0,P|184:28|116:28,1,70
72,100,10615,1,0,0:0:0
64,212,10822,2,0,P|96:252|116:248|128:280,1,70
220,220,11236,1,0,0:0:0
316,276,11443,1,0,0:0:0
360,172,11650,2,0,P|376:108|420:84|332:40,1,140
256,112,12271,1,0,0:0:0
160,50,12477,2,0,P|92:84|136:108|152:172,1,140
256,204,13098,37,0,0:0:0
256,236,13202,1,0,0:0:0
256,268,13305,1,0,0:0:0
256,300,13408,1,0,0:0:0
256,332,13512,1,0,0:0:0
340,220,13719,5,0,0:0:0
172,220,13926,1,0,0:0:0
300,36,14339,5,0,0:0:0
212,124,14546,1,0,0:0:0
300,212,14753,1,0,0:0:0
216,304,14960,2,0,P|160:328|106:314|96:272,1,140
44,172,15581,1,0,0:0:0
100,76,15788,2,0,P|64:36,2,35,0|0|0,0:0|0:0|0:0,0:0:0
212,84,16202,2,0,P|228:32,2,35,0|0|0,0:0|0:0|0:0,0:0:0
316,120,16615,5,0,0:0:0
304,152,16719,1,0,0:0:0
304,192,16822,2,0,P|304:232|336:268,1,70,8|0,0:0|0:0,0:0:0
216,304,17236,2,0,P|272:344|300:340,1,70
400,320,17650,1,8,0:0:0
380,188,17857,1,0,0:0:0
164,36,18271,5,0,0:0:0
128,48,18374,1,0,0:0:0
104,68,18477,2,0,P|92:108|100:148,1,70,8|0,0:0|0:0,0:0:0
176,216,18891,2,0,P|149:185|97:185,1,70
24,268,19305,1,8,0:0:0
132,344,19512,1,0,0:0:0
396,324,19926,5,0,0:0:0
360,312,20029,1,0,0:0:0
328,320,20133,2,0,P|280:332|248:320,1,70,8|0,0:0|0:0,0:0:0
176,256,20546,2,0,P|164:208|176:168,1,70
180,160,20857,1,0,0:0:0
204,140,20960,2,0,P|256:120|284:132,1,70,8|0,0:0|0:0,0:0:0
412,304,21581,5,0,0:0:0
380,316,21684,1,0,0:0:0
344,328,21788,2,0,P|300:344|300:344|284:320,1,70,8|0,0:0|0:0,0:0:0
236,224,22202,2,0,P|192:136,1,70
152,40,22615,1,8,0:0:0
204,164,22822,1,0,0:0:0
396,96,23236,5,0,0:0:0
448,196,23443,2,0,P|408:232|384:236,1,70,8|0,0:0|0:0,0:0:0
360,248,23753,1,0,0:0:0
328,264,23857,2,0,P|280:288|276:320,1,70
160,232,24271,2,0,P|136:332,1,70,8|0,0:0|0:0,0:0:0
196,84,24891,5,0,0:0:0
232,80,24995,1,0,0:0:0
268,96,25098,2,0,P|328:116|328:144,1,70,8|0,0:0|0:0,0:0:0
356,224,25512,2,0,P|412:196|416:184,1,70
460,68,25926,1,8,0:0:0
328,48,26133,1,0,0:0:0
116,120,26546,6,0,P|80:92,2,35,0|0|8,0:0|0:0|0:0,0:0:0
52,212,26960,1,0,0:0:0
80,240,27064,1,0,0:0:0
112,256,27167,2,0,P|172:280|184:288|192:260,1,70
268,180,27581,1,8,0:0:0
380,252,27788,1,0,0:0:0
448,40,28202,6,0,P|428:96,2,35,0|0|8,0:0|0:0|0:0,0:0:0
492,144,28615,1,0,0:0:0
480,176,28719,1,0,0:0:0
456,200,28822,2,0,P|416:216|384:220,1,70
292,312,29236,2,0,P|296:220,1,70,8|0,0:0|0:0,0:0:0
96,68,29857,5,0,0:0:0
96,68,29960,1,2,0:0:0
96,68,30064,1,8,0:0:0
92,200,30271,1,0,0:0:0
92,200,30374,1,2,0:0:0
92,200,30477,2,0,P|164:184|168:164,1,77.0000023498536
256,76,30891,2,0,P|328:96|348:124,1,77.0000023498536,10|0,0:0|0:0,0:0:0
488,340,31512,6,0,P|456:312,1,38.5000011749268,2|0,0:0|0:0,0:0:0
420,312,31719,2,0,P|376:300,3,38.5000011749268,10|0|0|0,0:0|0:0|0:0|0:0,0:0:0
364,264,32133,2,0,P|336:208,2,38.5000011749268
196,272,32546,1,8,0:0:0
236,136,32753,1,2,0:0:0
9,232,33167,5,0,0:0:0
9,232,33271,1,2,0:0:0
9,232,33374,1,8,0:0:0
176,268,33581,1,0,0:0:0
176,268,33684,1,2,0:0:0
176,268,33788,2,0,P|180:168,1,77.0000023498536
192,168,34098,1,0,0:0:0
220,148,34202,2,0,P|268:136|304:148,1,77.0000023498536,8|2,0:0|0:0,0:0:0
56,72,34822,6,0,P|92:52,1,38.5000011749268,2|0,0:0|0:0,0:0:0
128,56,35029,2,0,P|176:72,3,38.5000011749268,10|0|0|0,0:0|0:0|0:0|0:0,0:0:0
200,64,35443,2,0,P|248:48,2,38.5000011749268,2|0|0,0:0|0:0|0:0,0:0:0
296,176,35857,1,8,0:0:0
152,208,36064,1,2,0:0:0
368,356,36477,5,0,0:0:0
368,356,36581,1,2,0:0:0
368,356,36684,1,8,0:0:0
448,252,36891,1,0,0:0:0
448,252,36995,1,2,0:0:0
448,252,37098,2,0,P|460:184|452:164,1,77.0000023498536
436,152,37408,1,0,0:0:0
404,124,37512,2,0,P|356:84|356:56,1,77.0000023498536,8|2,0:0|0:0,0:0:0
76,152,38133,6,0,P|76:216,1,38.5000011749268,2|0,0:0|0:0,0:0:0
100,224,38339,2,0,P|152:244,3,38.5000011749268,10|0|0|0,0:0|0:0|0:0|0:0,0:0:0
176,224,38753,2,0,P|208:188,3,38.5000011749268,2|0|0|0,0:0|0:0|0:0|0:0,0:0:0
240,176,39167,2,0,P|304:160|332:176,1,77.0000023498536,8|2,0:0|0:0,0:0:0
508,12,39788,5,0,0:0:0
512,52,39891,1,2,0:0:0
500,84,39995,2,0,P|476:120|440:136,1,77.0000023498536,8|0,0:0|0:0,0:0:0
416,140,40305,1,2,0:0:0
380,140,40408,2,0,P|324:164|312:204,1,77.0000023498536
308,204,40719,1,2,0:0:0
301,233,40822,2,0,P|301:293|285:309|285:309|269:301,1,77.0000023498536,8|2,0:0|0:0,0:0:0
152,316,41236,1,0,0:0:0
56,192,41443,2,0,P|67:194|67:194|61:174|61:174|83:182|83:182|81:167|117:119|191:136,1,154.000004699707
244,60,42064,2,0,P|320:88|352:168,1,154.000004699707
256,300,42891,5,0,0:0:0
188,304,43098,1,0,0:0:0
132,264,43305,2,0,P|92:212|84:160,1,105.000004005432,4|2,0:0|0:0,0:0:0
159,73,44133,5,0,0:0:0
218,93,44339,1,0,0:0:0
279,78,44546,1,2,0:0:0
332,44,44753,1,0,0:0:0
385,10,44960,2,0,P|472:24|392:96|411:205,1,210.000008010865
343,228,45995,5,0,0:0:0
326,310,46202,1,0,0:0:0
260,257,46408,1,0,0:0:0
220,331,46615,2,0,P|168:319,1,52.5000020027161,2|0,0:0|0:0,0:0:0
86,298,47029,2,0,P|58:226,1,52.5000020027161
21,177,47443,2,0,P|61:113,1,52.5000020027161,2|0,0:0|0:0,0:0:0
94,61,47857,1,0,0:0:0
172,72,48064,1,0,0:0:0
248,44,48271,2,0,P|324:-16|388:4|404:120,1,210.000008010865,2|2,0:0|0:0,0:0:0
284,200,49512,5,0,0:0:0
272,280,49719,1,0,0:0:0
196,300,49926,2,0,P|128:284|80:256,1,105.000004005432,4|2,0:0|0:0,0:0:0
73,187,50546,1,0,0:0:0
15,125,50753,2,0,P|52:65|95:39,1,105.000004005432,0|2,0:0|0:0,0:0:0
157,77,51374,1,0,0:0:0
230,35,51581,2,0,P|298:7|411:68|420:122,1,210.000008010865,0|2,0:0|0:0,0:0:0
304,252,52822,5,2,0:0:0
208,252,53029,1,0,0:0:0
208,160,53236,2,0,P|160:116,1,52.5000020027161
172,44,53650,2,0,P|220:0,1,52.5000020027161
301,8,54064,2,0,P|340:44,1,52.5000020027161
342,124,54477,2,0,P|304:160,1,52.5000020027161
256,88,54891,1,0,0:0:0
116,160,55098,5,0,0:0:0
120,316,55305,1,0,0:0:0
272,360,55512,1,0,0:0:0
416,312,55719,6,0,P|444:272,3,43.75
456,236,56133,2,0,P|444:184,3,43.75
460,152,56546,6,0,P|448:80|408:64,1,87.5
316,108,56960,1,0,0:0:0
196,108,57167,1,0,0:0:0
71,74,57374,2,0,P|64:80|52:152,1,87.5
120,272,57788,1,0,0:0:0
248,212,57995,1,0,0:0:0
356,324,58202,1,0,0:0:0
356,324,58408,2,0,P|408:268|408:224,1,87.5
492,156,58822,2,0,P|448:68|356:44,1,175
72,200,59650,5,0,0:0:0
38,84,59857,1,0,0:0:0
150,52,60064,1,0,0:0:0
183,168,60271,1,0,0:0:0
216,283,60477,5,0,0:0:0
328,251,60684,1,0,0:0:0
295,136,60891,1,0,0:0:0
183,168,61098,1,0,0:0:0
112,284,61305,1,0,0:0:0
228,376,61512,2,0,P|284:360|316:332,1,87.5
388,232,61926,1,0,0:0:0
344,116,62133,2,0,P|288:44|288:44|192:40,1,175
136,192,62960,6,0,P|232:192,1,87.5
88,88,63374,2,0,P|36:164|48:172|48:172|32:180|32:180|48:188|48:188|32:196|32:196|48:208|48:208|36:216|88:288,1,262.5
376,192,64615,6,0,P|280:192,1,87.5
424,88,65029,2,0,P|476:164|464:172|464:172|480:180|480:180|464:188|464:188|480:196|480:196|464:208|464:208|476:216|424:288,1,262.5
308,332,65857,1,0,0:0:0
180,288,66064,1,0,0:0:0
160,168,66271,1,0,0:0:0
236,64,66477,6,0,P|424:64,1,175
504,252,67098,2,0,P|316:252,1,175
236,64,67719,1,0,0:0:0
112,104,67926,2,0,P|68:164|68:196,1,87.5
8,280,68339,2,0,P|68:352|228:356,1,262.5
296,256,69167,1,0,0:0:0
424,216,69374,1,0,0:0:0
464,100,69581,6,0,P|458:90|458:90|447:99|447:99|444:78|444:78|427:98|427:98|422:84|401:54|358:46|307:66,1,175,4|0,0:0|0:0,0:0:0
312,52,70098,1,0,0:0:0
276,52,70202,2,0,P|244:47|244:47|161:87,1,87.5
108,144,70615,1,0,0:0:0
60,280,70822,1,0,0:0:0
192,256,71029,1,0,0:0:0
280,360,71236,1,0,0:0:0
376,252,71443,2,0,P|376:156,1,87.5
368,40,71857,1,0,0:0:0
260,116,72064,2,0,P|196:192|96:176,1,175
256,380,72891,5,0,0:0:0
168,312,73098,2,0,P|128:280|112:236,1,87.5
256,128,73512,1,0,0:0:0
256,256,73719,1,0,0:0:0
344,72,73926,6,0,P|384:104|400:148,1,87.5
256,256,74339,1,0,0:0:0
256,128,74546,1,0,0:0:0
152,48,74753,2,0,P|146:54|146:54|144:46|144:46|132:59|132:59|107:61|107:61|120:93|114:182,1,175
40,284,75374,2,0,P|112:348|208:336,1,175
236,12,76202,6,0,P|256:44|276:12,1,87.5
160,52,76615,2,0,P|248:128|352:52,1,262.5
276,372,77857,6,0,P|256:340|236:372,1,87.5
352,332,78271,2,0,P|264:256|160:332,1,262.5
256,44,79305,5,0,0:0:0
256,152,79512,1,0,0:0:0
208,272,79719,2,0,P|148:256|100:160,1,175
304,272,80339,2,0,P|364:256|412:160,1,175
368,32,80960,1,0,0:0:0
256,92,81167,2,0,P|256:184,1,87.5
256,192,81581,12,0,82615,0:0:0
80,204,83029,5,0,0:0:0
32,88,83236,1,0,0:0:0
156,64,83443,2,0,P|200:60|200:60|256:104,1,87.5
328,204,83857,1,0,0:0:0
356,64,84064,2,0,P|312:60|312:60|256:104,1,87.5
220,192,84477,2,0,P|220:380,1,175
108,280,85098,1,0,0:0:0
264,160,85305,2,0,P|264:348,1,175
312,76,85926,5,0,0:0:0
284,56,86029,1,0,0:0:0
256,48,86133,1,0,0:0:0
228,56,86236,1,0,0:0:0
200,76,86339,1,0,0:0:0
96,152,86546,1,0,0:0:0
136,260,86753,1,0,0:0:0
452,76,87167,5,0,0:0:0
444,212,87374,1,0,0:0:0
336,264,87581,1,0,0:0:0
232,248,87788,2,0,P|168:268|188:192,1,175,0|0,0:0|0:0,0:0:0
