osu file format v5

[General]
AudioFilename: Alones.mp3
AudioLeadIn: 0
PreviewTime: -1
Countdown: 0
SampleSet: Soft
StackLeniency: 0.7
Mode: 0

[Metadata]
Title:Alones
Artist:Aqua Timez
Creator:Kai Domeki
Version:Easy
Source:
Tags:

[Difficulty]
HPDrainRate:4
CircleSize:4
OverallDifficulty:2
SliderMultiplier:1.4
SliderTickRate:1

[Events]
//Background and Video events
//Break Periods
2,25797,31712
2,58101,62268
//Storyboard Layer 0 (Background)
//Storyboard Layer 1 (Failing)
//Storyboard Layer 2 (Passing)
//Storyboard Layer 3 (Foreground)
//Storyboard Sound Samples
//Background Colour Transformations
3,100,190,190,194

[TimingPoints]
1580,517.899057606466,4,2,0,100

[HitObjects]
192,32,867,1,0
192,32,1515,2,0,B|116:64|128:160,1,140
128,224,2874,1,0
128,320,3522,2,0,B|352:320,1,210
416,256,5140,5,0
384,224,5464,1,0
384,160,6111,2,0,B|416:128|384:96|416:64|288:32,1,192.5
224,96,7406,5,0
192,128,8053,1,0
160,160,8701,1,0
128,192,9348,1,0
96,256,9931,2,2,B|256:352|448:256,1,350
448,224,11873,2,0,B|448:128,1,87.5
436,65,12844,5,0
384,64,13167,1,0
320,64,13815,2,2,B|64:64,1,245
58,98,15433,6,0,B|35:148|99:308|227:309|227:309|312:311|312:311|257:310,1,437.5
256,256,18346,1,2
288,224,18994,1,2
320,192,19641,1,2
352,160,20289,1,2
384,128,20936,1,2
416,96,21583,1,2
256,192,22166,12,0,25597
64,128,32912,6,0,B|108:33|160:128,1,122.5
224,128,34142,1,0
288,96,34790,1,0
352,96,35372,1,0
448,64,36020,6,0,B|448:352|448:352|288:160,1,525
256,128,39386,1,0
224,160,40228,1,0
192,192,40875,1,0
160,192,41522,1,0
128,192,42170,1,0
128,192,42494,1,0
32,160,43206,6,2,B|256:32|480:160,1,455
466,238,45342,2,0,B|251:376|17:237,1,455
35,162,47608,2,0,B|115:117|209:171,2,175
96,128,50586,1,0
128,160,51104,1,0
160,128,51557,1,4
256,32,53175,5,0
256,96,54082,1,0
256,160,55117,1,0
256,224,55765,1,0
256,288,56736,2,0,B|448:288|448:288|448:160,1,315
64,96,63468,5,2
96,128,63986,1,6
128,96,64439,1,2
160,128,64957,1,2
192,96,66123,1,2
224,128,66576,1,2
288,96,67029,2,2,B|403:182|403:182|353:324|403:173,1,280
409,115,68777,5,0
381,148,69748,1,0
333,136,70266,1,0
288,160,71237,1,0
256,192,72337,2,0,B|96:192,1,157.5
64,96,74474,5,2
96,64,74797,1,2
128,96,75121,2,2,B|320:96,1,175
352,96,76092,1,2
384,160,76740,1,2
416,224,77387,1,2
384,288,77646,6,0,B|256:352|192:320,1,192.5
160,288,79006,1,0
160,256,79654,1,0
160,224,80300,1,0
256,192,80818,12,0,85414
116,340,86256,2,0,B|244:52,1,297.5
314,71,87939,2,0,B|410:71,1,87.5
445,165,88975,1,0
403,246,89622,1,0
325,282,90270,1,0
325,281,90593,2,0,B|325:153|325:153|261:153,1,175
256,192,91888,12,0,95772
